  0
SECTION
  2
HEADER
  9
$ACADVER
  1
AC1014
  9
$ACADMAINTVER
 70
     9
  9
$DWGCODEPAGE
  3
ANSI_932
  9
$INSBASE
 10
0.0
 20
0.0
 30
0.0
  9
$EXTMIN
 10
77.3515945622435
 20
28.79999999999993
 30
0.0
  9
$EXTMAX
 10
958.0
 20
789.3906891244869
 30
0.0
  9
$LIMMIN
 10
0.0
 20
0.0
  9
$LIMMAX
 10
594.0
 20
420.0
  9
$ORTHOMODE
 70
     0
  9
$REGENMODE
 70
     1
  9
$FILLMODE
 70
     1
  9
$QTEXTMODE
 70
     0
  9
$MIRRTEXT
 70
     1
  9
$DRAGMODE
 70
     2
  9
$LTSCALE
 40
1.0
  9
$OSMODE
 70
    37
  9
$ATTMODE
 70
     1
  9
$TEXTSIZE
 40
2.5
  9
$TRACEWID
 40
1.0
  9
$TEXTSTYLE
  7
STANDARD
  9
$CLAYER
  8
LAY-1
  9
$CELTYPE
  6
BYLAYER
  9
$CECOLOR
 62
   256
  9
$CELTSCALE
 40
1.0
  9
$DELOBJ
 70
     1
  9
$DISPSILH
 70
     0
  9
$DIMSCALE
 40
1.0
  9
$DIMASZ
 40
2.5
  9
$DIMEXO
 40
0.625
  9
$DIMDLI
 40
3.75
  9
$DIMRND
 40
0.0
  9
$DIMDLE
 40
0.0
  9
$DIMEXE
 40
1.25
  9
$DIMTP
 40
0.0
  9
$DIMTM
 40
0.0
  9
$DIMTXT
 40
2.5
  9
$DIMCEN
 40
2.5
  9
$DIMTSZ
 40
0.0
  9
$DIMTOL
 70
     0
  9
$DIMLIM
 70
     0
  9
$DIMTIH
 70
     0
  9
$DIMTOH
 70
     0
  9
$DIMSE1
 70
     0
  9
$DIMSE2
 70
     0
  9
$DIMTAD
 70
     1
  9
$DIMZIN
 70
     8
  9
$DIMBLK
  1

  9
$DIMASO
 70
     1
  9
$DIMSHO
 70
     1
  9
$DIMPOST
  1

  9
$DIMAPOST
  1

  9
$DIMALT
 70
     0
  9
$DIMALTD
 70
     3
  9
$DIMALTF
 40
0.03937007874016
  9
$DIMLFAC
 40
1.0
  9
$DIMTOFL
 70
     1
  9
$DIMTVP
 40
0.0
  9
$DIMTIX
 70
     0
  9
$DIMSOXD
 70
     0
  9
$DIMSAH
 70
     0
  9
$DIMBLK1
  1

  9
$DIMBLK2
  1

  9
$DIMSTYLE
  2
ISO-25
  9
$DIMCLRD
 70
     0
  9
$DIMCLRE
 70
     0
  9
$DIMCLRT
 70
     0
  9
$DIMTFAC
 40
1.0
  9
$DIMGAP
 40
0.625
  9
$DIMJUST
 70
     0
  9
$DIMSD1
 70
     0
  9
$DIMSD2
 70
     0
  9
$DIMTOLJ
 70
     0
  9
$DIMTZIN
 70
     8
  9
$DIMALTZ
 70
     0
  9
$DIMALTTZ
 70
     0
  9
$DIMFIT
 70
     3
  9
$DIMUPT
 70
     0
  9
$DIMUNIT
 70
     2
  9
$DIMDEC
 70
     2
  9
$DIMTDEC
 70
     2
  9
$DIMALTU
 70
     2
  9
$DIMALTTD
 70
     3
  9
$DIMTXSTY
  7
STANDARD
  9
$DIMAUNIT
 70
     0
  9
$LUNITS
 70
     2
  9
$LUPREC
 70
     4
  9
$SKETCHINC
 40
1.0
  9
$FILLETRAD
 40
10.0
  9
$AUNITS
 70
     0
  9
$AUPREC
 70
     0
  9
$MENU
  1
.
  9
$ELEVATION
 40
0.0
  9
$PELEVATION
 40
0.0
  9
$THICKNESS
 40
0.0
  9
$LIMCHECK
 70
     0
  9
$CHAMFERA
 40
0.0
  9
$CHAMFERB
 40
0.0
  9
$CHAMFERC
 40
0.0
  9
$CHAMFERD
 40
0.0
  9
$SKPOLY
 70
     0
  9
$TDCREATE
 40
2460292.647050914
  9
$TDUPDATE
 40
2460292.647051041
  9
$TDINDWG
 40
0.0000000116
  9
$TDUSRTIMER
 40
0.0000000116
  9
$USRTIMER
 70
     1
  9
$ANGBASE
 50
0.0
  9
$ANGDIR
 70
     0
  9
$PDMODE
 70
     0
  9
$PDSIZE
 40
0.0
  9
$PLINEWID
 40
0.0
  9
$COORDS
 70
     1
  9
$SPLFRAME
 70
     0
  9
$SPLINETYPE
 70
     6
  9
$SPLINESEGS
 70
     8
  9
$ATTDIA
 70
     0
  9
$ATTREQ
 70
     1
  9
$HANDLING
 70
     1
  9
$HANDSEED
  5
774
  9
$SURFTAB1
 70
     6
  9
$SURFTAB2
 70
     6
  9
$SURFTYPE
 70
     6
  9
$SURFU
 70
     6
  9
$SURFV
 70
     6
  9
$UCSNAME
  2

  9
$UCSORG
 10
0.0
 20
0.0
 30
0.0
  9
$UCSXDIR
 10
1.0
 20
0.0
 30
0.0
  9
$UCSYDIR
 10
0.0
 20
1.0
 30
0.0
  9
$PUCSNAME
  2

  9
$PUCSORG
 10
0.0
 20
0.0
 30
0.0
  9
$PUCSXDIR
 10
1.0
 20
0.0
 30
0.0
  9
$PUCSYDIR
 10
0.0
 20
1.0
 30
0.0
  9
$USERI1
 70
     0
  9
$USERI2
 70
     0
  9
$USERI3
 70
     0
  9
$USERI4
 70
     0
  9
$USERI5
 70
     0
  9
$USERR1
 40
0.0
  9
$USERR2
 40
0.0
  9
$USERR3
 40
0.0
  9
$USERR4
 40
0.0
  9
$USERR5
 40
0.0
  9
$WORLDVIEW
 70
     1
  9
$SHADEDGE
 70
     3
  9
$SHADEDIF
 70
    70
  9
$TILEMODE
 70
     1
  9
$MAXACTVP
 70
    64
  9
$PINSBASE
 10
0.0
 20
0.0
 30
0.0
  9
$PLIMCHECK
 70
     0
  9
$PEXTMIN
 10
1.000000000000000E+20
 20
1.000000000000000E+20
 30
1.000000000000000E+20
  9
$PEXTMAX
 10
-1.000000000000000E+20
 20
-1.000000000000000E+20
 30
-1.000000000000000E+20
  9
$PLIMMIN
 10
0.0
 20
0.0
  9
$PLIMMAX
 10
420.0
 20
297.0
  9
$UNITMODE
 70
     0
  9
$VISRETAIN
 70
     1
  9
$PLINEGEN
 70
     0
  9
$PSLTSCALE
 70
     1
  9
$TREEDEPTH
 70
  3020
  9
$PICKSTYLE
 70
     1
  9
$CMLSTYLE
  2
STANDARD
  9
$CMLJUST
 70
     0
  9
$CMLSCALE
 40
20.0
  9
$PROXYGRAPHICS
 70
     1
  9
$MEASUREMENT
 70
     1
  0
ENDSEC
  0
SECTION
  2
CLASSES
  0
CLASS
  1
ACDBDICTIONARYWDFLT
  2
AcDbDictionaryWithDefault
  3
ObjectDBX Classes
 90
        0
280
     0
281
     0
  0
CLASS
  1
VISUALSTYLE
  2
AcDbVisualStyle
  3
ObjectDBX Classes
 90
     4095
280
     0
281
     0
  0
CLASS
  1
MATERIAL
  2
AcDbMaterial
  3
ObjectDBX Classes
 90
     1153
280
     0
281
     0
  0
CLASS
  1
SCALE
  2
AcDbScale
  3
ObjectDBX Classes
 90
     1153
280
     0
281
     0
  0
CLASS
  1
TABLESTYLE
  2
AcDbTableStyle
  3
ObjectDBX Classes
 90
     4095
280
     0
281
     0
  0
CLASS
  1
MLEADERSTYLE
  2
AcDbMLeaderStyle
  3
ACDB_MLEADERSTYLE_CLASS
 90
     4095
280
     0
281
     0
  0
CLASS
  1
SUN
  2
AcDbSun
  3
SCENEOE
 90
     1153
280
     0
281
     0
  0
CLASS
  1
DICTIONARYVAR
  2
AcDbDictionaryVar
  3
ObjectDBX Classes
 90
        0
280
     0
281
     0
  0
CLASS
  1
XRECORD
  2
AcDbXrecord
  3
ObjectDBX Classes
 90
        0
280
     0
281
     0
  0
CLASS
  1
LWPOLYLINE
  2
AcDbPolyline
  3
ObjectDBX Classes
 90
        0
280
     0
281
     1
  0
CLASS
  1
HATCH
  2
AcDbHatch
  3
ObjectDBX Classes
 90
        0
280
     0
281
     1
  0
CLASS
  1
ACDBPLACEHOLDER
  2
AcDbPlaceHolder
  3
ObjectDBX Classes
 90
        0
280
     0
281
     0
  0
CLASS
  1
LAYOUT
  2
AcDbLayout
  3
ObjectDBX Classes
 90
        0
280
     0
281
     0
  0
ENDSEC
  0
SECTION
  2
TABLES
  0
TABLE
  2
VPORT
  5
8
102
{ACAD_XDICTIONARY
360
769
102
}
330
0
100
AcDbSymbolTable
 70
     1
  0
VPORT
  5
29
330
8
100
AcDbSymbolTableRecord
100
AcDbViewportTableRecord
  2
*ACTIVE
 70
     0
 10
0.0
 20
0.0
 11
1.0
 21
1.0
 12
517.5
 22
409.4
 13
0.0
 23
0.0
 14
10.0
 24
10.0
 15
10.0
 25
10.0
 16
0.0
 26
0.0
 36
1.0
 17
0.0
 27
0.0
 37
0.0
 40
761.2
 41
1.157383079348397
 42
50.0
 43
0.0
 44
0.0
 50
0.0
 51
0.0
 71
     0
 72
  1000
 73
     1
 74
     3
 75
     0
 76
     0
 77
     0
 78
     0
  0
ENDTAB
  0
TABLE
  2
LTYPE
  5
5
330
0
100
AcDbSymbolTable
 70
    12
  0
LTYPE
  5
14
330
5
100
AcDbSymbolTableRecord
100
AcDbLinetypeTableRecord
  2
BYBLOCK
 70
     0
  3

 72
    65
 73
     0
 40
0.0
  0
LTYPE
  5
15
330
5
100
AcDbSymbolTableRecord
100
AcDbLinetypeTableRecord
  2
BYLAYER
 70
     0
  3

 72
    65
 73
     0
 40
0.0
  0
LTYPE
  5
16
330
5
100
AcDbSymbolTableRecord
100
AcDbLinetypeTableRecord
  2
CONTINUOUS
 70
     0
  3
Solid line
 72
    65
 73
     0
 40
0.0
  0
LTYPE
  5
6E
330
5
100
AcDbSymbolTableRecord
100
AcDbLinetypeTableRecord
  2
EXLTYPE0
 70
     0
  3
一点鎖線2
 72
    65
 73
     4
 40
8.0
 49
5.0
 74
     0
 49
-1.0
 74
     0
 49
1.0
 74
     0
 49
-1.0
 74
     0
  0
LTYPE
  5
6F
330
5
100
AcDbSymbolTableRecord
100
AcDbLinetypeTableRecord
  2
EXLTYPE1
 70
     0
  3
点線
 72
    65
 73
     2
 40
2.0
 49
1.0
 74
     0
 49
-1.0
 74
     0
  0
LTYPE
  5
70
330
5
100
AcDbSymbolTableRecord
100
AcDbLinetypeTableRecord
  2
EXLTYPE2
 70
     0
  3
一点鎖線
 72
    65
 73
     4
 40
13.0
 49
10.0
 74
     0
 49
-1.0
 74
     0
 49
1.0
 74
     0
 49
-1.0
 74
     0
  0
LTYPE
  5
71
330
5
100
AcDbSymbolTableRecord
100
AcDbLinetypeTableRecord
  2
EXLTYPE3
 70
     0
  3
二点鎖線
 72
    65
 73
     6
 40
15.0
 49
10.0
 74
     0
 49
-1.0
 74
     0
 49
1.0
 74
     0
 49
-1.0
 74
     0
 49
1.0
 74
     0
 49
-1.0
 74
     0
  0
LTYPE
  5
72
330
5
100
AcDbSymbolTableRecord
100
AcDbLinetypeTableRecord
  2
EXLTYPE4
 70
     0
  3
破線
 72
    65
 73
     2
 40
3.0
 49
2.0
 74
     0
 49
-1.0
 74
     0
  0
LTYPE
  5
73
330
5
100
AcDbSymbolTableRecord
100
AcDbLinetypeTableRecord
  2
EXLTYPE5
 70
     0
  3
点線2
 72
    65
 73
     2
 40
1.0
 49
0.5
 74
     0
 49
-0.5
 74
     0
  0
LTYPE
  5
74
330
5
100
AcDbSymbolTableRecord
100
AcDbLinetypeTableRecord
  2
EXLTYPE6
 70
     0
  3
二点鎖線2
 72
    65
 73
     6
 40
7.5
 49
5.0
 74
     0
 49
-0.5
 74
     0
 49
0.5
 74
     0
 49
-0.5
 74
     0
 49
0.5
 74
     0
 49
-0.5
 74
     0
  0
LTYPE
  5
75
330
5
100
AcDbSymbolTableRecord
100
AcDbLinetypeTableRecord
  2
EXLTYPE7
 70
     0
  3
三点鎖線
 72
    65
 73
     8
 40
37.0
 49
30.0
 74
     0
 49
-1.0
 74
     0
 49
1.0
 74
     0
 49
-1.0
 74
     0
 49
1.0
 74
     0
 49
-1.0
 74
     0
 49
1.0
 74
     0
 49
-1.0
 74
     0
  0
LTYPE
  5
76
330
5
100
AcDbSymbolTableRecord
100
AcDbLinetypeTableRecord
  2
EXLTYPE8
 70
     0
  3
一点鎖線3
 72
    65
 73
     4
 40
33.0
 49
30.0
 74
     0
 49
-1.0
 74
     0
 49
1.0
 74
     0
 49
-1.0
 74
     0
  0
LTYPE
  5
77
330
5
100
AcDbSymbolTableRecord
100
AcDbLinetypeTableRecord
  2
EXLTYPE9
 70
     0
  3
二点鎖線3
 72
    65
 73
     6
 40
4.5
 49
2.0
 74
     0
 49
-0.5
 74
     0
 49
0.5
 74
     0
 49
-0.5
 74
     0
 49
0.5
 74
     0
 49
-0.5
 74
     0
  0
LTYPE
  5
78
330
5
100
AcDbSymbolTableRecord
100
AcDbLinetypeTableRecord
  2
EXLTYPE10
 70
     0
  3
四点鎖線
 72
    65
 73
    10
 40
39.0
 49
30.0
 74
     0
 49
-1.0
 74
     0
 49
1.0
 74
     0
 49
-1.0
 74
     0
 49
1.0
 74
     0
 49
-1.0
 74
     0
 49
1.0
 74
     0
 49
-1.0
 74
     0
 49
1.0
 74
     0
 49
-1.0
 74
     0
  0
ENDTAB
  0
TABLE
  2
LAYER
  5
2
330
0
100
AcDbSymbolTable
 70
     3
  0
LAYER
  5
10
330
2
100
AcDbSymbolTableRecord
100
AcDbLayerTableRecord
  2
0
 70
     0
 62
     7
  6
CONTINUOUS
  0
LAYER
  5
7B
330
2
100
AcDbSymbolTableRecord
100
AcDbLayerTableRecord
  2
LAY-1
 70
     0
 62
     7
  6
CONTINUOUS
  0
LAYER
  5
105
330
2
100
AcDbSymbolTableRecord
100
AcDbLayerTableRecord
  2
DEFPOINTS
 70
     0
 62
     7
  6
CONTINUOUS
  0
ENDTAB
  0
TABLE
  2
STYLE
  5
3
330
0
100
AcDbSymbolTable
 70
     5
  0
STYLE
  5
11
330
3
100
AcDbSymbolTableRecord
100
AcDbTextStyleTableRecord
  2
STANDARD
 70
     0
 40
0.0
 41
1.0
 50
0.0
 71
     0
 42
2.5
  3
monotxt
  4
extfont
  0
STYLE
  5
79
330
3
100
AcDbSymbolTableRecord
100
AcDbTextStyleTableRecord
  2
EXCADSTD
 70
     0
 40
0.0
 41
1.0
 50
0.0
 71
     0
 42
2.5
  3
monotxt
  4
extfont
  0
STYLE
  5
7A
330
3
100
AcDbSymbolTableRecord
100
AcDbTextStyleTableRecord
  2
EXCADVERT
 70
     4
 40
0.0
 41
1.0
 50
0.0
 71
     0
 42
2.5
  3
monotxt
  4
extfont
  0
STYLE
  5
103
330
3
100
AcDbSymbolTableRecord
100
AcDbTextStyleTableRecord
  2
EXCADDIM1
 70
     0
 40
0.0
 41
1.0
 50
0.0
 71
     0
 42
2.5
  3
msmincho.ttc
  4

1001
ACAD
1000
MS Mincho
1071
    32785
  0
STYLE
  5
394
330
3
100
AcDbSymbolTableRecord
100
AcDbTextStyleTableRecord
  2
EXCADTTF1
 70
     0
 40
0.0
 41
1.0
 50
0.0
 71
     0
 42
2.5
  3
msmincho.ttc
  4

1001
ACAD
1000
MS Mincho
1071
    32785
  0
ENDTAB
  0
TABLE
  2
VIEW
  5
6
330
0
100
AcDbSymbolTable
 70
     0
  0
ENDTAB
  0
TABLE
  2
UCS
  5
7
330
0
100
AcDbSymbolTable
 70
     0
  0
ENDTAB
  0
TABLE
  2
APPID
  5
9
330
0
100
AcDbSymbolTable
 70
     2
  0
APPID
  5
12
330
9
100
AcDbSymbolTableRecord
100
AcDbRegAppTableRecord
  2
ACAD
 70
     0
  0
APPID
  5
773
330
9
100
AcDbSymbolTableRecord
100
AcDbRegAppTableRecord
  2
ACAD_MLEADERVER
 70
     0
  0
ENDTAB
  0
TABLE
  2
DIMSTYLE
  5
A
330
0
100
AcDbSymbolTable
 70
     1
  0
DIMSTYLE
105
27
102
{ACAD_REACTORS
330
104
330
112
330
431
102
}
330
A
100
AcDbSymbolTableRecord
100
AcDbDimStyleTableRecord
  2
ISO-25
 70
     0
  3

  4

  5

  6

  7

 40
1.0
 41
2.5
 42
0.625
 43
3.75
 44
1.25
 45
0.0
 46
0.0
 47
0.0
 48
0.0
140
2.5
141
2.5
142
0.0
143
0.03937007874016
144
1.0
145
0.0
146
1.0
147
0.625
 71
     0
 72
     0
 73
     0
 74
     0
 75
     0
 76
     0
 77
     1
 78
     8
170
     0
171
     3
172
     1
173
     0
174
     0
175
     0
176
     0
177
     0
178
     0
270
     2
271
     2
272
     2
273
     2
274
     3
340
11
275
     0
280
     0
281
     0
282
     0
283
     0
284
     8
285
     0
286
     0
287
     5
288
     0
  0
ENDTAB
  0
TABLE
  2
BLOCK_RECORD
  5
1
330
0
100
AcDbSymbolTable
 70
    21
  0
BLOCK_RECORD
  5
1F
330
1
100
AcDbSymbolTableRecord
100
AcDbBlockTableRecord
  2
*MODEL_SPACE
  0
BLOCK_RECORD
  5
1B
330
1
100
AcDbSymbolTableRecord
100
AcDbBlockTableRecord
  2
*PAPER_SPACE
  0
BLOCK_RECORD
  5
7C
330
1
100
AcDbSymbolTableRecord
100
AcDbBlockTableRecord
  2
EX_NORM
  0
BLOCK_RECORD
  5
7F
330
1
100
AcDbSymbolTableRecord
100
AcDbBlockTableRecord
  2
EX_BNORM
  0
BLOCK_RECORD
  5
82
330
1
100
AcDbSymbolTableRecord
100
AcDbBlockTableRecord
  2
EX_BCIR
  0
BLOCK_RECORD
  5
85
330
1
100
AcDbSymbolTableRecord
100
AcDbBlockTableRecord
  2
EX_RCIVIL
  0
BLOCK_RECORD
  5
88
330
1
100
AcDbSymbolTableRecord
100
AcDbBlockTableRecord
  2
EX_SLANT
  0
BLOCK_RECORD
  5
8B
330
1
100
AcDbSymbolTableRecord
100
AcDbBlockTableRecord
  2
EX_NONE
  0
BLOCK_RECORD
  5
8E
330
1
100
AcDbSymbolTableRecord
100
AcDbBlockTableRecord
  2
EX_CIVIL
  0
BLOCK_RECORD
  5
91
330
1
100
AcDbSymbolTableRecord
100
AcDbBlockTableRecord
  2
EX_WCIR
  0
BLOCK_RECORD
  5
94
330
1
100
AcDbSymbolTableRecord
100
AcDbBlockTableRecord
  2
EX_WCIR2
  0
BLOCK_RECORD
  5
97
330
1
100
AcDbSymbolTableRecord
100
AcDbBlockTableRecord
  2
EX_WNORM
  0
BLOCK_RECORD
  5
9A
330
1
100
AcDbSymbolTableRecord
100
AcDbBlockTableRecord
  2
EX_NNORM
  0
BLOCK_RECORD
  5
9D
330
1
100
AcDbSymbolTableRecord
100
AcDbBlockTableRecord
  2
EX_BBOX
  0
BLOCK_RECORD
  5
A0
330
1
100
AcDbSymbolTableRecord
100
AcDbBlockTableRecord
  2
EX_WBOX
  0
BLOCK_RECORD
  5
A3
330
1
100
AcDbSymbolTableRecord
100
AcDbBlockTableRecord
  2
EX_INTEGRAL
  0
BLOCK_RECORD
  5
A6
330
1
100
AcDbSymbolTableRecord
100
AcDbBlockTableRecord
  2
HBH12
  0
BLOCK_RECORD
  5
A9
330
1
100
AcDbSymbolTableRecord
100
AcDbBlockTableRecord
  2
HNH12
  0
BLOCK_RECORD
  5
AC
330
1
100
AcDbSymbolTableRecord
100
AcDbBlockTableRecord
  2
HBH8
  0
BLOCK_RECORD
  5
AF
330
1
100
AcDbSymbolTableRecord
100
AcDbBlockTableRecord
  2
矢印1
  0
BLOCK_RECORD
  5
106
330
1
100
AcDbSymbolTableRecord
100
AcDbBlockTableRecord
  2
*D19
  0
BLOCK_RECORD
  5
113
330
1
100
AcDbSymbolTableRecord
100
AcDbBlockTableRecord
  2
*D20
  0
BLOCK_RECORD
  5
432
330
1
100
AcDbSymbolTableRecord
100
AcDbBlockTableRecord
  2
*D21
  0
ENDTAB
  0
ENDSEC
  0
SECTION
  2
BLOCKS
  0
BLOCK
  5
20
330
1F
100
AcDbEntity
  8
0
100
AcDbBlockBegin
  2
*MODEL_SPACE
 70
     0
 10
0.0
 20
0.0
 30
0.0
  3
*MODEL_SPACE
  1

  0
ENDBLK
  5
21
330
1F
100
AcDbEntity
  8
0
100
AcDbBlockEnd
  0
BLOCK
  5
1C
330
1B
100
AcDbEntity
 67
     1
  8
0
100
AcDbBlockBegin
  2
*PAPER_SPACE
 70
     0
 10
0.0
 20
0.0
 30
0.0
  3
*PAPER_SPACE
  1

  0
ENDBLK
  5
1D
330
1B
100
AcDbEntity
 67
     1
  8
0
100
AcDbBlockEnd
  0
BLOCK
  5
7D
330
7C
100
AcDbEntity
  8
0
100
AcDbBlockBegin
  2
EX_NORM
 70
     0
 10
0.0
 20
0.0
 30
0.0
  3
EX_NORM
  1

  0
LINE
  5
B2
330
7C
100
AcDbEntity
  8
0
  6
CONTINUOUS
 62
     0
100
AcDbLine
 10
0.0
 20
0.0
 30
0.0
 11
-1.0
 21
0.0
 31
0.0
  0
LINE
  5
B3
330
7C
100
AcDbEntity
  8
0
  6
CONTINUOUS
 62
     0
100
AcDbLine
 10
0.0
 20
0.0
 30
0.0
 11
-1.0
 21
0.166666667
 31
0.0
  0
LINE
  5
B4
330
7C
100
AcDbEntity
  8
0
  6
CONTINUOUS
 62
     0
100
AcDbLine
 10
0.0
 20
0.0
 30
0.0
 11
-1.0
 21
-0.166666667
 31
0.0
  0
ENDBLK
  5
7E
330
7C
100
AcDbEntity
  8
0
100
AcDbBlockEnd
  0
BLOCK
  5
80
330
7F
100
AcDbEntity
  8
0
100
AcDbBlockBegin
  2
EX_BNORM
 70
     0
 10
0.0
 20
0.0
 30
0.0
  3
EX_BNORM
  1

  0
LINE
  5
B5
330
7F
100
AcDbEntity
  8
0
  6
CONTINUOUS
 62
     0
100
AcDbLine
 10
0.0
 20
0.0
 30
0.0
 11
-1.0
 21
0.0
 31
0.0
  0
LINE
  5
B6
330
7F
100
AcDbEntity
  8
0
  6
CONTINUOUS
 62
     0
100
AcDbLine
 10
0.0
 20
0.0
 30
0.0
 11
-1.0
 21
0.166666667
 31
0.0
  0
LINE
  5
B7
330
7F
100
AcDbEntity
  8
0
  6
CONTINUOUS
 62
     0
100
AcDbLine
 10
0.0
 20
0.0
 30
0.0
 11
-1.0
 21
-0.166666667
 31
0.0
  0
LINE
  5
B8
330
7F
100
AcDbEntity
  8
0
  6
CONTINUOUS
 62
     0
100
AcDbLine
 10
0.0
 20
0.0
 30
0.0
 11
-1.0
 21
0.083333333
 31
0.0
  0
LINE
  5
B9
330
7F
100
AcDbEntity
  8
0
  6
CONTINUOUS
 62
     0
100
AcDbLine
 10
0.0
 20
0.0
 30
0.0
 11
-1.0
 21
-0.083333333
 31
0.0
  0
LINE
  5
BA
330
7F
100
AcDbEntity
  8
0
  6
CONTINUOUS
 62
     0
100
AcDbLine
 10
-1.0
 20
0.166666667
 30
0.0
 11
-1.0
 21
-0.166666667
 31
0.0
  0
ENDBLK
  5
81
330
7F
100
AcDbEntity
  8
0
100
AcDbBlockEnd
  0
BLOCK
  5
83
330
82
100
AcDbEntity
  8
0
100
AcDbBlockBegin
  2
EX_BCIR
 70
     0
 10
0.0
 20
0.0
 30
0.0
  3
EX_BCIR
  1

  0
LINE
  5
BB
330
82
100
AcDbEntity
  8
0
  6
CONTINUOUS
 62
     0
100
AcDbLine
 10
0.0
 20
0.0
 30
0.0
 11
-1.0
 21
0.0
 31
0.0
  0
CIRCLE
  5
BC
330
82
100
AcDbEntity
  8
0
  6
CONTINUOUS
 62
     0
100
AcDbCircle
 10
0.0
 20
0.0
 30
0.0
 40
0.5
  0
CIRCLE
  5
BD
330
82
100
AcDbEntity
  8
0
  6
CONTINUOUS
 62
     0
100
AcDbCircle
 10
0.0
 20
0.0
 30
0.0
 40
0.25
  0
ENDBLK
  5
84
330
82
100
AcDbEntity
  8
0
100
AcDbBlockEnd
  0
BLOCK
  5
86
330
85
100
AcDbEntity
  8
0
100
AcDbBlockBegin
  2
EX_RCIVIL
 70
     0
 10
0.0
 20
0.0
 30
0.0
  3
EX_RCIVIL
  1

  0
LINE
  5
BE
330
85
100
AcDbEntity
  8
0
  6
CONTINUOUS
 62
     0
100
AcDbLine
 10
0.0
 20
0.0
 30
0.0
 11
-1.0
 21
0.0
 31
0.0
  0
LINE
  5
BF
330
85
100
AcDbEntity
  8
0
  6
CONTINUOUS
 62
     0
100
AcDbLine
 10
-1.0
 20
-0.25
 30
0.0
 11
0.0
 21
-0.25
 31
0.0
  0
LINE
  5
C0
330
85
100
AcDbEntity
  8
0
  6
CONTINUOUS
 62
     0
100
AcDbLine
 10
-1.0
 20
-0.125
 30
0.0
 11
0.0
 21
-0.125
 31
0.0
  0
ENDBLK
  5
87
330
85
100
AcDbEntity
  8
0
100
AcDbBlockEnd
  0
BLOCK
  5
89
330
88
100
AcDbEntity
  8
0
100
AcDbBlockBegin
  2
EX_SLANT
 70
     0
 10
0.0
 20
0.0
 30
0.0
  3
EX_SLANT
  1

  0
LINE
  5
C1
330
88
100
AcDbEntity
  8
0
  6
CONTINUOUS
 62
     0
100
AcDbLine
 10
0.0
 20
0.0
 30
0.0
 11
-1.0
 21
0.0
 31
0.0
  0
LINE
  5
C2
330
88
100
AcDbEntity
  8
0
  6
CONTINUOUS
 62
     0
100
AcDbLine
 10
0.707106781
 20
0.707106781
 30
0.0
 11
-0.707106781
 21
-0.707106781
 31
0.0
  0
ENDBLK
  5
8A
330
88
100
AcDbEntity
  8
0
100
AcDbBlockEnd
  0
BLOCK
  5
8C
330
8B
100
AcDbEntity
  8
0
100
AcDbBlockBegin
  2
EX_NONE
 70
     0
 10
0.0
 20
0.0
 30
0.0
  3
EX_NONE
  1

  0
LINE
  5
C3
330
8B
100
AcDbEntity
  8
0
  6
CONTINUOUS
 62
     0
100
AcDbLine
 10
0.0
 20
0.0
 30
0.0
 11
-1.0
 21
0.0
 31
0.0
  0
ENDBLK
  5
8D
330
8B
100
AcDbEntity
  8
0
100
AcDbBlockEnd
  0
BLOCK
  5
8F
330
8E
100
AcDbEntity
  8
0
100
AcDbBlockBegin
  2
EX_CIVIL
 70
     0
 10
0.0
 20
0.0
 30
0.0
  3
EX_CIVIL
  1

  0
LINE
  5
C4
330
8E
100
AcDbEntity
  8
0
  6
CONTINUOUS
 62
     0
100
AcDbLine
 10
0.0
 20
0.0
 30
0.0
 11
-1.0
 21
0.0
 31
0.0
  0
LINE
  5
C5
330
8E
100
AcDbEntity
  8
0
  6
CONTINUOUS
 62
     0
100
AcDbLine
 10
-1.0
 20
0.25
 30
0.0
 11
0.0
 21
0.25
 31
0.0
  0
LINE
  5
C6
330
8E
100
AcDbEntity
  8
0
  6
CONTINUOUS
 62
     0
100
AcDbLine
 10
-1.0
 20
0.125
 30
0.0
 11
0.0
 21
0.125
 31
0.0
  0
ENDBLK
  5
90
330
8E
100
AcDbEntity
  8
0
100
AcDbBlockEnd
  0
BLOCK
  5
92
330
91
100
AcDbEntity
  8
0
100
AcDbBlockBegin
  2
EX_WCIR
 70
     0
 10
0.0
 20
0.0
 30
0.0
  3
EX_WCIR
  1

  0
LINE
  5
C7
330
91
100
AcDbEntity
  8
0
  6
CONTINUOUS
 62
     0
100
AcDbLine
 10
0.0
 20
0.0
 30
0.0
 11
-1.0
 21
0.0
 31
0.0
  0
CIRCLE
  5
C8
330
91
100
AcDbEntity
  8
0
  6
CONTINUOUS
 62
     0
100
AcDbCircle
 10
0.0
 20
0.0
 30
0.0
 40
0.5
  0
ENDBLK
  5
93
330
91
100
AcDbEntity
  8
0
100
AcDbBlockEnd
  0
BLOCK
  5
95
330
94
100
AcDbEntity
  8
0
100
AcDbBlockBegin
  2
EX_WCIR2
 70
     0
 10
0.0
 20
0.0
 30
0.0
  3
EX_WCIR2
  1

  0
LINE
  5
C9
330
94
100
AcDbEntity
  8
0
  6
CONTINUOUS
 62
     0
100
AcDbLine
 10
-0.5
 20
0.0
 30
0.0
 11
-1.0
 21
0.0
 31
0.0
  0
CIRCLE
  5
CA
330
94
100
AcDbEntity
  8
0
  6
CONTINUOUS
 62
     0
100
AcDbCircle
 10
0.0
 20
0.0
 30
0.0
 40
0.5
  0
ENDBLK
  5
96
330
94
100
AcDbEntity
  8
0
100
AcDbBlockEnd
  0
BLOCK
  5
98
330
97
100
AcDbEntity
  8
0
100
AcDbBlockBegin
  2
EX_WNORM
 70
     0
 10
0.0
 20
0.0
 30
0.0
  3
EX_WNORM
  1

  0
LINE
  5
CB
330
97
100
AcDbEntity
  8
0
  6
CONTINUOUS
 62
     0
100
AcDbLine
 10
-1.0
 20
0.0
 30
0.0
 11
-1.0
 21
0.0
 31
0.0
  0
LINE
  5
CC
330
97
100
AcDbEntity
  8
0
  6
CONTINUOUS
 62
     0
100
AcDbLine
 10
0.0
 20
0.0
 30
0.0
 11
-1.0
 21
0.166666667
 31
0.0
  0
LINE
  5
CD
330
97
100
AcDbEntity
  8
0
  6
CONTINUOUS
 62
     0
100
AcDbLine
 10
0.0
 20
0.0
 30
0.0
 11
-1.0
 21
-0.166666667
 31
0.0
  0
LINE
  5
CE
330
97
100
AcDbEntity
  8
0
  6
CONTINUOUS
 62
     0
100
AcDbLine
 10
-1.0
 20
0.166666667
 30
0.0
 11
-1.0
 21
-0.166666667
 31
0.0
  0
ENDBLK
  5
99
330
97
100
AcDbEntity
  8
0
100
AcDbBlockEnd
  0
BLOCK
  5
9B
330
9A
100
AcDbEntity
  8
0
100
AcDbBlockBegin
  2
EX_NNORM
 70
     0
 10
0.0
 20
0.0
 30
0.0
  3
EX_NNORM
  1

  0
LINE
  5
CF
330
9A
100
AcDbEntity
  8
0
  6
CONTINUOUS
 62
     0
100
AcDbLine
 10
0.0
 20
0.0
 30
0.0
 11
-1.0
 21
0.0
 31
0.0
  0
LINE
  5
D0
330
9A
100
AcDbEntity
  8
0
  6
CONTINUOUS
 62
     0
100
AcDbLine
 10
0.0
 20
0.0
 30
0.0
 11
-1.0
 21
0.166666667
 31
0.0
  0
LINE
  5
D1
330
9A
100
AcDbEntity
  8
0
  6
CONTINUOUS
 62
     0
100
AcDbLine
 10
0.0
 20
0.0
 30
0.0
 11
-1.0
 21
-0.166666667
 31
0.0
  0
LINE
  5
D2
330
9A
100
AcDbEntity
  8
0
  6
CONTINUOUS
 62
     0
100
AcDbLine
 10
-1.0
 20
0.166666667
 30
0.0
 11
-1.0
 21
-0.166666667
 31
0.0
  0
ENDBLK
  5
9C
330
9A
100
AcDbEntity
  8
0
100
AcDbBlockEnd
  0
BLOCK
  5
9E
330
9D
100
AcDbEntity
  8
0
100
AcDbBlockBegin
  2
EX_BBOX
 70
     0
 10
0.0
 20
0.0
 30
0.0
  3
EX_BBOX
  1

  0
LINE
  5
D3
330
9D
100
AcDbEntity
  8
0
  6
CONTINUOUS
 62
     0
100
AcDbLine
 10
0.0
 20
0.0
 30
0.0
 11
-1.0
 21
0.0
 31
0.0
  0
LINE
  5
D4
330
9D
100
AcDbEntity
  8
0
  6
CONTINUOUS
 62
     0
100
AcDbLine
 10
-0.5
 20
0.5
 30
0.0
 11
0.5
 21
0.5
 31
0.0
  0
LINE
  5
D5
330
9D
100
AcDbEntity
  8
0
  6
CONTINUOUS
 62
     0
100
AcDbLine
 10
0.5
 20
0.5
 30
0.0
 11
0.5
 21
-0.5
 31
0.0
  0
LINE
  5
D6
330
9D
100
AcDbEntity
  8
0
  6
CONTINUOUS
 62
     0
100
AcDbLine
 10
0.5
 20
-0.5
 30
0.0
 11
-0.5
 21
-0.5
 31
0.0
  0
LINE
  5
D7
330
9D
100
AcDbEntity
  8
0
  6
CONTINUOUS
 62
     0
100
AcDbLine
 10
-0.5
 20
-0.5
 30
0.0
 11
-0.5
 21
0.5
 31
0.0
  0
LINE
  5
D8
330
9D
100
AcDbEntity
  8
0
  6
CONTINUOUS
 62
     0
100
AcDbLine
 10
-0.25
 20
0.25
 30
0.0
 11
0.25
 21
0.25
 31
0.0
  0
LINE
  5
D9
330
9D
100
AcDbEntity
  8
0
  6
CONTINUOUS
 62
     0
100
AcDbLine
 10
0.25
 20
0.25
 30
0.0
 11
0.25
 21
-0.25
 31
0.0
  0
LINE
  5
DA
330
9D
100
AcDbEntity
  8
0
  6
CONTINUOUS
 62
     0
100
AcDbLine
 10
0.25
 20
-0.25
 30
0.0
 11
-0.25
 21
-0.25
 31
0.0
  0
LINE
  5
DB
330
9D
100
AcDbEntity
  8
0
  6
CONTINUOUS
 62
     0
100
AcDbLine
 10
-0.25
 20
-0.25
 30
0.0
 11
-0.25
 21
0.25
 31
0.0
  0
ENDBLK
  5
9F
330
9D
100
AcDbEntity
  8
0
100
AcDbBlockEnd
  0
BLOCK
  5
A1
330
A0
100
AcDbEntity
  8
0
100
AcDbBlockBegin
  2
EX_WBOX
 70
     0
 10
0.0
 20
0.0
 30
0.0
  3
EX_WBOX
  1

  0
LINE
  5
DC
330
A0
100
AcDbEntity
  8
0
  6
CONTINUOUS
 62
     0
100
AcDbLine
 10
-0.5
 20
0.0
 30
0.0
 11
-1.0
 21
0.0
 31
0.0
  0
LINE
  5
DD
330
A0
100
AcDbEntity
  8
0
  6
CONTINUOUS
 62
     0
100
AcDbLine
 10
-0.5
 20
0.5
 30
0.0
 11
0.5
 21
0.5
 31
0.0
  0
LINE
  5
DE
330
A0
100
AcDbEntity
  8
0
  6
CONTINUOUS
 62
     0
100
AcDbLine
 10
0.5
 20
0.5
 30
0.0
 11
0.5
 21
-0.5
 31
0.0
  0
LINE
  5
DF
330
A0
100
AcDbEntity
  8
0
  6
CONTINUOUS
 62
     0
100
AcDbLine
 10
0.5
 20
-0.5
 30
0.0
 11
-0.5
 21
-0.5
 31
0.0
  0
LINE
  5
E0
330
A0
100
AcDbEntity
  8
0
  6
CONTINUOUS
 62
     0
100
AcDbLine
 10
-0.5
 20
-0.5
 30
0.0
 11
-0.5
 21
0.5
 31
0.0
  0
ENDBLK
  5
A2
330
A0
100
AcDbEntity
  8
0
100
AcDbBlockEnd
  0
BLOCK
  5
A4
330
A3
100
AcDbEntity
  8
0
100
AcDbBlockBegin
  2
EX_INTEGRAL
 70
     0
 10
0.0
 20
0.0
 30
0.0
  3
EX_INTEGRAL
  1

  0
LINE
  5
E1
330
A3
100
AcDbEntity
  8
0
  6
CONTINUOUS
 62
     0
100
AcDbLine
 10
0.0
 20
0.0
 30
0.0
 11
-1.0
 21
0.0
 31
0.0
  0
ARC
  5
E2
330
A3
100
AcDbEntity
  8
0
  6
CONTINUOUS
 62
     0
100
AcDbCircle
 10
0.542115
 20
0.164992
 30
0.0
 40
0.56667
100
AcDbArc
 50
73.07249033629006
 51
196.9275130221199
  0
ARC
  5
E3
330
A3
100
AcDbEntity
  8
0
  6
CONTINUOUS
 62
     0
100
AcDbCircle
 10
-0.542115
 20
-0.164992
 30
0.0
 40
0.56667
100
AcDbArc
 50
253.0724869220464
 51
16.9275130559125
  0
ENDBLK
  5
A5
330
A3
100
AcDbEntity
  8
0
100
AcDbBlockEnd
  0
BLOCK
  5
A7
330
A6
100
AcDbEntity
  8
0
100
AcDbBlockBegin
  2
HBH12
 70
     0
 10
0.0
 20
0.0
 30
0.0
  3
HBH12
  1

  0
LINE
  5
E4
330
A6
100
AcDbEntity
  8
0
  6
CONTINUOUS
 62
     3
100
AcDbLine
 10
-9.5
 20
5.484771999999992
 30
0.0
 11
-9.5
 21
-5.484878000000009
 31
0.0
  0
LINE
  5
E5
330
A6
100
AcDbEntity
  8
0
  6
CONTINUOUS
 62
     3
100
AcDbLine
 10
9.5
 20
-5.484756000000004
 30
0.0
 11
9.5
 21
5.484771999999992
 31
0.0
  0
LINE
  5
E6
330
A6
100
AcDbEntity
  8
0
  6
CONTINUOUS
 62
     3
100
AcDbLine
 10
-0.0000610000000165
 20
10.96975800000001
 30
0.0
 11
9.5
 21
5.484771999999992
 31
0.0
  0
LINE
  5
E7
330
A6
100
AcDbEntity
  8
0
  6
CONTINUOUS
 62
     3
100
AcDbLine
 10
-0.0000610000000165
 20
10.96975800000001
 30
0.0
 11
-9.500061000000017
 21
5.484771999999992
 31
0.0
  0
LINE
  5
E8
330
A6
100
AcDbEntity
  8
0
  6
CONTINUOUS
 62
     3
100
AcDbLine
 10
-9.500061000000017
 20
-5.484878000000009
 30
0.0
 11
0.0
 21
-10.96975699999999
 31
0.0
  0
LINE
  5
E9
330
A6
100
AcDbEntity
  8
0
  6
CONTINUOUS
 62
     3
100
AcDbLine
 10
0.0
 20
-10.96965
 30
0.0
 11
9.5
 21
-5.484756000000004
 31
0.0
  0
CIRCLE
  5
EA
330
A6
100
AcDbEntity
  8
0
  6
CONTINUOUS
 62
     3
100
AcDbCircle
 10
0.0
 20
0.0
 30
0.0
 40
9.0
  0
ENDBLK
  5
A8
330
A6
100
AcDbEntity
  8
0
100
AcDbBlockEnd
  0
BLOCK
  5
AA
330
A9
100
AcDbEntity
  8
0
100
AcDbBlockBegin
  2
HNH12
 70
     0
 10
0.0
 20
0.0
 30
0.0
  3
HNH12
  1

  0
LINE
  5
EB
330
A9
100
AcDbEntity
  8
0
  6
CONTINUOUS
 62
     3
100
AcDbLine
 10
-9.500011
 20
5.484772000000007
 30
0.0
 11
-9.500011
 21
-5.484879000000006
 31
0.0
  0
LINE
  5
EC
330
A9
100
AcDbEntity
  8
0
  6
CONTINUOUS
 62
     3
100
AcDbLine
 10
9.499989
 20
-5.484756000000004
 30
0.0
 11
9.499989
 21
5.484772000000007
 31
0.0
  0
LINE
  5
ED
330
A9
100
AcDbEntity
  8
0
  6
CONTINUOUS
 62
     3
100
AcDbLine
 10
-0.0000719999999994
 20
10.969757
 30
0.0
 11
9.499989
 21
5.484772000000007
 31
0.0
  0
LINE
  5
EE
330
A9
100
AcDbEntity
  8
0
  6
CONTINUOUS
 62
     3
100
AcDbLine
 10
-0.0000719999999994
 20
10.969757
 30
0.0
 11
-9.500072000000001
 21
5.484772000000007
 31
0.0
  0
LINE
  5
EF
330
A9
100
AcDbEntity
  8
0
  6
CONTINUOUS
 62
     3
100
AcDbLine
 10
-9.500072000000001
 20
-5.484879000000006
 30
0.0
 11
-0.0000110000000006
 21
-10.969757
 31
0.0
  0
LINE
  5
F0
330
A9
100
AcDbEntity
  8
0
  6
CONTINUOUS
 62
     3
100
AcDbLine
 10
-0.0000110000000006
 20
-10.96965
 30
0.0
 11
9.499989
 21
-5.484756000000004
 31
0.0
  0
CIRCLE
  5
F1
330
A9
100
AcDbEntity
  8
0
  6
CONTINUOUS
 62
     3
100
AcDbCircle
 10
-0.0000110000000006
 20
0.0
 30
0.0
 40
9.0
  0
CIRCLE
  5
F2
330
A9
100
AcDbEntity
  8
0
  6
CONTINUOUS
 62
     1
100
AcDbCircle
 10
-0.0000129999999992
 20
0.0
 30
0.0
 40
6.0
  0
CIRCLE
  5
F3
330
A9
100
AcDbEntity
  8
0
  6
CONTINUOUS
 62
     3
100
AcDbCircle
 10
-0.0000129999999992
 20
0.0
 30
0.0
 40
5.053
  0
ENDBLK
  5
AB
330
A9
100
AcDbEntity
  8
0
100
AcDbBlockEnd
  0
BLOCK
  5
AD
330
AC
100
AcDbEntity
  8
0
100
AcDbBlockBegin
  2
HBH8
 70
     0
 10
0.0
 20
0.0
 30
0.0
  3
HBH8
  1

  0
LINE
  5
F4
330
AC
100
AcDbEntity
  8
0
  6
CONTINUOUS
 62
     3
100
AcDbLine
 10
-6.5
 20
3.752746000000002
 30
0.0
 11
-6.5
 21
-3.752792999999997
 31
0.0
  0
LINE
  5
F5
330
AC
100
AcDbEntity
  8
0
  6
CONTINUOUS
 62
     3
100
AcDbLine
 10
6.5
 20
-3.752715999999992
 30
0.0
 11
6.5
 21
3.752746000000002
 31
0.0
  0
LINE
  5
F6
330
AC
100
AcDbEntity
  8
0
  6
CONTINUOUS
 62
     3
100
AcDbLine
 10
-0.000031000000007
 20
7.505629999999996
 30
0.0
 11
6.5
 21
3.752746000000002
 31
0.0
  0
LINE
  5
F7
330
AC
100
AcDbEntity
  8
0
  6
CONTINUOUS
 62
     3
100
AcDbLine
 10
-0.000031000000007
 20
7.505629999999996
 30
0.0
 11
-6.500031000000007
 21
3.752746000000002
 31
0.0
  0
LINE
  5
F8
330
AC
100
AcDbEntity
  8
0
  6
CONTINUOUS
 62
     3
100
AcDbLine
 10
-6.500031000000007
 20
-3.752792999999997
 30
0.0
 11
0.0
 21
-7.505599999999987
 31
0.0
  0
LINE
  5
F9
330
AC
100
AcDbEntity
  8
0
  6
CONTINUOUS
 62
     3
100
AcDbLine
 10
0.0
 20
-7.50552399999998
 30
0.0
 11
6.5
 21
-3.752715999999992
 31
0.0
  0
CIRCLE
  5
FA
330
AC
100
AcDbEntity
  8
0
  6
CONTINUOUS
 62
     3
100
AcDbCircle
 10
0.0
 20
0.0
 30
0.0
 40
6.25
  0
ENDBLK
  5
AE
330
AC
100
AcDbEntity
  8
0
100
AcDbBlockEnd
  0
BLOCK
  5
B0
330
AF
100
AcDbEntity
  8
0
100
AcDbBlockBegin
  2
矢印1
 70
     0
 10
0.0
 20
0.0
 30
0.0
  3
矢印1
  1

  0
LINE
  5
FB
330
AF
100
AcDbEntity
  8
0
  6
CONTINUOUS
 62
     3
100
AcDbLine
 10
-3.0
 20
0.5
 30
0.0
 11
-11.0
 21
0.5
 31
0.0
  0
LINE
  5
FC
330
AF
100
AcDbEntity
  8
0
  6
CONTINUOUS
 62
     3
100
AcDbLine
 10
-11.0
 20
0.5
 30
0.0
 11
-11.0
 21
-0.5
 31
0.0
  0
LINE
  5
FD
330
AF
100
AcDbEntity
  8
0
  6
CONTINUOUS
 62
     3
100
AcDbLine
 10
-11.0
 20
-0.5
 30
0.0
 11
-3.0
 21
-0.5
 31
0.0
  0
LINE
  5
FE
330
AF
100
AcDbEntity
  8
0
  6
CONTINUOUS
 62
     3
100
AcDbLine
 10
-3.0
 20
-1.0
 30
0.0
 11
0.0
 21
0.0
 31
0.0
  0
LINE
  5
FF
330
AF
100
AcDbEntity
  8
0
  6
CONTINUOUS
 62
     3
100
AcDbLine
 10
0.0
 20
0.0
 30
0.0
 11
-3.0
 21
1.0
 31
0.0
  0
LINE
  5
100
330
AF
100
AcDbEntity
  8
0
  6
CONTINUOUS
 62
     3
100
AcDbLine
 10
-3.0
 20
1.0
 30
0.0
 11
-3.0
 21
0.5
 31
0.0
  0
LINE
  5
101
330
AF
100
AcDbEntity
  8
0
  6
CONTINUOUS
 62
     3
100
AcDbLine
 10
-3.0
 20
-0.5
 30
0.0
 11
-3.0
 21
-1.0
 31
0.0
  0
ENDBLK
  5
B1
330
AF
100
AcDbEntity
  8
0
100
AcDbBlockEnd
  0
BLOCK
  5
107
330
106
100
AcDbEntity
  8
0
100
AcDbBlockBegin
  2
*D19
 70
     1
 10
0.0
 20
0.0
 30
0.0
  3
*D19
  1

  0
LINE
  5
109
330
106
100
AcDbEntity
  8
LAY-1
  6
CONTINUOUS
 62
     1
100
AcDbLine
 10
855.5
 20
40.60000000000002
 30
0.0
 11
958.0
 21
40.60000000000002
 31
0.0
  0
LINE
  5
10A
330
106
100
AcDbEntity
  8
LAY-1
  6
CONTINUOUS
 62
     1
100
AcDbLine
 10
952.0
 20
195.6
 30
0.0
 11
958.0
 21
195.6
 31
0.0
  0
LINE
  5
10B
330
106
100
AcDbEntity
  8
LAY-1
  6
CONTINUOUS
 62
     1
100
AcDbLine
 10
956.0
 20
45.60000000000002
 30
0.0
 11
956.0
 21
190.6
 31
0.0
  0
INSERT
  5
10C
330
106
100
AcDbEntity
  8
LAY-1
 62
     1
100
AcDbBlockReference
  2
EX_NORM
 10
956.0
 20
40.60000000000002
 30
0.0
 41
5.0
 42
5.0
 43
5.0
 50
270.0
  0
INSERT
  5
10D
330
106
100
AcDbEntity
  8
LAY-1
 62
     1
100
AcDbBlockReference
  2
EX_NORM
 10
956.0
 20
195.6
 30
0.0
 41
5.0
 42
5.0
 43
5.0
 50
90.0
  0
MTEXT
  5
10E
330
106
100
AcDbEntity
  8
LAY-1
 62
     3
100
AcDbMText
 10
949.0
 20
118.1
 30
0.0
 40
8.203189124487004
 41
0.0
 71
     5
 72
     1
  1
155
  7
EXCADDIM1
 11
0.0
 21
1.0
 31
0.0
  0
POINT
  5
10F
330
106
100
AcDbEntity
  8
DEFPOINTS
 62
     0
100
AcDbPoint
 10
853.5
 20
40.60000000000002
 30
0.0
  0
POINT
  5
110
330
106
100
AcDbEntity
  8
DEFPOINTS
 62
     0
100
AcDbPoint
 10
950.0
 20
195.6
 30
0.0
  0
POINT
  5
111
330
106
100
AcDbEntity
  8
DEFPOINTS
 62
     0
100
AcDbPoint
 10
956.0
 20
195.6
 30
0.0
  0
ENDBLK
  5
108
330
106
100
AcDbEntity
  8
0
100
AcDbBlockEnd
  0
BLOCK
  5
114
330
113
100
AcDbEntity
  8
0
100
AcDbBlockBegin
  2
*D20
 70
     1
 10
0.0
 20
0.0
 30
0.0
  3
*D20
  1

  0
LINE
  5
116
330
113
100
AcDbEntity
  8
LAY-1
  6
CONTINUOUS
 62
     1
100
AcDbLine
 10
752.35
 20
463.6
 30
0.0
 11
958.0
 21
463.6
 31
0.0
  0
LINE
  5
117
330
113
100
AcDbEntity
  8
LAY-1
  6
CONTINUOUS
 62
     1
100
AcDbLine
 10
956.0
 20
195.6
 30
0.0
 11
954.0
 21
195.6
 31
0.0
  0
LINE
  5
118
330
113
100
AcDbEntity
  8
LAY-1
  6
CONTINUOUS
 62
     1
100
AcDbLine
 10
956.0
 20
458.6
 30
0.0
 11
956.0
 21
200.6
 31
0.0
  0
INSERT
  5
119
330
113
100
AcDbEntity
  8
LAY-1
 62
     1
100
AcDbBlockReference
  2
EX_NORM
 10
956.0
 20
463.6
 30
0.0
 41
5.0
 42
5.0
 43
5.0
 50
90.0
  0
INSERT
  5
11A
330
113
100
AcDbEntity
  8
LAY-1
 62
     1
100
AcDbBlockReference
  2
EX_NORM
 10
956.0
 20
195.6
 30
0.0
 41
5.0
 42
5.0
 43
5.0
 50
270.0
  0
MTEXT
  5
11B
330
113
100
AcDbEntity
  8
LAY-1
 62
     3
100
AcDbMText
 10
949.0
 20
329.6
 30
0.0
 40
8.203189124487004
 41
0.0
 71
     5
 72
     1
  1
275
  7
EXCADDIM1
 11
0.0
 21
1.0
 31
0.0
  0
POINT
  5
11C
330
113
100
AcDbEntity
  8
DEFPOINTS
 62
     0
100
AcDbPoint
 10
750.35
 20
463.6
 30
0.0
  0
POINT
  5
11D
330
113
100
AcDbEntity
  8
DEFPOINTS
 62
     0
100
AcDbPoint
 10
958.0
 20
195.6
 30
0.0
  0
POINT
  5
11E
330
113
100
AcDbEntity
  8
DEFPOINTS
 62
     0
100
AcDbPoint
 10
956.0
 20
195.6
 30
0.0
  0
ENDBLK
  5
115
330
113
100
AcDbEntity
  8
0
100
AcDbBlockEnd
  0
BLOCK
  5
433
330
432
100
AcDbEntity
  8
0
100
AcDbBlockBegin
  2
*D21
 70
     1
 10
0.0
 20
0.0
 30
0.0
  3
*D21
  1

  0
LINE
  5
435
330
432
100
AcDbEntity
  8
LAY-1
  6
CONTINUOUS
 62
     1
100
AcDbLine
 10
367.8
 20
523.9
 30
0.0
 11
636.0
 21
523.9
 31
0.0
  0
LINE
  5
436
330
432
100
AcDbEntity
  8
LAY-1
  6
CONTINUOUS
 62
     1
100
AcDbLine
 10
367.79999999996
 20
763.9
 30
0.0
 11
636.0
 21
763.9
 31
0.0
  0
LINE
  5
437
330
432
100
AcDbEntity
  8
LAY-1
  6
CONTINUOUS
 62
     1
100
AcDbLine
 10
634.0
 20
528.9
 30
0.0
 11
634.0
 21
758.9
 31
0.0
  0
INSERT
  5
438
330
432
100
AcDbEntity
  8
LAY-1
 62
     1
100
AcDbBlockReference
  2
EX_NORM
 10
634.0
 20
523.9
 30
0.0
 41
5.0
 42
5.0
 43
5.0
 50
270.0
  0
INSERT
  5
439
330
432
100
AcDbEntity
  8
LAY-1
 62
     1
100
AcDbBlockReference
  2
EX_NORM
 10
634.0
 20
763.9
 30
0.0
 41
5.0
 42
5.0
 43
5.0
 50
90.0
  0
MTEXT
  5
43A
330
432
100
AcDbEntity
  8
LAY-1
 62
     3
100
AcDbMText
 10
627.0
 20
643.9
 30
0.0
 40
8.203189124487004
 41
0.0
 71
     5
 72
     1
  1
240
  7
EXCADDIM1
 11
0.0
 21
1.0
 31
0.0
  0
POINT
  5
43B
330
432
100
AcDbEntity
  8
DEFPOINTS
 62
     0
100
AcDbPoint
 10
365.8
 20
523.9
 30
0.0
  0
POINT
  5
43C
330
432
100
AcDbEntity
  8
DEFPOINTS
 62
     0
100
AcDbPoint
 10
365.79999999996
 20
763.9
 30
0.0
  0
POINT
  5
43D
330
432
100
AcDbEntity
  8
DEFPOINTS
 62
     0
100
AcDbPoint
 10
634.0
 20
763.9
 30
0.0
  0
ENDBLK
  5
434
330
432
100
AcDbEntity
  8
0
100
AcDbBlockEnd
  0
ENDSEC
  0
SECTION
  2
ENTITIES
  0
LINE
  5
102
330
1F
100
AcDbEntity
  8
LAY-1
  6
CONTINUOUS
 62
     1
100
AcDbLine
 10
406.2839561156086
 20
304.7371995335615
 30
0.0
 11
406.1053010713897
 21
304.232980084358
 31
0.0
  0
DIMENSION
  5
104
330
1F
100
AcDbEntity
  8
LAY-1
  6
CONTINUOUS
 62
     1
100
AcDbDimension
  2
*D19
 10
956.0
 20
195.6
 30
0.0
 11
949.0
 21
118.1
 31
0.0
 70
   160
  3
ISO-25
100
AcDbAlignedDimension
 13
853.5
 23
40.60000000000002
 33
0.0
 14
950.0
 24
195.6
 34
0.0
 50
90.0
100
AcDbRotatedDimension
1001
ACAD
1000
DSTYLE
1002
{
1070
   270
1070
     2
1070
     6
1000
EX_NORM
1070
     7
1000
EX_NORM
1070
    41
1040
5.0
1070
    42
1040
2.0
1070
    44
1040
2.0
1070
    73
1070
     0
1070
    74
1070
     0
1070
    75
1070
     0
1070
    76
1070
     0
1070
    77
1070
     1
1070
    78
1070
     8
1070
   140
1040
8.203189124487004
1070
   147
1040
0.0
1070
   173
1070
     1
1070
   176
1070
     1
1070
   177
1070
     1
1070
   178
1070
     3
1070
   271
1070
     3
1070
   277
1070
     2
1070
   279
1070
     2
1070
   280
1070
     0
1070
   287
1070
     5
1070
   340
1005
103
1002
}
  0
DIMENSION
  5
112
330
1F
100
AcDbEntity
  8
LAY-1
  6
CONTINUOUS
 62
     1
100
AcDbDimension
  2
*D20
 10
956.0
 20
195.6
 30
0.0
 11
949.0
 21
329.6
 31
0.0
 70
   160
  1
275
  3
ISO-25
100
AcDbAlignedDimension
 13
750.35
 23
463.6
 33
0.0
 14
958.0
 24
195.6
 34
0.0
 50
90.0
100
AcDbRotatedDimension
1001
ACAD
1000
DSTYLE
1002
{
1070
   270
1070
     2
1070
     6
1000
EX_NORM
1070
     7
1000
EX_NORM
1070
    41
1040
5.0
1070
    42
1040
2.0
1070
    44
1040
2.0
1070
    73
1070
     0
1070
    74
1070
     0
1070
    75
1070
     0
1070
    76
1070
     0
1070
    77
1070
     1
1070
    78
1070
     8
1070
   140
1040
8.203189124487004
1070
   147
1040
0.0
1070
   173
1070
     1
1070
   176
1070
     1
1070
   177
1070
     1
1070
   178
1070
     3
1070
   271
1070
     3
1070
   277
1070
     2
1070
   279
1070
     2
1070
   280
1070
     0
1070
   287
1070
     5
1070
   340
1005
103
1002
}
  0
ARC
  5
11F
330
1F
100
AcDbEntity
  8
LAY-1
  6
CONTINUOUS
 62
     3
100
AcDbCircle
 10
358.3648673393
 20
95.60000000000036
 30
0.0
 40
30.0
100
AcDbArc
 50
180.0
 51
270.0
  0
ARC
  5
120
330
1F
100
AcDbEntity
  8
LAY-1
  6
CONTINUOUS
 62
     3
100
AcDbCircle
 10
373.2351326606999
 20
95.60000000000036
 30
0.0
 40
30.0
100
AcDbArc
 50
270.0
 51
0.0
  0
LINE
  5
121
330
1F
100
AcDbEntity
  8
LAY-1
  6
CONTINUOUS
 62
     3
100
AcDbLine
 10
373.7
 20
65.60000000000036
 30
0.0
 11
358.3648673393
 21
65.60000000000036
 31
0.0
  0
LINE
  5
122
330
1F
100
AcDbEntity
  8
LAY-1
  6
CONTINUOUS
 62
     3
100
AcDbLine
 10
325.3648673393
 20
110.60000000005
 30
0.0
 11
308.3
 21
110.60000000005
 31
0.0
  0
LINE
  5
123
330
1F
100
AcDbEntity
  8
LAY-1
  6
CONTINUOUS
 62
     3
100
AcDbLine
 10
406.2351326606999
 20
110.6000000000499
 30
0.0
 11
423.3
 21
110.6000000000499
 31
0.0
  0
LINE
  5
124
330
1F
100
AcDbEntity
  8
LAY-1
  6
CONTINUOUS
 62
     3
100
AcDbLine
 10
448.2999999999997
 20
232.60000000003
 30
0.0
 11
448.2999999999997
 21
240.60000000003
 31
0.0
  0
ARC
  5
125
330
1F
100
AcDbEntity
  8
LAY-1
  6
CONTINUOUS
 62
     3
100
AcDbCircle
 10
450.2999999999997
 20
232.60000000003
 30
0.0
 40
2.0
100
AcDbArc
 50
180.0
 51
270.0
  0
LINE
  5
126
330
1F
100
AcDbEntity
  8
LAY-1
  6
CONTINUOUS
 62
     3
100
AcDbLine
 10
451.2999999999997
 20
230.60000000003
 30
0.0
 11
450.2999999999997
 21
230.60000000003
 31
0.0
  0
ARC
  5
127
330
1F
100
AcDbEntity
  8
LAY-1
  6
CONTINUOUS
 62
     3
100
AcDbCircle
 10
451.2999999999997
 20
228.60000000003
 30
0.0
 40
2.0
100
AcDbArc
 50
0.0
 51
90.00000000000001
  0
ARC
  5
128
330
1F
100
AcDbEntity
  8
LAY-1
  6
CONTINUOUS
 62
     3
100
AcDbCircle
 10
543.2999999999997
 20
55.60000000003004
 30
0.0
 40
15.0
100
AcDbArc
 50
270.0
 51
0.0
  0
ARC
  5
129
330
1F
100
AcDbEntity
  8
LAY-1
  6
CONTINUOUS
 62
     3
100
AcDbCircle
 10
561.2999999999997
 20
232.60000000003
 30
0.0
 40
2.0
100
AcDbArc
 50
270.0
 51
0.0
  0
ARC
  5
12A
330
1F
100
AcDbEntity
  8
LAY-1
  6
CONTINUOUS
 62
     3
100
AcDbCircle
 10
487.2999999999997
 20
215.60000000003
 30
0.0
 40
1.0
100
AcDbArc
 50
270.0
 51
0.0
  0
LINE
  5
12B
330
1F
100
AcDbEntity
  8
LAY-1
  6
CONTINUOUS
 62
     3
100
AcDbLine
 10
487.2999999999997
 20
214.60000000003
 30
0.0
 11
484.2999999999997
 21
214.60000000003
 31
0.0
  0
ARC
  5
12C
330
1F
100
AcDbEntity
  8
LAY-1
  6
CONTINUOUS
 62
     3
100
AcDbCircle
 10
484.2999999999997
 20
215.60000000003
 30
0.0
 40
1.0
100
AcDbArc
 50
180.0
 51
270.0
  0
LINE
  5
12D
330
1F
100
AcDbEntity
  8
LAY-1
  6
CONTINUOUS
 62
     3
100
AcDbLine
 10
488.2999999999997
 20
225.60000000003
 30
0.0
 11
488.2999999999997
 21
215.60000000003
 31
0.0
  0
ARC
  5
12E
330
1F
100
AcDbEntity
  8
LAY-1
  6
CONTINUOUS
 62
     3
100
AcDbCircle
 10
489.2999999999997
 20
225.60000000003
 30
0.0
 40
1.0
100
AcDbArc
 50
90.00000000000001
 51
180.0
  0
ARC
  5
12F
330
1F
100
AcDbEntity
  8
LAY-1
  6
CONTINUOUS
 62
     3
100
AcDbCircle
 10
522.2999999999997
 20
227.60000000003
 30
0.0
 40
1.0
100
AcDbArc
 50
270.0
 51
0.0
  0
ARC
  5
130
330
1F
100
AcDbEntity
  8
LAY-1
  6
CONTINUOUS
 62
     3
100
AcDbCircle
 10
522.2999999999997
 20
236.60000000003
 30
0.0
 40
1.0
100
AcDbArc
 50
0.0
 51
90.00000000000001
  0
ARC
  5
131
330
1F
100
AcDbEntity
  8
LAY-1
  6
CONTINUOUS
 62
     3
100
AcDbCircle
 10
484.2999999999997
 20
236.60000000003
 30
0.0
 40
1.0
100
AcDbArc
 50
90.00000000000001
 51
180.0
  0
ARC
  5
132
330
1F
100
AcDbEntity
  8
LAY-1
  6
CONTINUOUS
 62
     3
100
AcDbCircle
 10
525.2999999999997
 20
228.60000000003
 30
0.0
 40
2.0
100
AcDbArc
 50
90.00000000000001
 51
180.0
  0
LINE
  5
133
330
1F
100
AcDbEntity
  8
LAY-1
  6
CONTINUOUS
 62
     3
100
AcDbLine
 10
481.2999999999997
 20
230.60000000003
 30
0.0
 11
451.2999999999997
 21
230.60000000003
 31
0.0
  0
ARC
  5
134
330
1F
100
AcDbEntity
  8
LAY-1
  6
CONTINUOUS
 62
     3
100
AcDbCircle
 10
481.2999999999997
 20
228.60000000003
 30
0.0
 40
2.0
100
AcDbArc
 50
0.0
 51
90.00000000000001
  0
LINE
  5
135
330
1F
100
AcDbEntity
  8
LAY-1
  6
CONTINUOUS
 62
     3
100
AcDbLine
 10
483.2999999999997
 20
236.60000000003
 30
0.0
 11
483.2999999999997
 21
215.60000000003
 31
0.0
  0
LINE
  5
136
330
1F
100
AcDbEntity
  8
LAY-1
  6
CONTINUOUS
 62
     3
100
AcDbLine
 10
523.2999999999997
 20
236.60000000003
 30
0.0
 11
523.2999999999997
 21
227.60000000003
 31
0.0
  0
ARC
  5
137
330
1F
100
AcDbEntity
  8
LAY-1
  6
CONTINUOUS
 62
     3
100
AcDbCircle
 10
561.2999999999997
 20
227.60000000003
 30
0.0
 40
3.0
100
AcDbArc
 50
90.00000000000001
 51
180.0
  0
LINE
  5
138
330
1F
100
AcDbEntity
  8
LAY-1
  6
CONTINUOUS
 62
     3
100
AcDbLine
 10
525.2999999999997
 20
230.60000000003
 30
0.0
 11
560.2999999999997
 21
230.60000000003
 31
0.0
  0
LINE
  5
139
330
1F
100
AcDbEntity
  8
LAY-1
  6
CONTINUOUS
 62
     3
100
AcDbLine
 10
558.2999999999997
 20
55.60000000003004
 30
0.0
 11
558.2999999999997
 21
228.60000000003
 31
0.0
  0
ARC
  5
13A
330
1F
100
AcDbEntity
  8
LAY-1
  6
CONTINUOUS
 62
     3
100
AcDbCircle
 10
468.2999999999997
 20
55.60000000003004
 30
0.0
 40
15.0
100
AcDbArc
 50
180.0
 51
270.0
  0
LINE
  5
13B
330
1F
100
AcDbEntity
  8
LAY-1
  6
CONTINUOUS
 62
     3
100
AcDbLine
 10
453.2999999999997
 20
55.60000000003004
 30
0.0
 11
453.2999999999997
 21
228.60000000003
 31
0.0
  0
LINE
  5
13C
330
1F
100
AcDbEntity
  8
LAY-1
  6
CONTINUOUS
 62
     3
100
AcDbLine
 10
505.7999999999997
 20
54.60000000002992
 30
0.0
 11
491.8
 21
54.60000000002992
 31
0.0
  0
ARC
  5
13D
330
1F
100
AcDbEntity
  8
LAY-1
  6
CONTINUOUS
 62
     3
100
AcDbCircle
 10
491.8
 20
53.60000000002992
 30
0.0
 40
1.0
100
AcDbArc
 50
90.00000000000001
 51
180.0
  0
LINE
  5
13E
330
1F
100
AcDbEntity
  8
LAY-1
  6
CONTINUOUS
 62
     3
100
AcDbLine
 10
490.8
 20
53.60000000002992
 30
0.0
 11
490.8
 21
41.60000000003004
 31
0.0
  0
ARC
  5
13F
330
1F
100
AcDbEntity
  8
LAY-1
  6
CONTINUOUS
 62
     3
100
AcDbCircle
 10
491.8
 20
41.60000000003004
 30
0.0
 40
1.0
100
AcDbArc
 50
180.0
 51
270.0
  0
LINE
  5
140
330
1F
100
AcDbEntity
  8
LAY-1
  6
CONTINUOUS
 62
     3
100
AcDbLine
 10
505.7999999999997
 20
54.60000000002992
 30
0.0
 11
519.7999999999995
 21
54.60000000002992
 31
0.0
  0
ARC
  5
141
330
1F
100
AcDbEntity
  8
LAY-1
  6
CONTINUOUS
 62
     3
100
AcDbCircle
 10
519.7999999999995
 20
53.60000000002992
 30
0.0
 40
1.0
100
AcDbArc
 50
0.0
 51
90.00000000000001
  0
LINE
  5
142
330
1F
100
AcDbEntity
  8
LAY-1
  6
CONTINUOUS
 62
     3
100
AcDbLine
 10
520.7999999999995
 20
53.60000000002992
 30
0.0
 11
520.7999999999995
 21
41.60000000003004
 31
0.0
  0
ARC
  5
143
330
1F
100
AcDbEntity
  8
LAY-1
  6
CONTINUOUS
 62
     3
100
AcDbCircle
 10
519.7999999999995
 20
41.60000000003004
 30
0.0
 40
1.0
100
AcDbArc
 50
270.0
 51
0.0
  0
LINE
  5
144
330
1F
100
AcDbEntity
  8
LAY-1
  6
CONTINUOUS
 62
     3
100
AcDbLine
 10
424.8000000000004
 20
110.6000000000307
 30
0.0
 11
437.6578643762286
 21
110.6000000000307
 31
0.0
  0
ARC
  5
145
330
1F
100
AcDbEntity
  8
LAY-1
  6
CONTINUOUS
 62
     3
100
AcDbCircle
 10
452.3000000000015
 20
226.6000000000305
 30
0.0
 40
1.0
100
AcDbArc
 50
270.0
 51
0.0
  0
LINE
  5
146
330
1F
100
AcDbEntity
  8
LAY-1
  6
CONTINUOUS
 62
     3
100
AcDbLine
 10
424.8000000000004
 20
110.6000000000307
 30
0.0
 11
437.6578643762286
 21
110.6000000000307
 31
0.0
  0
ARC
  5
147
330
1F
100
AcDbEntity
  8
LAY-1
  6
CONTINUOUS
 62
     3
100
AcDbCircle
 10
437.6578643762284
 20
105.6000000000307
 30
0.0
 40
5.0
100
AcDbArc
 50
44.99999999999837
 51
89.9999999999987
  0
LINE
  5
148
330
1F
100
AcDbEntity
  8
LAY-1
  6
CONTINUOUS
 62
     3
100
AcDbLine
 10
441.1933982821613
 20
109.1355339059636
 30
0.0
 11
451.8355339059331
 21
98.4933982821916
 31
0.0
  0
ARC
  5
149
330
1F
100
AcDbEntity
  8
LAY-1
  6
CONTINUOUS
 62
     3
100
AcDbCircle
 10
448.3000000000002
 20
94.95786437625895
 30
0.0
 40
5.0
100
AcDbArc
 50
0.0
 51
44.99999999999861
  0
ARC
  5
14A
330
1F
100
AcDbEntity
  8
LAY-1
  6
CONTINUOUS
 62
     3
100
AcDbCircle
 10
561.3
 20
75.60000000002935
 30
0.0
 40
3.0
100
AcDbArc
 50
179.9999999999995
 51
269.9999999999979
  0
LINE
  5
14B
330
1F
100
AcDbEntity
  8
LAY-1
  6
CONTINUOUS
 62
     3
100
AcDbLine
 10
563.2999999999997
 20
232.60000000003
 30
0.0
 11
563.2999999999997
 21
240.60000000003
 31
0.0
  0
LINE
  5
14C
330
1F
100
AcDbEntity
  8
LAY-1
  6
CONTINUOUS
 62
     3
100
AcDbLine
 10
564.7999999999995
 20
40.60000000003004
 30
0.0
 11
468.3
 21
40.60000000003004
 31
0.0
  0
ARC
  5
14D
330
1F
100
AcDbEntity
  8
LAY-1
  6
CONTINUOUS
 62
     3
100
AcDbCircle
 10
564.7999999999995
 20
41.60000000003004
 30
0.0
 40
1.0
100
AcDbArc
 50
270.0
 51
0.0
  0
LINE
  5
14E
330
1F
100
AcDbEntity
  8
LAY-1
  6
CONTINUOUS
 62
     3
100
AcDbLine
 10
561.3
 20
72.60000000002935
 30
0.0
 11
564.7999999999997
 21
72.60000000002935
 31
0.0
  0
LINE
  5
14F
330
1F
100
AcDbEntity
  8
LAY-1
  6
CONTINUOUS
 62
     3
100
AcDbLine
 10
565.8
 20
71.60000000002935
 30
0.0
 11
565.7999999999995
 21
41.60000000003004
 31
0.0
  0
ARC
  5
150
330
1F
100
AcDbEntity
  8
LAY-1
  6
CONTINUOUS
 62
     3
100
AcDbCircle
 10
564.8
 20
71.60000000002935
 30
0.0
 40
1.0
100
AcDbArc
 50
0.0
 51
90.00000000000001
  0
ARC
  5
151
330
1F
100
AcDbEntity
  8
LAY-1
  6
CONTINUOUS
 62
     3
100
AcDbCircle
 10
391.3000000000002
 20
417.1
 30
0.0
 40
2.0
100
AcDbArc
 50
0.0
 51
90.00000000000001
  0
ARC
  5
152
330
1F
100
AcDbEntity
  8
LAY-1
  6
CONTINUOUS
 62
     3
100
AcDbCircle
 10
340.3
 20
417.1
 30
0.0
 40
2.0
100
AcDbArc
 50
90.00000000000001
 51
180.0
  0
ARC
  5
153
330
1F
100
AcDbEntity
  8
LAY-1
  6
CONTINUOUS
 62
     3
100
AcDbCircle
 10
337.45261115583
 20
391.0999999999996
 30
0.0
 40
3.0
100
AcDbArc
 50
90.00000000000001
 51
166.9764154881514
  0
ARC
  5
154
330
1F
100
AcDbEntity
  8
LAY-1
  6
CONTINUOUS
 62
     3
100
AcDbCircle
 10
320.3
 20
418.3039563831738
 30
0.0
 40
18.0
100
AcDbArc
 50
296.5487560517124
 51
356.173387513748
  0
LINE
  5
155
330
1F
100
AcDbEntity
  8
LAY-1
  6
CONTINUOUS
 62
     3
100
AcDbLine
 10
316.1754404861208
 20
379.1
 30
0.0
 11
315.8
 21
379.1
 31
0.0
  0
ARC
  5
156
330
1F
100
AcDbEntity
  8
LAY-1
  6
CONTINUOUS
 62
     3
100
AcDbCircle
 10
316.1754404861208
 20
380.1
 30
0.0
 40
1.0
100
AcDbArc
 50
270.0
 51
352.5052825460738
  0
LINE
  5
157
330
1F
100
AcDbEntity
  8
LAY-1
  6
CONTINUOUS
 62
     3
100
AcDbLine
 10
317.8126587349482
 20
329.1000000000002
 30
0.0
 11
315.8
 21
329.1000000000002
 31
0.0
  0
ARC
  5
158
330
1F
100
AcDbEntity
  8
LAY-1
  6
CONTINUOUS
 62
     3
100
AcDbCircle
 10
317.8126587349482
 20
328.1000000000002
 30
0.0
 40
1.0
100
AcDbArc
 50
11.10143736150327
 51
90.00000000000001
  0
ARC
  5
159
330
1F
100
AcDbEntity
  8
LAY-1
  6
CONTINUOUS
 62
     3
100
AcDbCircle
 10
475.8
 20
359.1
 30
0.0
 40
160.0
100
AcDbArc
 50
169.0389961322102
 51
172.5052825460734
  0
ARC
  5
15A
330
1F
100
AcDbEntity
  8
LAY-1
  6
CONTINUOUS
 62
     3
100
AcDbCircle
 10
336.3905311680701
 20
386.1
 30
0.0
 40
18.0
100
AcDbArc
 50
112.2479062330406
 51
169.0389961322111
  0
ARC
  5
15B
330
1F
100
AcDbEntity
  8
LAY-1
  6
CONTINUOUS
 62
     3
100
AcDbCircle
 10
475.8
 20
359.1
 30
0.0
 40
145.0
100
AcDbArc
 50
166.9764154881515
 51
205.8884039317594
  0
ARC
  5
15C
330
1F
100
AcDbEntity
  8
LAY-1
  6
CONTINUOUS
 62
     3
100
AcDbCircle
 10
348.0502446186297
 20
297.0999999999998
 30
0.0
 40
3.0
100
AcDbArc
 50
205.8884039317593
 51
270.0
  0
ARC
  5
15D
330
1F
100
AcDbEntity
  8
LAY-1
  6
CONTINUOUS
 62
     3
100
AcDbCircle
 10
312.8
 20
268.1
 30
0.0
 40
2.0
100
AcDbArc
 50
90.00000000000001
 51
180.0
  0
ARC
  5
15E
330
1F
100
AcDbEntity
  8
LAY-1
  6
CONTINUOUS
 62
     3
100
AcDbCircle
 10
312.8
 20
268.1
 30
0.0
 40
2.0
100
AcDbArc
 50
90.00000000000001
 51
180.0
  0
LINE
  5
15F
330
1F
100
AcDbEntity
  8
LAY-1
  6
CONTINUOUS
 62
     3
100
AcDbLine
 10
310.8
 20
268.1
 30
0.0
 11
310.8
 21
256.1
 31
0.0
  0
ARC
  5
160
330
1F
100
AcDbEntity
  8
LAY-1
  6
CONTINUOUS
 62
     3
100
AcDbCircle
 10
475.8
 20
359.1
 30
0.0
 40
160.0
100
AcDbArc
 50
191.1014373615025
 51
208.8254491604128
  0
ARC
  5
161
330
1F
100
AcDbEntity
  8
LAY-1
  6
CONTINUOUS
 62
     3
100
AcDbCircle
 10
383.5497553813705
 20
297.0999999999998
 30
0.0
 40
3.0
100
AcDbArc
 50
270.0
 51
334.1115960682412
  0
ARC
  5
162
330
1F
100
AcDbEntity
  8
LAY-1
  6
CONTINUOUS
 62
     3
100
AcDbCircle
 10
418.8
 20
268.1000000000001
 30
0.0
 40
2.0
100
AcDbArc
 50
0.0
 51
90.00000000000162
  0
ARC
  5
163
330
1F
100
AcDbEntity
  8
LAY-1
  6
CONTINUOUS
 62
     3
100
AcDbCircle
 10
418.8
 20
268.1000000000001
 30
0.0
 40
2.0
100
AcDbArc
 50
0.0
 51
90.00000000000162
  0
LINE
  5
164
330
1F
100
AcDbEntity
  8
LAY-1
  6
CONTINUOUS
 62
     3
100
AcDbLine
 10
415.4245595138793
 20
379.1
 30
0.0
 11
415.8
 21
379.1
 31
0.0
  0
ARC
  5
165
330
1F
100
AcDbEntity
  8
LAY-1
  6
CONTINUOUS
 62
     3
100
AcDbCircle
 10
415.4245595138793
 20
380.1
 30
0.0
 40
1.0
100
AcDbArc
 50
187.4947174539263
 51
270.0
  0
LINE
  5
166
330
1F
100
AcDbEntity
  8
LAY-1
  6
CONTINUOUS
 62
     3
100
AcDbLine
 10
413.787341265052
 20
329.1000000000002
 30
0.0
 11
415.8
 21
329.1000000000002
 31
0.0
  0
ARC
  5
167
330
1F
100
AcDbEntity
  8
LAY-1
  6
CONTINUOUS
 62
     3
100
AcDbCircle
 10
413.787341265052
 20
328.1000000000002
 30
0.0
 40
1.0
100
AcDbArc
 50
90.00000000000001
 51
168.8985626384952
  0
ARC
  5
168
330
1F
100
AcDbEntity
  8
LAY-1
  6
CONTINUOUS
 62
     3
100
AcDbCircle
 10
394.1473888441701
 20
391.0999999999996
 30
0.0
 40
3.0
100
AcDbArc
 50
13.02358451184868
 51
90.00000000000001
  0
ARC
  5
169
330
1F
100
AcDbEntity
  8
LAY-1
  6
CONTINUOUS
 62
     3
100
AcDbCircle
 10
411.3
 20
418.3039563831738
 30
0.0
 40
18.0
100
AcDbArc
 50
183.826612486252
 51
243.4512439482877
  0
ARC
  5
16A
330
1F
100
AcDbEntity
  8
LAY-1
  6
CONTINUOUS
 62
     3
100
AcDbCircle
 10
395.2094688319301
 20
386.1
 30
0.0
 40
18.0
100
AcDbArc
 50
10.96100386778904
 51
67.75209376695962
  0
ARC
  5
16B
330
1F
100
AcDbEntity
  8
LAY-1
  6
CONTINUOUS
 62
     3
100
AcDbCircle
 10
255.8
 20
359.0999999999998
 30
0.0
 40
160.0
100
AcDbArc
 50
7.494717453926682
 51
10.96100386778984
  0
ARC
  5
16C
330
1F
100
AcDbEntity
  8
LAY-1
  6
CONTINUOUS
 62
     3
100
AcDbCircle
 10
255.8
 20
359.0999999999998
 30
0.0
 40
160.0
100
AcDbArc
 50
331.1745508395874
 51
348.8985626384976
  0
LINE
  5
16D
330
1F
100
AcDbEntity
  8
LAY-1
  6
CONTINUOUS
 62
     3
100
AcDbLine
 10
420.8
 20
268.1
 30
0.0
 11
420.8
 21
256.1
 31
0.0
  0
LINE
  5
16E
330
1F
100
AcDbEntity
  8
LAY-1
  6
CONTINUOUS
 62
     3
100
AcDbLine
 10
393.3000000000002
 20
405.9
 30
0.0
 11
393.3000000000002
 21
396.0999999999998
 31
0.0
  0
LINE
  5
16F
330
1F
100
AcDbEntity
  8
LAY-1
  6
CONTINUOUS
 62
     3
100
AcDbLine
 10
393.3000000000002
 20
403.1
 30
0.0
 11
393.3000000000002
 21
396.0999999999998
 31
0.0
  0
LINE
  5
170
330
1F
100
AcDbEntity
  8
LAY-1
  6
CONTINUOUS
 62
     3
100
AcDbLine
 10
338.3
 20
405.6999999999999
 30
0.0
 11
338.3
 21
396.0999999999998
 31
0.0
  0
LINE
  5
171
330
1F
100
AcDbEntity
  8
LAY-1
  6
CONTINUOUS
 62
     3
100
AcDbLine
 10
375.8
 20
460.5999999999998
 30
0.0
 11
355.8
 21
460.5999999999998
 31
0.0
  0
ARC
  5
172
330
1F
100
AcDbEntity
  8
LAY-1
  6
CONTINUOUS
 62
     3
100
AcDbCircle
 10
360.05
 20
461.5999999999996
 30
0.0
 40
2.0
100
AcDbArc
 50
90.00000000000001
 51
180.0
  0
LINE
  5
173
330
1F
100
AcDbEntity
  8
LAY-1
  6
CONTINUOUS
 62
     3
100
AcDbLine
 10
358.05
 20
460.5999999999998
 30
0.0
 11
358.05
 21
461.5999999999996
 31
0.0
  0
ARC
  5
174
330
1F
100
AcDbEntity
  8
LAY-1
  6
CONTINUOUS
 62
     3
100
AcDbCircle
 10
371.55
 20
461.5999999999997
 30
0.0
 40
2.0
100
AcDbArc
 50
0.0
 51
90.00000000000001
  0
LINE
  5
175
330
1F
100
AcDbEntity
  8
LAY-1
  6
CONTINUOUS
 62
     3
100
AcDbLine
 10
373.55
 20
460.5999999999998
 30
0.0
 11
373.55
 21
461.5999999999997
 31
0.0
  0
LINE
  5
176
330
1F
100
AcDbEntity
  8
LAY-1
  6
CONTINUOUS
 62
     3
100
AcDbLine
 10
365.8000000000006
 20
461.0019237886461
 30
0.0
 11
367.3000000000009
 21
463.5999999999995
 31
0.0
  0
LINE
  5
177
330
1F
100
AcDbEntity
  8
LAY-1
  6
CONTINUOUS
 62
     3
100
AcDbLine
 10
365.799999999999
 20
461.0019237886461
 30
0.0
 11
364.299999999999
 21
463.5999999999995
 31
0.0
  0
LINE
  5
178
330
1F
100
AcDbEntity
  8
LAY-1
  6
CONTINUOUS
 62
     3
100
AcDbLine
 10
364.299999999999
 20
463.5999999999996
 30
0.0
 11
360.05
 21
463.5999999999996
 31
0.0
  0
LINE
  5
179
330
1F
100
AcDbEntity
  8
LAY-1
  6
CONTINUOUS
 62
     3
100
AcDbLine
 10
371.55
 20
463.5999999999996
 30
0.0
 11
367.3000000000009
 21
463.5999999999996
 31
0.0
  0
LINE
  5
17A
330
1F
100
AcDbEntity
  8
LAY-1
  6
CONTINUOUS
 62
     3
100
AcDbLine
 10
343.3
 20
327.1
 30
0.0
 11
343.3
 21
313.1
 31
0.0
  0
LINE
  5
17B
330
1F
100
AcDbEntity
  8
LAY-1
  6
CONTINUOUS
 62
     3
100
AcDbLine
 10
388.3
 20
327.1
 30
0.0
 11
388.3
 21
313.1
 31
0.0
  0
LINE
  5
17C
330
1F
100
AcDbEntity
  8
LAY-1
  6
CONTINUOUS
 62
     3
100
AcDbLine
 10
365.8
 20
327.1
 30
0.0
 11
343.3
 21
327.1
 31
0.0
  0
LINE
  5
17D
330
1F
100
AcDbEntity
  8
LAY-1
  6
CONTINUOUS
 62
     3
100
AcDbLine
 10
365.8
 20
327.1
 30
0.0
 11
388.3
 21
327.1
 31
0.0
  0
LINE
  5
17E
330
1F
100
AcDbEntity
  8
LAY-1
  6
CONTINUOUS
 62
     3
100
AcDbLine
 10
388.3000000000001
 20
388.1
 30
0.0
 11
388.3000000000001
 21
394.1
 31
0.0
  0
LINE
  5
17F
330
1F
100
AcDbEntity
  8
LAY-1
  6
CONTINUOUS
 62
     3
100
AcDbLine
 10
343.3
 20
394.1
 30
0.0
 11
343.3
 21
388.1
 31
0.0
  0
LINE
  5
180
330
1F
100
AcDbEntity
  8
LAY-1
  6
CONTINUOUS
 62
     3
100
AcDbLine
 10
347.875
 20
394.1
 30
0.0
 11
343.3
 21
394.1
 31
0.0
  0
LINE
  5
181
330
1F
100
AcDbEntity
  8
LAY-1
  6
CONTINUOUS
 62
     3
100
AcDbLine
 10
383.725
 20
394.0999999999999
 30
0.0
 11
394.1473888441701
 21
394.1
 31
0.0
  0
LINE
  5
182
330
1F
100
AcDbEntity
  8
LAY-1
  6
CONTINUOUS
 62
     3
100
AcDbLine
 10
343.3
 20
422.1
 30
0.0
 11
343.3
 21
419.1
 31
0.0
  0
LINE
  5
183
330
1F
100
AcDbEntity
  8
LAY-1
  6
CONTINUOUS
 62
     3
100
AcDbLine
 10
388.3
 20
422.1
 30
0.0
 11
388.3
 21
419.1
 31
0.0
  0
LINE
  5
184
330
1F
100
AcDbEntity
  8
LAY-1
  6
CONTINUOUS
 62
     3
100
AcDbLine
 10
343.3
 20
419.1
 30
0.0
 11
348.875
 21
419.1
 31
0.0
  0
LINE
  5
185
330
1F
100
AcDbEntity
  8
LAY-1
  6
CONTINUOUS
 62
     3
100
AcDbLine
 10
515.8000000000002
 20
439.4
 30
0.0
 11
515.8000000000002
 21
432.4
 31
0.0
  0
LINE
  5
186
330
1F
100
AcDbEntity
  8
LAY-1
  6
CONTINUOUS
 62
     3
100
AcDbLine
 10
514.8000000000002
 20
440.4
 30
0.0
 11
515.8000000000002
 21
439.4
 31
0.0
  0
LINE
  5
187
330
1F
100
AcDbEntity
  8
LAY-1
  6
CONTINUOUS
 62
     3
100
AcDbLine
 10
515.8000000000002
 20
425.4
 30
0.0
 11
515.8000000000002
 21
432.4
 31
0.0
  0
LINE
  5
188
330
1F
100
AcDbEntity
  8
LAY-1
  6
CONTINUOUS
 62
     3
100
AcDbLine
 10
514.8000000000002
 20
424.4
 30
0.0
 11
515.8000000000002
 21
425.4
 31
0.0
  0
LINE
  5
189
330
1F
100
AcDbEntity
  8
LAY-1
  6
CONTINUOUS
 62
     3
100
AcDbLine
 10
393.3000000000002
 20
432.4
 30
0.0
 11
393.3000000000002
 21
442.4
 31
0.0
  0
LINE
  5
18A
330
1F
100
AcDbEntity
  8
LAY-1
  6
CONTINUOUS
 62
     3
100
AcDbLine
 10
514.8000000000002
 20
424.4
 30
0.0
 11
393.3
 21
424.4
 31
0.0
  0
LINE
  5
18B
330
1F
100
AcDbEntity
  8
LAY-1
  6
CONTINUOUS
 62
     3
100
AcDbLine
 10
393.3000000000002
 20
432.4
 30
0.0
 11
393.3000000000002
 21
422.4
 31
0.0
  0
LINE
  5
18C
330
1F
100
AcDbEntity
  8
LAY-1
  6
CONTINUOUS
 62
     3
100
AcDbLine
 10
338.3
 20
432.4
 30
0.0
 11
338.3
 21
442.4
 31
0.0
  0
LINE
  5
18D
330
1F
100
AcDbEntity
  8
LAY-1
  6
CONTINUOUS
 62
     3
100
AcDbLine
 10
338.3
 20
432.4
 30
0.0
 11
338.3
 21
422.4
 31
0.0
  0
LINE
  5
18E
330
1F
100
AcDbEntity
  8
LAY-1
  6
CONTINUOUS
 62
     3
100
AcDbLine
 10
314.70909090909
 20
440.4
 30
0.0
 11
338.3
 21
440.4
 31
0.0
  0
LINE
  5
18F
330
1F
100
AcDbEntity
  8
LAY-1
  6
CONTINUOUS
 62
     3
100
AcDbLine
 10
307.4363636363601
 20
424.4
 30
0.0
 11
338.3000000000001
 21
424.4
 31
0.0
  0
LINE
  5
190
330
1F
100
AcDbEntity
  8
LAY-1
  6
CONTINUOUS
 62
     3
100
AcDbLine
 10
336.2999999999993
 20
440.4000000000007
 30
0.0
 11
338.2999999999993
 21
442.4000000000007
 31
0.0
  0
LINE
  5
191
330
1F
100
AcDbEntity
  8
LAY-1
  6
CONTINUOUS
 62
     3
100
AcDbLine
 10
336.2999999999993
 20
424.3999999999993
 30
0.0
 11
338.2999999999993
 21
422.3999999999993
 31
0.0
  0
LINE
  5
192
330
1F
100
AcDbEntity
  8
LAY-1
  6
CONTINUOUS
 62
     3
100
AcDbLine
 10
395.3000000000008
 20
440.4000000000007
 30
0.0
 11
393.3000000000008
 21
442.4000000000007
 31
0.0
  0
LINE
  5
193
330
1F
100
AcDbEntity
  8
LAY-1
  6
CONTINUOUS
 62
     3
100
AcDbLine
 10
395.3000000000008
 20
424.3999999999993
 30
0.0
 11
393.3000000000008
 21
422.3999999999993
 31
0.0
  0
LINE
  5
194
330
1F
100
AcDbEntity
  8
LAY-1
  6
CONTINUOUS
 62
     3
100
AcDbLine
 10
346.8
 20
450.4
 30
0.0
 11
384.8
 21
450.4
 31
0.0
  0
LINE
  5
195
330
1F
100
AcDbEntity
  8
LAY-1
  6
CONTINUOUS
 62
     3
100
AcDbLine
 10
393.3
 20
440.4
 30
0.0
 11
514.8
 21
440.4
 31
0.0
  0
LINE
  5
196
330
1F
100
AcDbEntity
  8
LAY-1
  6
CONTINUOUS
 62
     3
100
AcDbLine
 10
215.7999999999997
 20
439.4
 30
0.0
 11
215.7999999999997
 21
432.4
 31
0.0
  0
LINE
  5
197
330
1F
100
AcDbEntity
  8
LAY-1
  6
CONTINUOUS
 62
     3
100
AcDbLine
 10
216.7999999999997
 20
440.4
 30
0.0
 11
215.7999999999997
 21
439.4
 31
0.0
  0
LINE
  5
198
330
1F
100
AcDbEntity
  8
LAY-1
  6
CONTINUOUS
 62
     3
100
AcDbLine
 10
215.7999999999997
 20
425.4
 30
0.0
 11
215.7999999999997
 21
432.4
 31
0.0
  0
LINE
  5
199
330
1F
100
AcDbEntity
  8
LAY-1
  6
CONTINUOUS
 62
     3
100
AcDbLine
 10
216.7999999999997
 20
424.4
 30
0.0
 11
215.7999999999997
 21
425.4
 31
0.0
  0
LINE
  5
19A
330
1F
100
AcDbEntity
  8
LAY-1
  6
CONTINUOUS
 62
     3
100
AcDbLine
 10
338.3
 20
440.4
 30
0.0
 11
216.8
 21
440.4
 31
0.0
  0
LINE
  5
19B
330
1F
100
AcDbEntity
  8
LAY-1
  6
CONTINUOUS
 62
     3
100
AcDbLine
 10
216.7999999999997
 20
424.4
 30
0.0
 11
338.3
 21
424.4
 31
0.0
  0
LINE
  5
19C
330
1F
100
AcDbEntity
  8
LAY-1
  6
EXLTYPE2
 62
     1
100
AcDbLine
 10
420.8
 20
432.4
 30
0.0
 11
196.0
 21
432.4
 31
0.0
  0
LINE
  5
19D
330
1F
100
AcDbEntity
  8
LAY-1
  6
EXLTYPE2
 62
     1
100
AcDbLine
 10
310.8
 20
432.4
 30
0.0
 11
538.0
 21
432.3999999999998
 31
0.0
  0
LINE
  5
19E
330
1F
100
AcDbEntity
  8
LAY-1
  6
CONTINUOUS
 62
     3
100
AcDbLine
 10
345.8
 20
358.6
 30
0.0
 11
345.8
 21
378.6
 31
0.0
  0
LINE
  5
19F
330
1F
100
AcDbEntity
  8
LAY-1
  6
CONTINUOUS
 62
     3
100
AcDbLine
 10
385.8
 20
358.6
 30
0.0
 11
385.8
 21
378.6
 31
0.0
  0
LINE
  5
1A0
330
1F
100
AcDbEntity
  8
LAY-1
  6
CONTINUOUS
 62
     3
100
AcDbLine
 10
385.8000000000002
 20
377.6
 30
0.0
 11
389.8000000000006
 21
373.5999999999997
 31
0.0
  0
LINE
  5
1A1
330
1F
100
AcDbEntity
  8
LAY-1
  6
CONTINUOUS
 62
     3
100
AcDbLine
 10
385.8000000000002
 20
359.5999999999999
 30
0.0
 11
389.8000000000006
 21
363.6000000000003
 31
0.0
  0
LINE
  5
1A2
330
1F
100
AcDbEntity
  8
LAY-1
  6
CONTINUOUS
 62
     3
100
AcDbLine
 10
542.7550807568903
 20
373.6
 30
0.0
 11
385.8
 21
373.5999999999997
 31
0.0
  0
LINE
  5
1A3
330
1F
100
AcDbEntity
  8
LAY-1
  6
CONTINUOUS
 62
     3
100
AcDbLine
 10
542.7550807568897
 20
373.6
 30
0.0
 11
542.7550807568898
 21
363.6000000000001
 31
0.0
  0
LINE
  5
1A4
330
1F
100
AcDbEntity
  8
LAY-1
  6
EXLTYPE2
 62
     1
100
AcDbLine
 10
343.5999999999999
 20
368.6
 30
0.0
 11
552.0
 21
368.6
 31
0.0
  0
ARC
  5
1A5
330
1F
100
AcDbEntity
  8
LAY-1
  6
CONTINUOUS
 62
     3
100
AcDbCircle
 10
485.8000000000001
 20
290.6000000000301
 30
0.0
 40
1.0
100
AcDbArc
 50
90.00000000000001
 51
180.0
  0
ARC
  5
1A6
330
1F
100
AcDbEntity
  8
LAY-1
  6
CONTINUOUS
 62
     3
100
AcDbCircle
 10
485.8000000000001
 20
262.6000000000301
 30
0.0
 40
1.0
100
AcDbArc
 50
180.0
 51
270.0
  0
LINE
  5
1A7
330
1F
100
AcDbEntity
  8
LAY-1
  6
CONTINUOUS
 62
     3
100
AcDbLine
 10
525.8
 20
291.60000000003
 30
0.0
 11
505.8
 21
291.60000000003
 31
0.0
  0
LINE
  5
1A8
330
1F
100
AcDbEntity
  8
LAY-1
  6
CONTINUOUS
 62
     3
100
AcDbLine
 10
485.8000000000001
 20
291.6000000000301
 30
0.0
 11
505.8000000000001
 21
291.60000000003
 31
0.0
  0
LINE
  5
1A9
330
1F
100
AcDbEntity
  8
LAY-1
  6
CONTINUOUS
 62
     3
100
AcDbLine
 10
484.8000000000001
 20
290.6000000000301
 30
0.0
 11
484.8000000000001
 21
285.1246785390914
 31
0.0
  0
LINE
  5
1AA
330
1F
100
AcDbEntity
  8
LAY-1
  6
CONTINUOUS
 62
     3
100
AcDbLine
 10
496.8
 20
291.6000000000301
 30
0.0
 11
496.8
 21
237.60000000003
 31
0.0
  0
LINE
  5
1AB
330
1F
100
AcDbEntity
  8
LAY-1
  6
CONTINUOUS
 62
     3
100
AcDbLine
 10
484.8000000000001
 20
285.12467853909
 30
0.0
 11
484.8000000000001
 21
262.6000000000301
 31
0.0
  0
LINE
  5
1AC
330
1F
100
AcDbEntity
  8
LAY-1
  6
CONTINUOUS
 62
     3
100
AcDbLine
 10
485.8
 20
261.6000000000299
 30
0.0
 11
490.8000000000002
 21
261.6000000000299
 31
0.0
  0
LINE
  5
1AD
330
1F
100
AcDbEntity
  8
LAY-1
  6
CONTINUOUS
 62
     3
100
AcDbLine
 10
490.8000000000002
 20
291.6000000000301
 30
0.0
 11
490.8000000000002
 21
215.60000000003
 31
0.0
  0
ARC
  5
1AE
330
1F
100
AcDbEntity
  8
LAY-1
  6
CONTINUOUS
 62
     3
100
AcDbCircle
 10
491.8000000000002
 20
215.60000000003
 30
0.0
 40
1.0
100
AcDbArc
 50
180.0
 51
270.0
  0
LINE
  5
1AF
330
1F
100
AcDbEntity
  8
LAY-1
  6
CONTINUOUS
 62
     3
100
AcDbLine
 10
514.8000000000002
 20
291.6000000000301
 30
0.0
 11
514.8
 21
237.60000000003
 31
0.0
  0
LINE
  5
1B0
330
1F
100
AcDbEntity
  8
LAY-1
  6
CONTINUOUS
 62
     3
100
AcDbLine
 10
520.8
 20
291.6000000000301
 30
0.0
 11
520.7999999999997
 21
215.6000000000299
 31
0.0
  0
ARC
  5
1B1
330
1F
100
AcDbEntity
  8
LAY-1
  6
CONTINUOUS
 62
     3
100
AcDbCircle
 10
519.7999999999997
 20
215.6000000000299
 30
0.0
 40
1.0
100
AcDbArc
 50
270.0
 51
0.0
  0
LINE
  5
1B2
330
1F
100
AcDbEntity
  8
LAY-1
  6
EXLTYPE2
 62
     1
100
AcDbLine
 10
156.0
 20
195.6000000000001
 30
0.0
 11
702.0
 21
195.6000000000001
 31
0.0
  0
LINE
  5
1B3
330
1F
100
AcDbEntity
  8
LAY-1
  6
CONTINUOUS
 62
     3
100
AcDbLine
 10
521.3885697000001
 20
307.6
 30
0.0
 11
490.2115131
 21
307.6
 31
0.0
  0
ARC
  5
1B4
330
1F
100
AcDbEntity
  8
LAY-1
  6
CONTINUOUS
 62
     3
100
AcDbCircle
 10
515.5200027000001
 20
306.8799973000001
 30
0.0
 40
0.72
100
AcDbArc
 50
90.00001984784286
 51
180.0000011238745
  0
ARC
  5
1B5
330
1F
100
AcDbEntity
  8
LAY-1
  6
CONTINUOUS
 62
     3
100
AcDbCircle
 10
496.0799973000001
 20
306.8799973000001
 30
0.0
 40
0.72
100
AcDbArc
 50
359.9999988761255
 51
89.99998015215712
  0
LINE
  5
1B6
330
1F
100
AcDbEntity
  8
LAY-1
  6
CONTINUOUS
 62
     3
100
AcDbLine
 10
518.8500000000001
 20
319.2998767
 30
0.0
 11
492.7500000000001
 21
319.2998767
 31
0.0
  0
LINE
  5
1B7
330
1F
100
AcDbEntity
  8
LAY-1
  6
CONTINUOUS
 62
     3
100
AcDbLine
 10
521.3886111
 20
317.8342177000001
 30
0.0
 11
518.8500000000001
 21
319.2998767
 31
0.0
  0
ARC
  5
1B8
330
1F
100
AcDbEntity
  8
LAY-1
  6
CONTINUOUS
 62
     3
100
AcDbCircle
 10
505.8000414000001
 20
297.8434744
 30
0.0
 40
21.456522
100
AcDbArc
 50
68.69991274339786
 51
111.3002988396264
  0
ARC
  5
1B9
330
1F
100
AcDbEntity
  8
LAY-1
  6
CONTINUOUS
 62
     3
100
AcDbCircle
 10
518.9284836
 20
308.8604887
 30
0.0
 40
10.4396202
100
AcDbArc
 50
90.43076951822216
 51
120.7289496120786
  0
LINE
  5
1BA
330
1F
100
AcDbEntity
  8
LAY-1
  6
CONTINUOUS
 62
     3
100
AcDbLine
 10
490.2113898000001
 20
317.8342177000001
 30
0.0
 11
492.7500000000001
 21
319.2998767
 31
0.0
  0
ARC
  5
1BB
330
1F
100
AcDbEntity
  8
LAY-1
  6
CONTINUOUS
 62
     3
100
AcDbCircle
 10
492.6715164000001
 20
308.8604887000001
 30
0.0
 40
10.4396202
100
AcDbArc
 50
59.27105038792131
 51
89.56928777755735
  0
LINE
  5
1BC
330
1F
100
AcDbEntity
  8
LAY-1
  6
CONTINUOUS
 62
     3
100
AcDbLine
 10
521.3885697000001
 20
307.6
 30
0.0
 11
521.3886111
 21
317.8342177000001
 31
0.0
  0
LINE
  5
1BD
330
1F
100
AcDbEntity
  8
LAY-1
  6
CONTINUOUS
 62
     3
100
AcDbLine
 10
513.5940999000001
 20
307.6000819000001
 30
0.0
 11
513.5941413000002
 21
317.8342177000001
 31
0.0
  0
LINE
  5
1BE
330
1F
100
AcDbEntity
  8
LAY-1
  6
CONTINUOUS
 62
     3
100
AcDbLine
 10
498.0058182
 20
307.6000819000001
 30
0.0
 11
498.0058596000001
 21
317.8342177000001
 31
0.0
  0
LINE
  5
1BF
330
1F
100
AcDbEntity
  8
LAY-1
  6
CONTINUOUS
 62
     3
100
AcDbLine
 10
490.2113484000001
 20
307.6
 30
0.0
 11
490.2113898000001
 21
317.8342177000001
 31
0.0
  0
LINE
  5
1C0
330
1F
100
AcDbEntity
  8
LAY-1
  6
CONTINUOUS
 62
     3
100
AcDbLine
 10
496.7999865
 20
303.9999928000001
 30
0.0
 11
514.8000000000001
 21
303.9999928000001
 31
0.0
  0
LINE
  5
1C1
330
1F
100
AcDbEntity
  8
LAY-1
  6
CONTINUOUS
 62
     1
100
AcDbLine
 10
514.8000000000001
 20
307.3749928000001
 30
0.0
 11
513.5823027000001
 21
303.9999928000001
 31
0.0
  0
LINE
  5
1C2
330
1F
100
AcDbEntity
  8
LAY-1
  6
CONTINUOUS
 62
     1
100
AcDbLine
 10
496.8000000000001
 20
307.3749928000001
 30
0.0
 11
498.0176973
 21
303.9999928000001
 31
0.0
  0
LINE
  5
1C3
330
1F
100
AcDbEntity
  8
LAY-1
  6
CONTINUOUS
 62
     3
100
AcDbLine
 10
514.8000000000001
 20
307.3749865000001
 30
0.0
 11
514.8000000000001
 21
306.8799973000001
 31
0.0
  0
LINE
  5
1C4
330
1F
100
AcDbEntity
  8
LAY-1
  6
CONTINUOUS
 62
     3
100
AcDbLine
 10
496.8000000000001
 20
307.3749865000001
 30
0.0
 11
496.8000000000001
 21
306.8799973000001
 31
0.0
  0
LINE
  5
1C5
330
1F
100
AcDbEntity
  8
LAY-1
  6
CONTINUOUS
 62
     3
100
AcDbLine
 10
496.8000000000001
 20
307.3749865000001
 30
0.0
 11
496.8000000000001
 21
244.1441558772844
 31
0.0
  0
LINE
  5
1C6
330
1F
100
AcDbEntity
  8
LAY-1
  6
CONTINUOUS
 62
     1
100
AcDbLine
 10
498.0176973
 20
303.9999928000001
 30
0.0
 11
498.0176973
 21
291.6000000000301
 31
0.0
  0
LINE
  5
1C7
330
1F
100
AcDbEntity
  8
LAY-1
  6
CONTINUOUS
 62
     3
100
AcDbLine
 10
514.8000000000001
 20
307.3749865
 30
0.0
 11
514.7999999999998
 21
244.1441558772844
 31
0.0
  0
LINE
  5
1C8
330
1F
100
AcDbEntity
  8
LAY-1
  6
CONTINUOUS
 62
     1
100
AcDbLine
 10
513.5823027000001
 20
303.9999928
 30
0.0
 11
513.5823027000001
 21
291.6000000000301
 31
0.0
  0
ARC
  5
1C9
330
1F
100
AcDbEntity
  8
LAY-1
  6
CONTINUOUS
 62
     3
100
AcDbCircle
 10
525.8
 20
290.6000000000301
 30
0.0
 40
1.0
100
AcDbArc
 50
0.0
 51
90.00000000000001
  0
ARC
  5
1CA
330
1F
100
AcDbEntity
  8
LAY-1
  6
CONTINUOUS
 62
     3
100
AcDbCircle
 10
525.8
 20
262.6000000000301
 30
0.0
 40
1.0
100
AcDbArc
 50
270.0
 51
0.0
  0
LINE
  5
1CB
330
1F
100
AcDbEntity
  8
LAY-1
  6
CONTINUOUS
 62
     3
100
AcDbLine
 10
526.8
 20
290.6000000000301
 30
0.0
 11
526.8
 21
285.1246785390913
 31
0.0
  0
LINE
  5
1CC
330
1F
100
AcDbEntity
  8
LAY-1
  6
CONTINUOUS
 62
     3
100
AcDbLine
 10
526.8
 20
285.1246785390899
 30
0.0
 11
526.8
 21
262.6000000000301
 31
0.0
  0
LINE
  5
1CD
330
1F
100
AcDbEntity
  8
LAY-1
  6
CONTINUOUS
 62
     3
100
AcDbLine
 10
525.8
 20
261.6000000000299
 30
0.0
 11
520.7999999999998
 21
261.6000000000299
 31
0.0
  0
LINE
  5
1CE
330
1F
100
AcDbEntity
  8
LAY-1
  6
CONTINUOUS
 62
     3
100
AcDbLine
 10
520.0
 20
214.60000000003
 30
0.0
 11
491.8000000000002
 21
214.60000000003
 31
0.0
  0
LINE
  5
1CF
330
1F
100
AcDbEntity
  8
LAY-1
  6
CONTINUOUS
 62
     3
100
AcDbLine
 10
490.8000000000002
 20
226.60000000003
 30
0.0
 11
489.2999999999997
 21
226.60000000003
 31
0.0
  0
LINE
  5
1D0
330
1F
100
AcDbEntity
  8
LAY-1
  6
CONTINUOUS
 62
     3
100
AcDbLine
 10
522.2999999999997
 20
226.60000000003
 30
0.0
 11
520.8
 21
226.60000000003
 31
0.0
  0
LINE
  5
1D1
330
1F
100
AcDbEntity
  8
LAY-1
  6
CONTINUOUS
 62
     3
100
AcDbLine
 10
490.8000000000002
 20
240.60000000003
 30
0.0
 11
448.2999999999997
 21
240.60000000003
 31
0.0
  0
LINE
  5
1D2
330
1F
100
AcDbEntity
  8
LAY-1
  6
CONTINUOUS
 62
     3
100
AcDbLine
 10
563.2999999999997
 20
240.60000000003
 30
0.0
 11
520.8
 21
240.60000000003
 31
0.0
  0
LINE
  5
1D3
330
1F
100
AcDbEntity
  8
LAY-1
  6
CONTINUOUS
 62
     3
100
AcDbLine
 10
522.3
 20
237.60000000003
 30
0.0
 11
520.8
 21
237.60000000003
 31
0.0
  0
LINE
  5
1D4
330
1F
100
AcDbEntity
  8
LAY-1
  6
CONTINUOUS
 62
     3
100
AcDbLine
 10
490.8000000000002
 20
237.60000000003
 30
0.0
 11
484.2999999999997
 21
237.60000000003
 31
0.0
  0
LINE
  5
1D5
330
1F
100
AcDbEntity
  8
LAY-1
  6
CONTINUOUS
 62
     3
100
AcDbLine
 10
316.17544048612
 20
379.1
 30
0.0
 11
306.8
 21
379.1
 31
0.0
  0
LINE
  5
1D6
330
1F
100
AcDbEntity
  8
LAY-1
  6
CONTINUOUS
 62
     3
100
AcDbLine
 10
315.8
 20
329.1
 30
0.0
 11
306.8
 21
329.1
 31
0.0
  0
LINE
  5
1D7
330
1F
100
AcDbEntity
  8
LAY-1
  6
CONTINUOUS
 62
     3
100
AcDbLine
 10
306.8
 20
329.1
 30
0.0
 11
306.8
 21
379.1
 31
0.0
  0
LINE
  5
1D8
330
1F
100
AcDbEntity
  8
LAY-1
  6
CONTINUOUS
 62
     3
100
AcDbLine
 10
305.2
 20
376.605585
 30
0.0
 11
305.2
 21
361.594431
 31
0.0
  0
LINE
  5
1D9
330
1F
100
AcDbEntity
  8
LAY-1
  6
CONTINUOUS
 62
     3
100
AcDbLine
 10
299.7
 20
362.849955
 30
0.0
 11
299.7
 21
375.34997
 31
0.0
  0
LINE
  5
1DA
330
1F
100
AcDbEntity
  8
LAY-1
  6
CONTINUOUS
 62
     3
100
AcDbLine
 10
299.7
 20
375.34997
 30
0.0
 11
300.42493
 21
376.605585
 31
0.0
  0
ARC
  5
1DB
330
1F
100
AcDbEntity
  8
LAY-1
  6
CONTINUOUS
 62
     3
100
AcDbCircle
 10
309.7794220000001
 20
369.100855
 30
0.0
 40
10.07909
100
AcDbArc
 50
158.1455760766088
 51
201.863745535358
  0
ARC
  5
1DC
330
1F
100
AcDbEntity
  8
LAY-1
  6
CONTINUOUS
 62
     3
100
AcDbCircle
 10
304.508838
 20
375.391474
 30
0.0
 40
4.809198
100
AcDbArc
 50
180.4944824250408
 51
211.8671875678856
  0
LINE
  5
1DD
330
1F
100
AcDbEntity
  8
LAY-1
  6
CONTINUOUS
 62
     3
100
AcDbLine
 10
299.7
 20
362.84997
 30
0.0
 11
300.42493
 21
361.594355
 31
0.0
  0
ARC
  5
1DE
330
1F
100
AcDbEntity
  8
LAY-1
  6
CONTINUOUS
 62
     3
100
AcDbCircle
 10
304.508838
 20
362.808466
 30
0.0
 40
4.809198
100
AcDbArc
 50
148.1328697278939
 51
179.5055175749592
  0
LINE
  5
1DF
330
1F
100
AcDbEntity
  8
LAY-1
  6
CONTINUOUS
 62
     3
100
AcDbLine
 10
305.199969
 20
372.8526860000001
 30
0.0
 11
300.4249140000001
 21
372.8526860000001
 31
0.0
  0
LINE
  5
1E0
330
1F
100
AcDbEntity
  8
LAY-1
  6
CONTINUOUS
 62
     3
100
AcDbLine
 10
305.199969
 20
365.347238
 30
0.0
 11
300.4249140000001
 21
365.347238
 31
0.0
  0
LINE
  5
1E1
330
1F
100
AcDbEntity
  8
LAY-1
  6
CONTINUOUS
 62
     3
100
AcDbLine
 10
306.8
 20
376.605585
 30
0.0
 11
300.4249140000001
 21
376.605585
 31
0.0
  0
LINE
  5
1E2
330
1F
100
AcDbEntity
  8
LAY-1
  6
CONTINUOUS
 62
     3
100
AcDbLine
 10
305.2
 20
346.605585
 30
0.0
 11
305.2
 21
331.594431
 31
0.0
  0
LINE
  5
1E3
330
1F
100
AcDbEntity
  8
LAY-1
  6
CONTINUOUS
 62
     3
100
AcDbLine
 10
299.7
 20
332.849955
 30
0.0
 11
299.7
 21
345.34997
 31
0.0
  0
LINE
  5
1E4
330
1F
100
AcDbEntity
  8
LAY-1
  6
CONTINUOUS
 62
     3
100
AcDbLine
 10
299.7
 20
345.34997
 30
0.0
 11
300.42493
 21
346.605585
 31
0.0
  0
ARC
  5
1E5
330
1F
100
AcDbEntity
  8
LAY-1
  6
CONTINUOUS
 62
     3
100
AcDbCircle
 10
309.7794220000001
 20
339.100855
 30
0.0
 40
10.07909
100
AcDbArc
 50
158.1455760766088
 51
201.863745535358
  0
ARC
  5
1E6
330
1F
100
AcDbEntity
  8
LAY-1
  6
CONTINUOUS
 62
     3
100
AcDbCircle
 10
304.508838
 20
345.391474
 30
0.0
 40
4.809198
100
AcDbArc
 50
180.4944824250408
 51
211.8671875678856
  0
LINE
  5
1E7
330
1F
100
AcDbEntity
  8
LAY-1
  6
CONTINUOUS
 62
     3
100
AcDbLine
 10
299.7
 20
332.84997
 30
0.0
 11
300.42493
 21
331.594355
 31
0.0
  0
ARC
  5
1E8
330
1F
100
AcDbEntity
  8
LAY-1
  6
CONTINUOUS
 62
     3
100
AcDbCircle
 10
304.508838
 20
332.808466
 30
0.0
 40
4.809198
100
AcDbArc
 50
148.1328697278939
 51
179.5055175749592
  0
LINE
  5
1E9
330
1F
100
AcDbEntity
  8
LAY-1
  6
CONTINUOUS
 62
     3
100
AcDbLine
 10
305.199969
 20
342.8526860000001
 30
0.0
 11
300.4249140000001
 21
342.8526860000001
 31
0.0
  0
LINE
  5
1EA
330
1F
100
AcDbEntity
  8
LAY-1
  6
CONTINUOUS
 62
     3
100
AcDbLine
 10
305.199969
 20
335.347238
 30
0.0
 11
300.4249140000001
 21
335.347238
 31
0.0
  0
LINE
  5
1EB
330
1F
100
AcDbEntity
  8
LAY-1
  6
CONTINUOUS
 62
     3
100
AcDbLine
 10
306.8
 20
346.605585
 30
0.0
 11
300.4249140000001
 21
346.605585
 31
0.0
  0
LINE
  5
1EC
330
1F
100
AcDbEntity
  8
LAY-1
  6
CONTINUOUS
 62
     3
100
AcDbLine
 10
306.8
 20
361.594355
 30
0.0
 11
300.4249140000001
 21
361.594355
 31
0.0
  0
LINE
  5
1ED
330
1F
100
AcDbEntity
  8
LAY-1
  6
CONTINUOUS
 62
     3
100
AcDbLine
 10
306.8
 20
331.594355
 30
0.0
 11
300.4249140000001
 21
331.594355
 31
0.0
  0
LINE
  5
1EE
330
1F
100
AcDbEntity
  8
LAY-1
  6
CONTINUOUS
 62
     3
100
AcDbLine
 10
305.2
 20
331.594355
 30
0.0
 11
305.2
 21
346.605585
 31
0.0
  0
LINE
  5
1EF
330
1F
100
AcDbEntity
  8
LAY-1
  6
CONTINUOUS
 62
     3
100
AcDbLine
 10
305.2
 20
361.594355
 30
0.0
 11
305.2
 21
376.605585
 31
0.0
  0
LINE
  5
1F0
330
1F
100
AcDbEntity
  8
LAY-1
  6
CONTINUOUS
 62
     3
100
AcDbLine
 10
415.4245595138791
 20
379.1
 30
0.0
 11
415.8
 21
379.1
 31
0.0
  0
ARC
  5
1F1
330
1F
100
AcDbEntity
  8
LAY-1
  6
CONTINUOUS
 62
     3
100
AcDbCircle
 10
415.4245595138791
 20
380.1
 30
0.0
 40
1.0
100
AcDbArc
 50
187.4947174539263
 51
270.0
  0
LINE
  5
1F2
330
1F
100
AcDbEntity
  8
LAY-1
  6
CONTINUOUS
 62
     3
100
AcDbLine
 10
413.7873412650517
 20
329.1000000000002
 30
0.0
 11
415.8
 21
329.1000000000002
 31
0.0
  0
ARC
  5
1F3
330
1F
100
AcDbEntity
  8
LAY-1
  6
CONTINUOUS
 62
     3
100
AcDbCircle
 10
413.7873412650517
 20
328.1000000000002
 30
0.0
 40
1.0
100
AcDbArc
 50
90.00000000000001
 51
168.8985626384952
  0
LINE
  5
1F4
330
1F
100
AcDbEntity
  8
LAY-1
  6
CONTINUOUS
 62
     3
100
AcDbLine
 10
415.4245595138799
 20
379.1
 30
0.0
 11
424.8
 21
379.1
 31
0.0
  0
LINE
  5
1F5
330
1F
100
AcDbEntity
  8
LAY-1
  6
CONTINUOUS
 62
     3
100
AcDbLine
 10
415.8
 20
329.1
 30
0.0
 11
424.8
 21
329.1
 31
0.0
  0
LINE
  5
1F6
330
1F
100
AcDbEntity
  8
LAY-1
  6
CONTINUOUS
 62
     3
100
AcDbLine
 10
431.8999999999999
 20
375.34997
 30
0.0
 11
431.1750699999999
 21
376.605585
 31
0.0
  0
LINE
  5
1F7
330
1F
100
AcDbEntity
  8
LAY-1
  6
CONTINUOUS
 62
     3
100
AcDbLine
 10
431.8999999999999
 20
362.84997
 30
0.0
 11
431.1750699999999
 21
361.594355
 31
0.0
  0
LINE
  5
1F8
330
1F
100
AcDbEntity
  8
LAY-1
  6
CONTINUOUS
 62
     3
100
AcDbLine
 10
424.8
 20
376.605585
 30
0.0
 11
431.1750859999999
 21
376.605585
 31
0.0
  0
LINE
  5
1F9
330
1F
100
AcDbEntity
  8
LAY-1
  6
CONTINUOUS
 62
     3
100
AcDbLine
 10
426.3999999999999
 20
346.605585
 30
0.0
 11
426.3999999999999
 21
331.594431
 31
0.0
  0
LINE
  5
1FA
330
1F
100
AcDbEntity
  8
LAY-1
  6
CONTINUOUS
 62
     3
100
AcDbLine
 10
431.8999999999999
 20
332.849955
 30
0.0
 11
431.8999999999999
 21
345.34997
 31
0.0
  0
LINE
  5
1FB
330
1F
100
AcDbEntity
  8
LAY-1
  6
CONTINUOUS
 62
     3
100
AcDbLine
 10
431.8999999999999
 20
345.34997
 30
0.0
 11
431.1750699999999
 21
346.605585
 31
0.0
  0
ARC
  5
1FC
330
1F
100
AcDbEntity
  8
LAY-1
  6
CONTINUOUS
 62
     3
100
AcDbCircle
 10
421.8205779999998
 20
339.100855
 30
0.0
 40
10.07909
100
AcDbArc
 50
338.1362544646421
 51
21.85442392339106
  0
ARC
  5
1FD
330
1F
100
AcDbEntity
  8
LAY-1
  6
CONTINUOUS
 62
     3
100
AcDbCircle
 10
427.0911619999999
 20
345.391474
 30
0.0
 40
4.809198
100
AcDbArc
 50
328.1328124321146
 51
359.5055175749589
  0
LINE
  5
1FE
330
1F
100
AcDbEntity
  8
LAY-1
  6
CONTINUOUS
 62
     3
100
AcDbLine
 10
431.8999999999999
 20
332.84997
 30
0.0
 11
431.1750699999999
 21
331.594355
 31
0.0
  0
ARC
  5
1FF
330
1F
100
AcDbEntity
  8
LAY-1
  6
CONTINUOUS
 62
     3
100
AcDbCircle
 10
427.0911619999999
 20
332.808466
 30
0.0
 40
4.809198
100
AcDbArc
 50
0.4944824250410855
 51
31.86713027210599
  0
LINE
  5
200
330
1F
100
AcDbEntity
  8
LAY-1
  6
CONTINUOUS
 62
     3
100
AcDbLine
 10
426.4000309999999
 20
342.8526860000001
 30
0.0
 11
431.1750859999999
 21
342.8526860000001
 31
0.0
  0
LINE
  5
201
330
1F
100
AcDbEntity
  8
LAY-1
  6
CONTINUOUS
 62
     3
100
AcDbLine
 10
426.4000309999999
 20
335.347238
 30
0.0
 11
431.1750859999999
 21
335.347238
 31
0.0
  0
LINE
  5
202
330
1F
100
AcDbEntity
  8
LAY-1
  6
CONTINUOUS
 62
     3
100
AcDbLine
 10
424.8
 20
346.605585
 30
0.0
 11
431.1750859999999
 21
346.605585
 31
0.0
  0
LINE
  5
203
330
1F
100
AcDbEntity
  8
LAY-1
  6
CONTINUOUS
 62
     3
100
AcDbLine
 10
424.8
 20
361.594355
 30
0.0
 11
431.1750859999999
 21
361.594355
 31
0.0
  0
LINE
  5
204
330
1F
100
AcDbEntity
  8
LAY-1
  6
CONTINUOUS
 62
     3
100
AcDbLine
 10
424.8
 20
331.594355
 30
0.0
 11
431.1750859999999
 21
331.594355
 31
0.0
  0
LINE
  5
205
330
1F
100
AcDbEntity
  8
LAY-1
  6
CONTINUOUS
 62
     3
100
AcDbLine
 10
426.3999999999999
 20
331.594355
 30
0.0
 11
426.3999999999999
 21
346.605585
 31
0.0
  0
ARC
  5
206
330
1F
100
AcDbEntity
  8
LAY-1
  6
CONTINUOUS
 62
     3
100
AcDbCircle
 10
427.0911619999999
 20
375.391474
 30
0.0
 40
4.809198
100
AcDbArc
 50
338.1295054503486
 51
359.5055175749589
  0
LINE
  5
207
330
1F
100
AcDbEntity
  8
LAY-1
  6
CONTINUOUS
 62
     3
100
AcDbLine
 10
431.8999999999999
 20
373.6
 30
0.0
 11
431.8999999999999
 21
375.34997
 31
0.0
  0
ARC
  5
208
330
1F
100
AcDbEntity
  8
LAY-1
  6
CONTINUOUS
 62
     3
100
AcDbCircle
 10
427.0911619999999
 20
362.808466
 30
0.0
 40
4.809198
100
AcDbArc
 50
0.4944824250410855
 51
9.473273850224805
  0
LINE
  5
209
330
1F
100
AcDbEntity
  8
LAY-1
  6
CONTINUOUS
 62
     3
100
AcDbLine
 10
431.8999999999999
 20
362.849955
 30
0.0
 11
431.8999999999999
 21
363.6000000000001
 31
0.0
  0
LINE
  5
20A
330
1F
100
AcDbEntity
  8
LAY-1
  6
CONTINUOUS
 62
     3
100
AcDbLine
 10
426.3999999999999
 20
361.594355
 30
0.0
 11
426.3999999999999
 21
363.6000000000001
 31
0.0
  0
LINE
  5
20B
330
1F
100
AcDbEntity
  8
LAY-1
  6
CONTINUOUS
 62
     3
100
AcDbLine
 10
426.3999999999999
 20
373.6
 30
0.0
 11
426.3999999999999
 21
376.605585
 31
0.0
  0
LINE
  5
20C
330
1F
100
AcDbEntity
  8
LAY-1
  6
CONTINUOUS
 62
     3
100
AcDbLine
 10
426.3999999999999
 20
376.605585
 30
0.0
 11
426.3999999999999
 21
373.6
 31
0.0
  0
LINE
  5
20D
330
1F
100
AcDbEntity
  8
LAY-1
  6
CONTINUOUS
 62
     3
100
AcDbLine
 10
426.3999999999999
 20
363.6000000000001
 30
0.0
 11
426.3999999999999
 21
361.594431
 31
0.0
  0
LINE
  5
20E
330
1F
100
AcDbEntity
  8
LAY-1
  6
CONTINUOUS
 62
     3
100
AcDbLine
 10
424.8
 20
329.1
 30
0.0
 11
424.8
 21
363.6000000000001
 31
0.0
  0
LINE
  5
20F
330
1F
100
AcDbEntity
  8
LAY-1
  6
CONTINUOUS
 62
     3
100
AcDbLine
 10
424.8
 20
373.6
 30
0.0
 11
424.8
 21
379.1
 31
0.0
  0
LINE
  5
210
330
1F
100
AcDbEntity
  8
LAY-1
  6
CONTINUOUS
 62
     3
100
AcDbLine
 10
420.8
 20
373.6
 30
0.0
 11
420.8
 21
379.1
 31
0.0
  0
LINE
  5
211
330
1F
100
AcDbEntity
  8
LAY-1
  6
CONTINUOUS
 62
     3
100
AcDbLine
 10
415.8
 20
373.6
 30
0.0
 11
415.8
 21
379.1
 31
0.0
  0
ARC
  5
212
330
1F
100
AcDbEntity
  8
LAY-1
  6
CONTINUOUS
 62
     3
100
AcDbCircle
 10
255.8
 20
359.0999999999998
 30
0.0
 40
145.0
100
AcDbArc
 50
334.1115960682408
 51
1.77843043870486
  0
ARC
  5
213
330
1F
100
AcDbEntity
  8
LAY-1
  6
CONTINUOUS
 62
     3
100
AcDbCircle
 10
255.8
 20
359.0999999999998
 30
0.0
 40
145.0
100
AcDbArc
 50
5.73917047726674
 51
13.02358451184863
  0
LINE
  5
214
330
1F
100
AcDbEntity
  8
LAY-1
  6
CONTINUOUS
 62
     3
100
AcDbLine
 10
415.8
 20
373.6
 30
0.0
 11
415.8
 21
379.1
 31
0.0
  0
LINE
  5
215
330
1F
100
AcDbEntity
  8
LAY-1
  6
CONTINUOUS
 62
     3
100
AcDbLine
 10
415.8
 20
329.1000000000002
 30
0.0
 11
415.8
 21
363.6000000000001
 31
0.0
  0
LINE
  5
216
330
1F
100
AcDbEntity
  8
LAY-1
  6
CONTINUOUS
 62
     1
100
AcDbLine
 10
580.2893955569829
 20
66.08939555698305
 30
0.0
 11
570.7999999999998
 21
56.60000000000002
 31
0.0
  0
LINE
  5
217
330
1F
100
AcDbEntity
  8
LAY-1
  6
CONTINUOUS
 62
     3
100
AcDbLine
 10
580.289395556983
 20
66.08939555698305
 30
0.0
 11
580.289395556983
 21
56.59999999999991
 31
0.0
  0
LINE
  5
218
330
1F
100
AcDbEntity
  8
LAY-1
  6
CONTINUOUS
 62
     3
100
AcDbLine
 10
570.8
 20
66.08939555698305
 30
0.0
 11
580.289395556983
 21
66.08939555698305
 31
0.0
  0
LINE
  5
219
330
1F
100
AcDbEntity
  8
LAY-1
  6
CONTINUOUS
 62
     1
100
AcDbLine
 10
580.289395556983
 20
56.60000000000002
 30
0.0
 11
570.7999999999919
 21
66.08939555698305
 31
0.0
  0
LINE
  5
21A
330
1F
100
AcDbEntity
  8
LAY-1
  6
CONTINUOUS
 62
     1
100
AcDbLine
 10
580.2893955569829
 20
47.11060444301677
 30
0.0
 11
570.7999999999998
 21
56.5999999999998
 31
0.0
  0
LINE
  5
21B
330
1F
100
AcDbEntity
  8
LAY-1
  6
CONTINUOUS
 62
     3
100
AcDbLine
 10
580.289395556983
 20
47.11060444301677
 30
0.0
 11
580.289395556983
 21
56.59999999999991
 31
0.0
  0
LINE
  5
21C
330
1F
100
AcDbEntity
  8
LAY-1
  6
CONTINUOUS
 62
     3
100
AcDbLine
 10
570.8
 20
47.11060444301677
 30
0.0
 11
580.289395556983
 21
47.11060444301677
 31
0.0
  0
LINE
  5
21D
330
1F
100
AcDbEntity
  8
LAY-1
  6
CONTINUOUS
 62
     1
100
AcDbLine
 10
580.289395556983
 20
56.5999999999998
 30
0.0
 11
570.7999999999919
 21
47.11060444301677
 31
0.0
  0
LINE
  5
21E
330
1F
100
AcDbEntity
  8
LAY-1
  6
CONTINUOUS
 62
     3
100
AcDbLine
 10
570.8
 20
45.94789615254172
 30
0.0
 11
570.8
 21
67.2521038474581
 31
0.0
  0
LINE
  5
21F
330
1F
100
AcDbEntity
  8
LAY-1
  6
CONTINUOUS
 62
     3
100
AcDbLine
 10
565.8
 20
67.07749999999942
 30
0.0
 11
570.8
 21
67.2521038474581
 31
0.0
  0
LINE
  5
220
330
1F
100
AcDbEntity
  8
LAY-1
  6
CONTINUOUS
 62
     1
100
AcDbLine
 10
570.8
 20
66.08939555698328
 30
0.0
 11
565.8
 21
65.91479170952448
 31
0.0
  0
LINE
  5
221
330
1F
100
AcDbEntity
  8
LAY-1
  6
CONTINUOUS
 62
     1
100
AcDbLine
 10
570.8
 20
47.11060444301654
 30
0.0
 11
565.8
 21
47.28520829047534
 31
0.0
  0
LINE
  5
222
330
1F
100
AcDbEntity
  8
LAY-1
  6
CONTINUOUS
 62
     3
100
AcDbLine
 10
565.8
 20
46.1225000000004
 30
0.0
 11
570.8
 21
45.94789615254172
 31
0.0
  0
LINE
  5
223
330
1F
100
AcDbEntity
  8
LAY-1
  6
CONTINUOUS
 62
     3
100
AcDbLine
 10
707.1648673392899
 20
95.59999999999968
 30
0.0
 11
707.1648673392899
 21
110.5999999999999
 31
0.0
  0
ARC
  5
224
330
1F
100
AcDbEntity
  8
LAY-1
  6
CONTINUOUS
 62
     3
100
AcDbCircle
 10
697.7522357875598
 20
160.5999999999995
 30
0.0
 40
5.0
100
AcDbArc
 50
4.999999999999801
 51
90.00000000000001
  0
LINE
  5
225
330
1F
100
AcDbEntity
  8
LAY-1
  6
CONTINUOUS
 62
     3
100
AcDbLine
 10
697.7522357875598
 20
165.5999999999995
 30
0.0
 11
675.5
 21
165.5999999999995
 31
0.0
  0
LINE
  5
226
330
1F
100
AcDbEntity
  8
LAY-1
  6
CONTINUOUS
 62
     3
100
AcDbLine
 10
834.5999999999999
 20
97.59999999999991
 30
0.0
 11
829.3626974152487
 21
97.59999999999991
 31
0.0
  0
ARC
  5
227
330
1F
100
AcDbEntity
  8
LAY-1
  6
CONTINUOUS
 62
     3
100
AcDbCircle
 10
829.3626974152487
 20
100.5999999999999
 30
0.0
 40
3.0
100
AcDbArc
 50
175.0000000000003
 51
270.0
  0
LINE
  5
228
330
1F
100
AcDbEntity
  8
LAY-1
  6
CONTINUOUS
 62
     3
100
AcDbLine
 10
845.7829686420648
 20
165.5999999999995
 30
0.0
 11
853.4999999999998
 21
165.5999999999995
 31
0.0
  0
ARC
  5
229
330
1F
100
AcDbEntity
  8
LAY-1
  6
CONTINUOUS
 62
     3
100
AcDbCircle
 10
845.7829686420648
 20
150.5999999999995
 30
0.0
 40
15.0
100
AcDbArc
 50
90.00000000000001
 51
175.0000000000003
  0
ARC
  5
22A
330
1F
100
AcDbEntity
  8
LAY-1
  6
CONTINUOUS
 62
     3
100
AcDbCircle
 10
770.1000000000001
 20
417.1
 30
0.0
 40
2.0
100
AcDbArc
 50
0.0
 51
90.00000000000001
  0
LINE
  5
22B
330
1F
100
AcDbEntity
  8
LAY-1
  6
CONTINUOUS
 62
     3
100
AcDbLine
 10
772.1000000000001
 20
417.1
 30
0.0
 11
772.1000000000001
 21
396.0999999999999
 31
0.0
  0
ARC
  5
22C
330
1F
100
AcDbEntity
  8
LAY-1
  6
CONTINUOUS
 62
     3
100
AcDbCircle
 10
770.1000000000001
 20
396.0999999999999
 30
0.0
 40
2.0
100
AcDbArc
 50
270.0
 51
0.0
  0
ARC
  5
22D
330
1F
100
AcDbEntity
  8
LAY-1
  6
CONTINUOUS
 62
     3
100
AcDbCircle
 10
719.0999999999999
 20
417.1
 30
0.0
 40
2.0
100
AcDbArc
 50
90.00000000000001
 51
180.0
  0
LINE
  5
22E
330
1F
100
AcDbEntity
  8
LAY-1
  6
CONTINUOUS
 62
     3
100
AcDbLine
 10
717.0999999999999
 20
417.1
 30
0.0
 11
717.0999999999999
 21
396.0999999999999
 31
0.0
  0
ARC
  5
22F
330
1F
100
AcDbEntity
  8
LAY-1
  6
CONTINUOUS
 62
     3
100
AcDbCircle
 10
719.0999999999999
 20
396.0999999999999
 30
0.0
 40
2.0
100
AcDbArc
 50
180.0
 51
270.0
  0
LINE
  5
230
330
1F
100
AcDbEntity
  8
LAY-1
  6
CONTINUOUS
 62
     3
100
AcDbLine
 10
719.0999999999999
 20
394.0999999999999
 30
0.0
 11
770.1000000000001
 21
394.1
 31
0.0
  0
LINE
  5
231
330
1F
100
AcDbEntity
  8
LAY-1
  6
CONTINUOUS
 62
     3
100
AcDbLine
 10
744.5999999999999
 20
419.1
 30
0.0
 11
719.0999999999999
 21
419.1
 31
0.0
  0
LINE
  5
232
330
1F
100
AcDbEntity
  8
LAY-1
  6
CONTINUOUS
 62
     3
100
AcDbLine
 10
744.5999999999999
 20
419.1
 30
0.0
 11
770.1000000000001
 21
419.1
 31
0.0
  0
ARC
  5
233
330
1F
100
AcDbEntity
  8
LAY-1
  6
CONTINUOUS
 62
     3
100
AcDbCircle
 10
692.5999999999999
 20
317.0311192034013
 30
0.0
 40
1.0
100
AcDbArc
 50
180.0
 51
265.9143832200252
  0
LINE
  5
234
330
1F
100
AcDbEntity
  8
LAY-1
  6
CONTINUOUS
 62
     3
100
AcDbLine
 10
692.528752950012
 20
316.0336605035706
 30
0.0
 11
718.6712470499879
 21
314.1663394964295
 31
0.0
  0
LINE
  5
235
330
1F
100
AcDbEntity
  8
LAY-1
  6
CONTINUOUS
 62
     3
100
AcDbLine
 10
719.5999999999999
 20
313.1688807965987
 30
0.0
 11
719.5999999999999
 21
313.1
 31
0.0
  0
ARC
  5
236
330
1F
100
AcDbEntity
  8
LAY-1
  6
CONTINUOUS
 62
     3
100
AcDbCircle
 10
718.5999999999999
 20
313.1688807965987
 30
0.0
 40
1.0
100
AcDbArc
 50
0.0
 51
85.91438322002466
  0
LINE
  5
237
330
1F
100
AcDbEntity
  8
LAY-1
  6
CONTINUOUS
 62
     3
100
AcDbLine
 10
719.5999999999999
 20
313.1
 30
0.0
 11
728.1999999999998
 21
313.1
 31
0.0
  0
ARC
  5
238
330
1F
100
AcDbEntity
  8
LAY-1
  6
CONTINUOUS
 62
     3
100
AcDbCircle
 10
796.5999999999999
 20
326.1
 30
0.0
 40
1.0
100
AcDbArc
 50
0.0
 51
90.00000000000001
  0
ARC
  5
239
330
1F
100
AcDbEntity
  8
LAY-1
  6
CONTINUOUS
 62
     3
100
AcDbCircle
 10
796.5999999999999
 20
317.0311192034013
 30
0.0
 40
1.0
100
AcDbArc
 50
274.0856167799745
 51
0.0
  0
LINE
  5
23A
330
1F
100
AcDbEntity
  8
LAY-1
  6
CONTINUOUS
 62
     3
100
AcDbLine
 10
797.5999999999999
 20
326.1
 30
0.0
 11
797.5999999999999
 21
317.0311192034
 31
0.0
  0
LINE
  5
23B
330
1F
100
AcDbEntity
  8
LAY-1
  6
EXLTYPE0
 62
     1
100
AcDbLine
 10
744.5999999999999
 20
289.1
 30
0.0
 11
744.5999999999999
 21
335.7
 31
0.0
  0
ARC
  5
23C
330
1F
100
AcDbEntity
  8
LAY-1
  6
CONTINUOUS
 62
     3
100
AcDbCircle
 10
797.6000000000001
 20
292.1000000000001
 30
0.0
 40
2.0
100
AcDbArc
 50
0.0
 51
90.00000000000001
  0
ARC
  5
23D
330
1F
100
AcDbEntity
  8
LAY-1
  6
CONTINUOUS
 62
     3
100
AcDbCircle
 10
691.6000000000001
 20
292.1000000000001
 30
0.0
 40
2.0
100
AcDbArc
 50
90.00000000000001
 51
180.0
  0
ARC
  5
23E
330
1F
100
AcDbEntity
  8
LAY-1
  6
CONTINUOUS
 62
     3
100
AcDbCircle
 10
721.6000000000001
 20
292.1000000000001
 30
0.0
 40
2.0
100
AcDbArc
 50
90.00000000000001
 51
180.0
  0
LINE
  5
23F
330
1F
100
AcDbEntity
  8
LAY-1
  6
CONTINUOUS
 62
     3
100
AcDbLine
 10
710.5998779999999
 20
304.1
 30
0.0
 11
698.5998779999999
 21
304.1
 31
0.0
  0
LINE
  5
240
330
1F
100
AcDbEntity
  8
LAY-1
  6
CONTINUOUS
 62
     1
100
AcDbLine
 10
709.6028759999999
 20
304.100008
 30
0.0
 11
710.5998779999999
 21
301.475
 31
0.0
  0
LINE
  5
241
330
1F
100
AcDbEntity
  8
LAY-1
  6
CONTINUOUS
 62
     1
100
AcDbLine
 10
699.5967569999999
 20
304.100008
 30
0.0
 11
698.599756
 21
301.475
 31
0.0
  0
LINE
  5
242
330
1F
100
AcDbEntity
  8
LAY-1
  6
CONTINUOUS
 62
     3
100
AcDbLine
 10
698.5999309999999
 20
301.475
 30
0.0
 11
698.5998979115967
 21
315.6000072920288
 31
0.0
  0
LINE
  5
243
330
1F
100
AcDbEntity
  8
LAY-1
  6
CONTINUOUS
 62
     1
100
AcDbLine
 10
699.5967569999999
 20
315.52880307143
 30
0.0
 11
699.5967569999999
 21
304.100008
 31
0.0
  0
LINE
  5
244
330
1F
100
AcDbEntity
  8
LAY-1
  6
CONTINUOUS
 62
     1
100
AcDbLine
 10
709.6028759999999
 20
314.81408028571
 30
0.0
 11
709.6028759999999
 21
304.100008
 31
0.0
  0
LINE
  5
245
330
1F
100
AcDbEntity
  8
LAY-1
  6
CONTINUOUS
 62
     3
100
AcDbLine
 10
710.5999309999999
 20
301.475
 30
0.0
 11
710.5998999194464
 21
314.74286429147
 31
0.0
  0
LINE
  5
246
330
1F
100
AcDbEntity
  8
LAY-1
  6
CONTINUOUS
 62
     3
100
AcDbLine
 10
698.5999309999999
 20
301.475
 30
0.0
 11
698.5999483233702
 21
294.1000164424364
 31
0.0
  0
LINE
  5
247
330
1F
100
AcDbEntity
  8
LAY-1
  6
CONTINUOUS
 62
     3
100
AcDbLine
 10
710.5999309999999
 20
301.475
 30
0.0
 11
710.599948323304
 21
294.1000446296781
 31
0.0
  0
LINE
  5
248
330
1F
100
AcDbEntity
  8
LAY-1
  6
CONTINUOUS
 62
     3
100
AcDbLine
 10
778.6001219999999
 20
304.1
 30
0.0
 11
790.6001219999999
 21
304.1
 31
0.0
  0
LINE
  5
249
330
1F
100
AcDbEntity
  8
LAY-1
  6
CONTINUOUS
 62
     1
100
AcDbLine
 10
779.5971239999999
 20
304.100008
 30
0.0
 11
778.6001219999999
 21
301.475
 31
0.0
  0
LINE
  5
24A
330
1F
100
AcDbEntity
  8
LAY-1
  6
CONTINUOUS
 62
     1
100
AcDbLine
 10
789.6032429999999
 20
304.100008
 30
0.0
 11
790.6002439999999
 21
301.475
 31
0.0
  0
LINE
  5
24B
330
1F
100
AcDbEntity
  8
LAY-1
  6
CONTINUOUS
 62
     3
100
AcDbLine
 10
778.6001219999999
 20
337.0999980016701
 30
0.0
 11
790.6001219999999
 21
337.0999980016701
 31
0.0
  0
LINE
  5
24C
330
1F
100
AcDbEntity
  8
LAY-1
  6
CONTINUOUS
 62
     3
100
AcDbLine
 10
793.600031
 20
337.1
 30
0.0
 11
775.600031
 21
337.1
 31
0.0
  0
LINE
  5
24D
330
1F
100
AcDbEntity
  8
LAY-1
  6
CONTINUOUS
 62
     3
100
AcDbLine
 10
775.600031
 20
337.1
 30
0.0
 11
773.630243
 21
335.9627320000001
 31
0.0
  0
ARC
  5
24E
330
1F
100
AcDbEntity
  8
LAY-1
  6
CONTINUOUS
 62
     3
100
AcDbCircle
 10
784.6006409999999
 20
323.305231
 30
0.0
 40
13.794775
100
AcDbArc
 50
66.57425692355623
 51
113.4304589304575
  0
ARC
  5
24F
330
1F
100
AcDbEntity
  8
LAY-1
  6
CONTINUOUS
 62
     3
100
AcDbCircle
 10
775.514154
 20
330.830133
 30
0.0
 40
6.271714
100
AcDbArc
 50
54.94430230221172
 51
89.21531445172523
  0
LINE
  5
250
330
1F
100
AcDbEntity
  8
LAY-1
  6
CONTINUOUS
 62
     3
100
AcDbLine
 10
793.600031
 20
337.1
 30
0.0
 11
795.5698179999999
 21
335.9627320000001
 31
0.0
  0
ARC
  5
251
330
1F
100
AcDbEntity
  8
LAY-1
  6
CONTINUOUS
 62
     3
100
AcDbCircle
 10
793.6859069999999
 20
330.830133
 30
0.0
 40
6.271714
100
AcDbArc
 50
90.78468554827482
 51
125.0556976977886
  0
LINE
  5
252
330
1F
100
AcDbEntity
  8
LAY-1
  6
CONTINUOUS
 62
     3
100
AcDbLine
 10
773.6303039999999
 20
327.1
 30
0.0
 11
795.5696959999999
 21
327.1
 31
0.0
  0
LINE
  5
253
330
1F
100
AcDbEntity
  8
LAY-1
  6
CONTINUOUS
 62
     3
100
AcDbLine
 10
773.6302729999999
 20
335.9627320000001
 30
0.0
 11
773.6303039999999
 21
327.1
 31
0.0
  0
LINE
  5
254
330
1F
100
AcDbEntity
  8
LAY-1
  6
CONTINUOUS
 62
     3
100
AcDbLine
 10
779.1152589999999
 20
335.9627320000001
 30
0.0
 11
779.1152739999999
 21
327.100061
 31
0.0
  0
LINE
  5
255
330
1F
100
AcDbEntity
  8
LAY-1
  6
CONTINUOUS
 62
     3
100
AcDbLine
 10
790.0847869999999
 20
335.9627320000001
 30
0.0
 11
790.0848019999999
 21
327.100061
 31
0.0
  0
LINE
  5
256
330
1F
100
AcDbEntity
  8
LAY-1
  6
CONTINUOUS
 62
     3
100
AcDbLine
 10
795.5697879999999
 20
335.9627320000001
 30
0.0
 11
795.5698029999999
 21
327.1
 31
0.0
  0
LINE
  5
257
330
1F
100
AcDbEntity
  8
LAY-1
  6
CONTINUOUS
 62
     3
100
AcDbLine
 10
790.600069
 20
301.475
 30
0.0
 11
790.6001020884031
 21
315.6000072920288
 31
0.0
  0
LINE
  5
258
330
1F
100
AcDbEntity
  8
LAY-1
  6
CONTINUOUS
 62
     1
100
AcDbLine
 10
789.6032429999999
 20
315.52880307143
 30
0.0
 11
789.6032429999999
 21
304.100008
 31
0.0
  0
LINE
  5
259
330
1F
100
AcDbEntity
  8
LAY-1
  6
CONTINUOUS
 62
     3
100
AcDbLine
 10
790.600069
 20
301.475
 30
0.0
 11
790.6000516766296
 21
294.1000164424364
 31
0.0
  0
LINE
  5
25A
330
1F
100
AcDbEntity
  8
LAY-1
  6
CONTINUOUS
 62
     3
100
AcDbLine
 10
778.600069
 20
301.475
 30
0.0
 11
778.6000516766958
 21
294.1000446296781
 31
0.0
  0
ARC
  5
25B
330
1F
100
AcDbEntity
  8
LAY-1
  6
CONTINUOUS
 62
     3
100
AcDbCircle
 10
770.1000000000001
 20
417.1
 30
0.0
 40
2.0
100
AcDbArc
 50
0.0
 51
90.00000000000001
  0
ARC
  5
25C
330
1F
100
AcDbEntity
  8
LAY-1
  6
CONTINUOUS
 62
     3
100
AcDbCircle
 10
719.0999999999999
 20
417.1
 30
0.0
 40
2.0
100
AcDbArc
 50
90.00000000000001
 51
180.0
  0
LINE
  5
25D
330
1F
100
AcDbEntity
  8
LAY-1
  6
CONTINUOUS
 62
     3
100
AcDbLine
 10
772.1000000000001
 20
405.9
 30
0.0
 11
772.1000000000001
 21
396.0999999999998
 31
0.0
  0
LINE
  5
25E
330
1F
100
AcDbEntity
  8
LAY-1
  6
CONTINUOUS
 62
     3
100
AcDbLine
 10
772.1000000000001
 20
403.1
 30
0.0
 11
772.1000000000001
 21
396.0999999999998
 31
0.0
  0
LINE
  5
25F
330
1F
100
AcDbEntity
  8
LAY-1
  6
CONTINUOUS
 62
     3
100
AcDbLine
 10
717.0999999999999
 20
405.6999999999999
 30
0.0
 11
717.0999999999999
 21
396.0999999999998
 31
0.0
  0
LINE
  5
260
330
1F
100
AcDbEntity
  8
LAY-1
  6
CONTINUOUS
 62
     3
100
AcDbLine
 10
754.5999999999999
 20
460.5999999999998
 30
0.0
 11
734.5999999999999
 21
460.5999999999998
 31
0.0
  0
ARC
  5
261
330
1F
100
AcDbEntity
  8
LAY-1
  6
CONTINUOUS
 62
     3
100
AcDbCircle
 10
738.8499999999999
 20
461.5999999999996
 30
0.0
 40
2.0
100
AcDbArc
 50
90.00000000000001
 51
180.0
  0
LINE
  5
262
330
1F
100
AcDbEntity
  8
LAY-1
  6
CONTINUOUS
 62
     3
100
AcDbLine
 10
736.8499999999999
 20
460.5999999999998
 30
0.0
 11
736.8499999999999
 21
461.5999999999996
 31
0.0
  0
ARC
  5
263
330
1F
100
AcDbEntity
  8
LAY-1
  6
CONTINUOUS
 62
     3
100
AcDbCircle
 10
750.3499999999999
 20
461.5999999999997
 30
0.0
 40
2.0
100
AcDbArc
 50
0.0
 51
90.00000000000001
  0
LINE
  5
264
330
1F
100
AcDbEntity
  8
LAY-1
  6
CONTINUOUS
 62
     3
100
AcDbLine
 10
752.3499999999999
 20
460.5999999999998
 30
0.0
 11
752.3499999999999
 21
461.5999999999997
 31
0.0
  0
LINE
  5
265
330
1F
100
AcDbEntity
  8
LAY-1
  6
CONTINUOUS
 62
     3
100
AcDbLine
 10
744.6000000000006
 20
461.0019237886461
 30
0.0
 11
746.1000000000008
 21
463.5999999999995
 31
0.0
  0
LINE
  5
266
330
1F
100
AcDbEntity
  8
LAY-1
  6
CONTINUOUS
 62
     3
100
AcDbLine
 10
744.599999999999
 20
461.0019237886461
 30
0.0
 11
743.099999999999
 21
463.5999999999995
 31
0.0
  0
LINE
  5
267
330
1F
100
AcDbEntity
  8
LAY-1
  6
CONTINUOUS
 62
     3
100
AcDbLine
 10
743.099999999999
 20
463.5999999999996
 30
0.0
 11
738.8499999999999
 21
463.5999999999996
 31
0.0
  0
LINE
  5
268
330
1F
100
AcDbEntity
  8
LAY-1
  6
CONTINUOUS
 62
     3
100
AcDbLine
 10
750.3499999999999
 20
463.5999999999996
 30
0.0
 11
746.1000000000008
 21
463.5999999999996
 31
0.0
  0
LINE
  5
269
330
1F
100
AcDbEntity
  8
LAY-1
  6
CONTINUOUS
 62
     3
100
AcDbLine
 10
770.0999999999998
 20
419.1
 30
0.0
 11
761.5249999999999
 21
419.1
 31
0.0
  0
LINE
  5
26A
330
1F
100
AcDbEntity
  8
LAY-1
  6
CONTINUOUS
 62
     3
100
AcDbLine
 10
722.0999999999999
 20
422.1
 30
0.0
 11
722.0999999999999
 21
419.1
 31
0.0
  0
LINE
  5
26B
330
1F
100
AcDbEntity
  8
LAY-1
  6
CONTINUOUS
 62
     3
100
AcDbLine
 10
767.0999999999999
 20
422.1
 30
0.0
 11
767.0999999999999
 21
419.1
 31
0.0
  0
LINE
  5
26C
330
1F
100
AcDbEntity
  8
LAY-1
  6
CONTINUOUS
 62
     3
100
AcDbLine
 10
719.0999999999999
 20
419.1
 30
0.0
 11
727.3499999999999
 21
419.1
 31
0.0
  0
LINE
  5
26D
330
1F
100
AcDbEntity
  8
LAY-1
  6
CONTINUOUS
 62
     3
100
AcDbLine
 10
722.0999999999999
 20
419.1
 30
0.0
 11
727.675
 21
419.1
 31
0.0
  0
LINE
  5
26E
330
1F
100
AcDbEntity
  8
LAY-1
  6
CONTINUOUS
 62
     3
100
AcDbLine
 10
772.1
 20
432.4
 30
0.0
 11
772.1
 21
442.4
 31
0.0
  0
LINE
  5
26F
330
1F
100
AcDbEntity
  8
LAY-1
  6
CONTINUOUS
 62
     3
100
AcDbLine
 10
772.1
 20
432.4
 30
0.0
 11
772.1
 21
422.4
 31
0.0
  0
LINE
  5
270
330
1F
100
AcDbEntity
  8
LAY-1
  6
CONTINUOUS
 62
     3
100
AcDbLine
 10
717.0999999999999
 20
432.4
 30
0.0
 11
717.0999999999999
 21
442.4
 31
0.0
  0
LINE
  5
271
330
1F
100
AcDbEntity
  8
LAY-1
  6
CONTINUOUS
 62
     3
100
AcDbLine
 10
717.0999999999999
 20
432.4
 30
0.0
 11
717.0999999999999
 21
422.4
 31
0.0
  0
LINE
  5
272
330
1F
100
AcDbEntity
  8
LAY-1
  6
CONTINUOUS
 62
     3
100
AcDbLine
 10
758.1000000000001
 20
442.4
 30
0.0
 11
772.1000000000001
 21
442.4
 31
0.0
  0
LINE
  5
273
330
1F
100
AcDbEntity
  8
LAY-1
  6
CONTINUOUS
 62
     3
100
AcDbLine
 10
744.5999999999998
 20
442.4
 30
0.0
 11
717.0999999999999
 21
442.4
 31
0.0
  0
LINE
  5
274
330
1F
100
AcDbEntity
  8
LAY-1
  6
CONTINUOUS
 62
     3
100
AcDbLine
 10
725.5999999999999
 20
442.4
 30
0.0
 11
763.5999999999999
 21
442.4
 31
0.0
  0
LINE
  5
275
330
1F
100
AcDbEntity
  8
LAY-1
  6
CONTINUOUS
 62
     3
100
AcDbLine
 10
734.5999999999999
 20
460.6
 30
0.0
 11
734.5999999999999
 21
450.4
 31
0.0
  0
LINE
  5
276
330
1F
100
AcDbEntity
  8
LAY-1
  6
CONTINUOUS
 62
     3
100
AcDbLine
 10
754.5999999999999
 20
460.6
 30
0.0
 11
754.5999999999999
 21
450.4
 31
0.0
  0
ARC
  5
277
330
1F
100
AcDbEntity
  8
LAY-1
  6
CONTINUOUS
 62
     3
100
AcDbCircle
 10
754.0999999999999
 20
417.4678571428567
 30
0.0
 40
32.93214285714328
100
AcDbArc
 50
73.23350303814154
 51
106.7664969618585
  0
ARC
  5
278
330
1F
100
AcDbEntity
  8
LAY-1
  6
CONTINUOUS
 62
     3
100
AcDbCircle
 10
735.0999999999997
 20
417.4678571428567
 30
0.0
 40
32.93214285714328
100
AcDbArc
 50
73.23350303814154
 51
106.7664969618585
  0
LINE
  5
279
330
1F
100
AcDbEntity
  8
LAY-1
  6
CONTINUOUS
 62
     3
100
AcDbLine
 10
725.6000000000001
 20
449.0000000000001
 30
0.0
 11
725.6000000000001
 21
442.4
 31
0.0
  0
LINE
  5
27A
330
1F
100
AcDbEntity
  8
LAY-1
  6
CONTINUOUS
 62
     3
100
AcDbLine
 10
763.5999999999999
 20
449.0
 30
0.0
 11
763.5999999999999
 21
442.4
 31
0.0
  0
LINE
  5
27B
330
1F
100
AcDbEntity
  8
LAY-1
  6
CONTINUOUS
 62
     3
100
AcDbLine
 10
734.5999999999999
 20
450.39620409747
 30
0.0
 11
754.5999999999999
 21
450.39620409747
 31
0.0
  0
LINE
  5
27C
330
1F
100
AcDbEntity
  8
LAY-1
  6
CONTINUOUS
 62
     3
100
AcDbLine
 10
744.5999999999998
 20
422.1
 30
0.0
 11
722.0999999999998
 21
422.1
 31
0.0
  0
LINE
  5
27D
330
1F
100
AcDbEntity
  8
LAY-1
  6
CONTINUOUS
 62
     3
100
AcDbLine
 10
744.5999999999998
 20
422.1
 30
0.0
 11
767.0999999999999
 21
422.1
 31
0.0
  0
LINE
  5
27E
330
1F
100
AcDbEntity
  8
LAY-1
  6
CONTINUOUS
 62
     3
100
AcDbLine
 10
744.5999999999998
 20
422.4
 30
0.0
 11
717.0999999999999
 21
422.4
 31
0.0
  0
LINE
  5
27F
330
1F
100
AcDbEntity
  8
LAY-1
  6
CONTINUOUS
 62
     3
100
AcDbLine
 10
744.5999999999999
 20
422.4
 30
0.0
 11
772.0999999999998
 21
422.4
 31
0.0
  0
LINE
  5
280
330
1F
100
AcDbEntity
  8
LAY-1
  6
CONTINUOUS
 62
     3
100
AcDbLine
 10
734.5999999999997
 20
460.6
 30
0.0
 11
734.5999999999997
 21
450.4
 31
0.0
  0
LINE
  5
281
330
1F
100
AcDbEntity
  8
LAY-1
  6
CONTINUOUS
 62
     1
100
AcDbLine
 10
736.8499999999997
 20
460.5999999999998
 30
0.0
 11
736.8499999999997
 21
450.39620409747
 31
0.0
  0
LINE
  5
282
330
1F
100
AcDbEntity
  8
LAY-1
  6
CONTINUOUS
 62
     1
100
AcDbLine
 10
752.3499999999999
 20
460.5999999999998
 30
0.0
 11
752.3499999999999
 21
450.39620409747
 31
0.0
  0
CIRCLE
  5
283
330
1F
100
AcDbEntity
  8
LAY-1
  6
CONTINUOUS
 62
     3
100
AcDbCircle
 10
744.5999999999999
 20
432.4
 30
0.0
 40
8.0
  0
ARC
  5
284
330
1F
100
AcDbEntity
  8
LAY-1
  6
CONTINUOUS
 62
     3
100
AcDbCircle
 10
692.5999999999998
 20
317.0311192034013
 30
0.0
 40
1.0
100
AcDbArc
 50
180.0
 51
265.9143832200289
  0
LINE
  5
285
330
1F
100
AcDbEntity
  8
LAY-1
  6
CONTINUOUS
 62
     3
100
AcDbLine
 10
762.5249999999999
 20
394.0999999999999
 30
0.0
 11
770.1000000000001
 21
394.0999999999999
 31
0.0
  0
LINE
  5
286
330
1F
100
AcDbEntity
  8
LAY-1
  6
CONTINUOUS
 62
     3
100
AcDbLine
 10
761.5999999999998
 20
327.1
 30
0.0
 11
796.5999999999999
 21
327.1
 31
0.0
  0
LINE
  5
287
330
1F
100
AcDbEntity
  8
LAY-1
  6
CONTINUOUS
 62
     3
100
AcDbLine
 10
691.5999999999998
 20
324.1
 30
0.0
 11
691.5999999999998
 21
317.0311192034
 31
0.0
  0
LINE
  5
288
330
1F
100
AcDbEntity
  8
LAY-1
  6
CONTINUOUS
 62
     1
100
AcDbLine
 10
846.1190694678014
 20
74.05593053219843
 30
0.0
 11
838.5749999999999
 21
81.59999999999991
 31
0.0
  0
LINE
  5
289
330
1F
100
AcDbEntity
  8
LAY-1
  6
CONTINUOUS
 62
     3
100
AcDbLine
 10
846.1190694678014
 20
74.05593053219854
 30
0.0
 11
846.1190694678014
 21
81.60000000000002
 31
0.0
  0
LINE
  5
28A
330
1F
100
AcDbEntity
  8
LAY-1
  6
CONTINUOUS
 62
     3
100
AcDbLine
 10
838.5749999999999
 20
74.05593053219854
 30
0.0
 11
846.1190694678014
 21
74.05593053219854
 31
0.0
  0
LINE
  5
28B
330
1F
100
AcDbEntity
  8
LAY-1
  6
CONTINUOUS
 62
     1
100
AcDbLine
 10
846.1190694678014
 20
81.60000000000002
 30
0.0
 11
838.5749999999936
 21
74.05593053219854
 31
0.0
  0
LINE
  5
28C
330
1F
100
AcDbEntity
  8
LAY-1
  6
CONTINUOUS
 62
     1
100
AcDbLine
 10
846.1190694678014
 20
89.14406946780161
 30
0.0
 11
838.5749999999999
 21
81.60000000000014
 31
0.0
  0
LINE
  5
28D
330
1F
100
AcDbEntity
  8
LAY-1
  6
CONTINUOUS
 62
     3
100
AcDbLine
 10
846.1190694678014
 20
89.14406946780161
 30
0.0
 11
846.1190694678014
 21
81.60000000000002
 31
0.0
  0
LINE
  5
28E
330
1F
100
AcDbEntity
  8
LAY-1
  6
CONTINUOUS
 62
     3
100
AcDbLine
 10
838.5749999999999
 20
89.14406946780161
 30
0.0
 11
846.1190694678014
 21
89.14406946780161
 31
0.0
  0
LINE
  5
28F
330
1F
100
AcDbEntity
  8
LAY-1
  6
CONTINUOUS
 62
     1
100
AcDbLine
 10
846.1190694678014
 20
81.60000000000014
 30
0.0
 11
838.5749999999936
 21
89.14406946780161
 31
0.0
  0
LINE
  5
290
330
1F
100
AcDbEntity
  8
LAY-1
  6
CONTINUOUS
 62
     3
100
AcDbLine
 10
838.5749999999999
 20
90.06842255872937
 30
0.0
 11
838.5749999999999
 21
73.13157744127079
 31
0.0
  0
LINE
  5
291
330
1F
100
AcDbEntity
  8
LAY-1
  6
CONTINUOUS
 62
     3
100
AcDbLine
 10
726.9999999999999
 20
40.5999999999998
 30
0.0
 11
853.4999999999999
 21
40.60000000000002
 31
0.0
  0
LINE
  5
292
330
1F
100
AcDbEntity
  8
LAY-1
  6
CONTINUOUS
 62
     3
100
AcDbLine
 10
801.9999999999997
 20
40.60000000000002
 30
0.0
 11
675.4999999999997
 21
40.5999999999998
 31
0.0
  0
LINE
  5
293
330
1F
100
AcDbEntity
  8
LAY-1
  6
CONTINUOUS
 62
     3
100
AcDbLine
 10
352.3
 20
442.4
 30
0.0
 11
338.3
 21
442.4
 31
0.0
  0
LINE
  5
294
330
1F
100
AcDbEntity
  8
LAY-1
  6
EXLTYPE2
 62
     1
100
AcDbLine
 10
939.0
 20
195.6
 30
0.0
 11
958.0
 21
195.6
 31
0.0
  0
LINE
  5
295
330
1F
100
AcDbEntity
  8
LAY-1
  6
CONTINUOUS
 62
     3
100
AcDbLine
 10
395.7999999999201
 20
732.9
 30
0.0
 11
397.8574952823853
 21
741.7178369248512
 31
0.0
  0
LINE
  5
296
330
1F
100
AcDbEntity
  8
LAY-1
  6
CONTINUOUS
 62
     3
100
AcDbLine
 10
335.7999999999201
 20
732.9
 30
0.0
 11
333.7425047174547
 21
741.7178369248512
 31
0.0
  0
ARC
  5
297
330
1F
100
AcDbEntity
  8
LAY-1
  6
CONTINUOUS
 62
     3
100
AcDbCircle
 10
400.7999999999206
 20
710.93583453019
 30
0.0
 40
5.0
100
AcDbArc
 50
180.0
 51
270.0
  0
LINE
  5
298
330
1F
100
AcDbEntity
  8
LAY-1
  6
CONTINUOUS
 62
     3
100
AcDbLine
 10
395.7999999999206
 20
710.9358345301899
 30
0.0
 11
395.7999999999206
 21
732.9
 31
0.0
  0
ARC
  5
299
330
1F
100
AcDbEntity
  8
LAY-1
  6
CONTINUOUS
 62
     3
100
AcDbCircle
 10
330.7999999999197
 20
710.93583453019
 30
0.0
 40
5.0
100
AcDbArc
 50
270.0
 51
0.0
  0
LINE
  5
29A
330
1F
100
AcDbEntity
  8
LAY-1
  6
CONTINUOUS
 62
     3
100
AcDbLine
 10
335.7999999999197
 20
710.93583453019
 30
0.0
 11
335.7999999999197
 21
732.9
 31
0.0
  0
LINE
  5
29B
330
1F
100
AcDbEntity
  8
LAY-1
  6
CONTINUOUS
 62
     3
100
AcDbLine
 10
308.2999999999602
 20
581.93583453019
 30
0.0
 11
310.7999999999602
 21
581.93583453019
 31
0.0
  0
ARC
  5
29C
330
1F
100
AcDbEntity
  8
LAY-1
  6
CONTINUOUS
 62
     3
100
AcDbCircle
 10
408.7999999999602
 20
581.0
 30
0.0
 40
12.0
100
AcDbArc
 50
270.0
 51
0.0000000000002292
  0
LINE
  5
29D
330
1F
100
AcDbEntity
  8
LAY-1
  6
CONTINUOUS
 62
     3
100
AcDbLine
 10
423.2999999999604
 20
581.93583453019
 30
0.0
 11
420.7999999999602
 21
581.93583453019
 31
0.0
  0
LINE
  5
29E
330
1F
100
AcDbEntity
  8
LAY-1
  6
CONTINUOUS
 62
     3
100
AcDbLine
 10
408.7999999999602
 20
569.0
 30
0.0
 11
322.7999999999602
 21
569.0
 31
0.0
  0
LINE
  5
29F
330
1F
100
AcDbEntity
  8
LAY-1
  6
CONTINUOUS
 62
     3
100
AcDbLine
 10
335.7999999999197
 20
569.0
 30
0.0
 11
335.7999999999197
 21
554.9000000000001
 31
0.0
  0
LINE
  5
2A0
330
1F
100
AcDbEntity
  8
LAY-1
  6
CONTINUOUS
 62
     3
100
AcDbLine
 10
395.7999999999206
 20
569.0
 30
0.0
 11
395.7999999999206
 21
554.9000000000001
 31
0.0
  0
LINE
  5
2A1
330
1F
100
AcDbEntity
  8
LAY-1
  6
EXLTYPE2
 62
     1
100
AcDbLine
 10
417.285281374194
 20
572.5147186257568
 30
0.0
 11
397.6198051533502
 21
592.1801948466007
 31
0.0
  0
ARC
  5
2A2
330
1F
100
AcDbEntity
  8
LAY-1
  6
CONTINUOUS
 62
     3
100
AcDbCircle
 10
322.7999999999602
 20
667.0
 30
0.0
 40
12.0
100
AcDbArc
 50
90.00000000000001
 51
180.0
  0
ARC
  5
2A3
330
1F
100
AcDbEntity
  8
LAY-1
  6
CONTINUOUS
 62
     3
100
AcDbCircle
 10
408.7999999999602
 20
667.0
 30
0.0
 40
12.0
100
AcDbArc
 50
0.0
 51
90.00000000000001
  0
LINE
  5
2A4
330
1F
100
AcDbEntity
  8
LAY-1
  6
CONTINUOUS
 62
     3
100
AcDbLine
 10
408.7999999999602
 20
679.0
 30
0.0
 11
322.7999999999602
 21
679.0
 31
0.0
  0
LINE
  5
2A5
330
1F
100
AcDbEntity
  8
LAY-1
  6
EXLTYPE2
 62
     1
100
AcDbLine
 10
417.285281374194
 20
675.4852813742432
 30
0.0
 11
397.6198051533502
 21
655.8198051533992
 31
0.0
  0
LINE
  5
2A6
330
1F
100
AcDbEntity
  8
LAY-1
  6
EXLTYPE2
 62
     1
100
AcDbLine
 10
314.3147186257263
 20
675.4852813742432
 30
0.0
 11
333.9801948465704
 21
655.8198051533992
 31
0.0
  0
LINE
  5
2A7
330
1F
100
AcDbEntity
  8
LAY-1
  6
CONTINUOUS
 62
     3
100
AcDbLine
 10
308.2999999999602
 20
705.93583453019
 30
0.0
 11
365.7999999999602
 21
705.93583453019
 31
0.0
  0
LINE
  5
2A8
330
1F
100
AcDbEntity
  8
LAY-1
  6
CONTINUOUS
 62
     3
100
AcDbLine
 10
423.2999999998801
 20
705.93583453019
 30
0.0
 11
365.7999999999602
 21
705.93583453019
 31
0.0
  0
LINE
  5
2A9
330
1F
100
AcDbEntity
  8
LAY-1
  6
EXLTYPE2
 62
     1
100
AcDbLine
 10
435.9999999999602
 20
624.0
 30
0.0
 11
291.9999999999602
 21
623.9999999999999
 31
0.0
  0
LINE
  5
2AA
330
1F
100
AcDbEntity
  8
LAY-1
  6
CONTINUOUS
 62
     3
100
AcDbLine
 10
306.7999999999198
 20
705.8999999999997
 30
0.0
 11
296.7999999999198
 21
705.8999999999997
 31
0.0
  0
ARC
  5
2AB
330
1F
100
AcDbEntity
  8
LAY-1
  6
CONTINUOUS
 62
     3
100
AcDbCircle
 10
296.7999999999198
 20
703.8999999999997
 30
0.0
 40
2.0
100
AcDbArc
 50
90.00000000000001
 51
180.0
  0
LINE
  5
2AC
330
1F
100
AcDbEntity
  8
LAY-1
  6
CONTINUOUS
 62
     3
100
AcDbLine
 10
306.7999999999198
 20
581.8999999999997
 30
0.0
 11
296.7999999999198
 21
581.8999999999997
 31
0.0
  0
ARC
  5
2AD
330
1F
100
AcDbEntity
  8
LAY-1
  6
CONTINUOUS
 62
     3
100
AcDbCircle
 10
296.7999999999198
 20
583.8999999999997
 30
0.0
 40
2.0
100
AcDbArc
 50
180.0
 51
270.0
  0
ARC
  5
2AE
330
1F
100
AcDbEntity
  8
LAY-1
  6
CONTINUOUS
 62
     3
100
AcDbCircle
 10
291.7999999999198
 20
610.8999999999997
 30
0.0
 40
3.0
100
AcDbArc
 50
0.0
 51
90.00000000000001
  0
ARC
  5
2AF
330
1F
100
AcDbEntity
  8
LAY-1
  6
CONTINUOUS
 62
     3
100
AcDbCircle
 10
291.7999999999198
 20
676.8999999999997
 30
0.0
 40
3.0
100
AcDbArc
 50
270.0
 51
0.0
  0
LINE
  5
2B0
330
1F
100
AcDbEntity
  8
LAY-1
  6
CONTINUOUS
 62
     3
100
AcDbLine
 10
294.7999999999198
 20
703.8999999999997
 30
0.0
 11
294.7999999999198
 21
676.8999999999997
 31
0.0
  0
LINE
  5
2B1
330
1F
100
AcDbEntity
  8
LAY-1
  6
CONTINUOUS
 62
     3
100
AcDbLine
 10
294.7999999999198
 20
583.8999999999997
 30
0.0
 11
294.7999999999198
 21
610.8999999999997
 31
0.0
  0
LINE
  5
2B2
330
1F
100
AcDbEntity
  8
LAY-1
  6
CONTINUOUS
 62
     3
100
AcDbLine
 10
165.7999999999199
 20
627.8999999999997
 30
0.0
 11
165.7999999999199
 21
659.8999999999997
 31
0.0
  0
LINE
  5
2B3
330
1F
100
AcDbEntity
  8
LAY-1
  6
CONTINUOUS
 62
     3
100
AcDbLine
 10
424.7999999999203
 20
705.9000000000002
 30
0.0
 11
434.7999999999203
 21
705.9000000000002
 31
0.0
  0
ARC
  5
2B4
330
1F
100
AcDbEntity
  8
LAY-1
  6
CONTINUOUS
 62
     3
100
AcDbCircle
 10
434.7999999999203
 20
703.9000000000002
 30
0.0
 40
2.0
100
AcDbArc
 50
0.0
 51
90.00000000000001
  0
ARC
  5
2B5
330
1F
100
AcDbEntity
  8
LAY-1
  6
CONTINUOUS
 62
     3
100
AcDbCircle
 10
439.7999999999203
 20
676.9000000000002
 30
0.0
 40
3.0
100
AcDbArc
 50
180.0
 51
270.0
  0
ARC
  5
2B6
330
1F
100
AcDbEntity
  8
LAY-1
  6
CONTINUOUS
 62
     3
100
AcDbCircle
 10
439.7999999999203
 20
610.9000000000002
 30
0.0
 40
3.0
100
AcDbArc
 50
90.00000000000001
 51
180.0
  0
LINE
  5
2B7
330
1F
100
AcDbEntity
  8
LAY-1
  6
CONTINUOUS
 62
     3
100
AcDbLine
 10
520.7999999999201
 20
718.9000000000002
 30
0.0
 11
520.7999999999201
 21
696.4000000000002
 31
0.0
  0
LINE
  5
2B8
330
1F
100
AcDbEntity
  8
LAY-1
  6
CONTINUOUS
 62
     3
100
AcDbLine
 10
490.7999999999203
 20
718.9000000000002
 30
0.0
 11
490.7999999999203
 21
696.4000000000002
 31
0.0
  0
LINE
  5
2B9
330
1F
100
AcDbEntity
  8
LAY-1
  6
CONTINUOUS
 62
     3
100
AcDbLine
 10
490.7999999999201
 20
568.9
 30
0.0
 11
490.7999999999203
 21
589.9903533678804
 31
0.0
  0
LINE
  5
2BA
330
1F
100
AcDbEntity
  8
LAY-1
  6
CONTINUOUS
 62
     3
100
AcDbLine
 10
520.7999999999201
 20
568.9
 30
0.0
 11
520.7999999999201
 21
589.9903533678804
 31
0.0
  0
LINE
  5
2BB
330
1F
100
AcDbEntity
  8
LAY-1
  6
CONTINUOUS
 62
     3
100
AcDbLine
 10
565.7999999999201
 20
659.9000000000002
 30
0.0
 11
565.7999999999201
 21
627.9000000000002
 31
0.0
  0
LINE
  5
2BC
330
1F
100
AcDbEntity
  8
LAY-1
  6
CONTINUOUS
 62
     3
100
AcDbLine
 10
535.2550807568477
 20
517.5048094716367
 30
0.0
 11
542.7550807568477
 21
530.4951905284032
 31
0.0
  0
ARC
  5
2BD
330
1F
100
AcDbEntity
  8
LAY-1
  6
CONTINUOUS
 62
     3
100
AcDbCircle
 10
365.7999999999901
 20
664.0
 30
0.0
 40
13.0
100
AcDbArc
 50
16.21379678507992
 51
163.7862032149179
  0
ARC
  5
2BE
330
1F
100
AcDbEntity
  8
LAY-1
  6
CONTINUOUS
 62
     3
100
AcDbCircle
 10
365.79999999999
 20
584.0
 30
0.0
 40
13.0
100
AcDbArc
 50
196.2137967850821
 51
343.7862032149202
  0
LINE
  5
2BF
330
1F
100
AcDbEntity
  8
LAY-1
  6
EXLTYPE0
 62
     1
100
AcDbLine
 10
336.59999999999
 20
624.0
 30
0.0
 11
395.8999999999901
 21
624.0
 31
0.0
  0
INSERT
  5
2C0
330
1F
100
AcDbEntity
  8
LAY-1
  6
CONTINUOUS
 62
     0
100
AcDbBlockReference
  2
HBH12
 10
365.7999999999599
 20
584.0
 30
0.0
  0
INSERT
  5
2C1
330
1F
100
AcDbEntity
  8
LAY-1
  6
CONTINUOUS
 62
     0
100
AcDbBlockReference
  2
HNH12
 10
323.3735931287999
 20
666.42640687117
 30
0.0
 50
22.49999999999999
  0
LINE
  5
2C2
330
1F
100
AcDbEntity
  8
LAY-1
  6
CONTINUOUS
 62
     3
100
AcDbLine
 10
401.5484725242879
 20
675.1291722794471
 30
0.0
 11
397.3505688277608
 21
664.9945362417551
 31
0.0
  0
LINE
  5
2C3
330
1F
100
AcDbEntity
  8
LAY-1
  6
CONTINUOUS
 62
     3
100
AcDbLine
 10
414.9043270155373
 20
657.7236646640009
 30
0.0
 11
419.1021836420023
 21
667.8581870645104
 31
0.0
  0
LINE
  5
2C4
330
1F
100
AcDbEntity
  8
LAY-1
  6
CONTINUOUS
 62
     3
100
AcDbLine
 10
412.4242846127647
 20
676.5611683932996
 30
0.0
 11
419.1021836420023
 21
667.8581870645104
 31
0.0
  0
LINE
  5
2C5
330
1F
100
AcDbEntity
  8
LAY-1
  6
CONTINUOUS
 62
     3
100
AcDbLine
 10
412.4242846127647
 20
676.5611683932996
 30
0.0
 11
401.5484161676364
 21
675.1291956231365
 31
0.0
  0
LINE
  5
2C6
330
1F
100
AcDbEntity
  8
LAY-1
  6
CONTINUOUS
 62
     3
100
AcDbLine
 10
397.3505124711093
 20
664.9945595854444
 30
0.0
 11
404.0284524474741
 21
656.2916771117654
 31
0.0
  0
LINE
  5
2C7
330
1F
100
AcDbEntity
  8
LAY-1
  6
CONTINUOUS
 62
     3
100
AcDbLine
 10
404.0284933946015
 20
656.2917759668753
 30
0.0
 11
414.9043270155373
 21
657.7236646640009
 31
0.0
  0
CIRCLE
  5
2C8
330
1F
100
AcDbEntity
  8
LAY-1
  6
CONTINUOUS
 62
     3
100
AcDbCircle
 10
408.2263967084452
 20
666.4264110806878
 30
0.0
 40
9.0
  0
CIRCLE
  5
2C9
330
1F
100
AcDbEntity
  8
LAY-1
  6
CONTINUOUS
 62
     1
100
AcDbCircle
 10
408.2263948606861
 20
666.4264118460546
 30
0.0
 40
6.0
  0
CIRCLE
  5
2CA
330
1F
100
AcDbEntity
  8
LAY-1
  6
CONTINUOUS
 62
     3
100
AcDbCircle
 10
408.2263948606861
 20
666.4264118460546
 30
0.0
 40
5.053
  0
CIRCLE
  5
2CB
330
1F
100
AcDbEntity
  8
LAY-1
  6
CONTINUOUS
 62
     1
100
AcDbCircle
 10
365.7999879895561
 20
664.0000049748846
 30
0.0
 40
6.0
  0
CIRCLE
  5
2CC
330
1F
100
AcDbEntity
  8
LAY-1
  6
CONTINUOUS
 62
     3
100
AcDbCircle
 10
365.7999879895561
 20
664.0000049748846
 30
0.0
 40
5.053
  0
CIRCLE
  5
2CD
330
1F
100
AcDbEntity
  8
LAY-1
  6
CONTINUOUS
 62
     1
100
AcDbCircle
 10
365.7999879895561
 20
584.0000049748846
 30
0.0
 40
6.0
  0
CIRCLE
  5
2CE
330
1F
100
AcDbEntity
  8
LAY-1
  6
CONTINUOUS
 62
     3
100
AcDbCircle
 10
365.7999879895561
 20
584.0000049748846
 30
0.0
 40
5.053
  0
LINE
  5
2CF
330
1F
100
AcDbEntity
  8
LAY-1
  6
CONTINUOUS
 62
     3
100
AcDbLine
 10
356.2999999999901
 20
669.484772
 30
0.0
 11
356.2999999999901
 21
658.515122
 31
0.0
  0
LINE
  5
2D0
330
1F
100
AcDbEntity
  8
LAY-1
  6
CONTINUOUS
 62
     3
100
AcDbLine
 10
375.2999999999901
 20
658.5152439999999
 30
0.0
 11
375.2999999999901
 21
669.484772
 31
0.0
  0
LINE
  5
2D1
330
1F
100
AcDbEntity
  8
LAY-1
  6
CONTINUOUS
 62
     3
100
AcDbLine
 10
365.79993899999
 20
674.969758
 30
0.0
 11
375.2999999999901
 21
669.484772
 31
0.0
  0
LINE
  5
2D2
330
1F
100
AcDbEntity
  8
LAY-1
  6
CONTINUOUS
 62
     3
100
AcDbLine
 10
365.79993899999
 20
674.969758
 30
0.0
 11
356.29993899999
 21
669.484772
 31
0.0
  0
CIRCLE
  5
2D3
330
1F
100
AcDbEntity
  8
LAY-1
  6
CONTINUOUS
 62
     3
100
AcDbCircle
 10
365.7999999999901
 20
664.0
 30
0.0
 40
9.0
  0
LINE
  5
2D4
330
1F
100
AcDbEntity
  8
LAY-1
  6
CONTINUOUS
 62
     3
100
AcDbLine
 10
356.29993899999
 20
658.515122
 30
0.0
 11
364.1203157902919
 21
654.0000119992101
 31
0.0
  0
LINE
  5
2D5
330
1F
100
AcDbEntity
  8
LAY-1
  6
CONTINUOUS
 62
     3
100
AcDbLine
 10
367.4794679195747
 20
654.0000030016129
 30
0.0
 11
375.2999999999901
 21
658.5152439999999
 31
0.0
  0
LINE
  5
2D6
330
1F
100
AcDbEntity
  8
LAY-1
  6
CONTINUOUS
 62
     3
100
AcDbLine
 10
446.79999999992
 20
702.9358655301901
 30
0.0
 11
446.79999999992
 21
684.9358655301901
 31
0.0
  0
LINE
  5
2D7
330
1F
100
AcDbEntity
  8
LAY-1
  6
CONTINUOUS
 62
     3
100
AcDbLine
 10
446.79999999992
 20
684.9358655301901
 30
0.0
 11
445.6627319999201
 21
682.9660775301901
 31
0.0
  0
ARC
  5
2D8
330
1F
100
AcDbEntity
  8
LAY-1
  6
CONTINUOUS
 62
     3
100
AcDbCircle
 10
433.0052309999201
 20
693.93647553019
 30
0.0
 40
13.794775
100
AcDbArc
 50
336.5695410695425
 51
23.42574307644363
  0
ARC
  5
2D9
330
1F
100
AcDbEntity
  8
LAY-1
  6
CONTINUOUS
 62
     3
100
AcDbCircle
 10
440.5301329999201
 20
684.8499885301901
 30
0.0
 40
6.271714
100
AcDbArc
 50
0.7846855482745037
 51
35.0556976977886
  0
LINE
  5
2DA
330
1F
100
AcDbEntity
  8
LAY-1
  6
CONTINUOUS
 62
     3
100
AcDbLine
 10
446.79999999992
 20
702.9358655301901
 30
0.0
 11
445.6627319999201
 21
704.9056525301901
 31
0.0
  0
ARC
  5
2DB
330
1F
100
AcDbEntity
  8
LAY-1
  6
CONTINUOUS
 62
     3
100
AcDbCircle
 10
440.5301329999201
 20
703.0217415301901
 30
0.0
 40
6.271714
100
AcDbArc
 50
324.9443023022114
 51
359.2153144517255
  0
LINE
  5
2DC
330
1F
100
AcDbEntity
  8
LAY-1
  6
CONTINUOUS
 62
     3
100
AcDbLine
 10
436.79999999992
 20
682.96613853019
 30
0.0
 11
436.79999999992
 21
704.90553053019
 31
0.0
  0
LINE
  5
2DD
330
1F
100
AcDbEntity
  8
LAY-1
  6
CONTINUOUS
 62
     3
100
AcDbLine
 10
445.6627319999201
 20
682.96610753019
 30
0.0
 11
436.79999999992
 21
682.96613853019
 31
0.0
  0
LINE
  5
2DE
330
1F
100
AcDbEntity
  8
LAY-1
  6
CONTINUOUS
 62
     3
100
AcDbLine
 10
445.6627319999201
 20
688.4510935301901
 30
0.0
 11
436.8000609999201
 21
688.45110853019
 31
0.0
  0
LINE
  5
2DF
330
1F
100
AcDbEntity
  8
LAY-1
  6
CONTINUOUS
 62
     3
100
AcDbLine
 10
445.6627319999201
 20
699.42062153019
 30
0.0
 11
436.8000609999201
 21
699.42063653019
 31
0.0
  0
LINE
  5
2E0
330
1F
100
AcDbEntity
  8
LAY-1
  6
CONTINUOUS
 62
     3
100
AcDbLine
 10
445.6627319999201
 20
704.90562253019
 30
0.0
 11
436.79999999992
 21
704.90563753019
 31
0.0
  0
LINE
  5
2E1
330
1F
100
AcDbEntity
  8
LAY-1
  6
CONTINUOUS
 62
     3
100
AcDbLine
 10
453.29999999992
 20
689.93578953019
 30
0.0
 11
453.29999999992
 21
697.93580453019
 31
0.0
  0
LINE
  5
2E2
330
1F
100
AcDbEntity
  8
LAY-1
  6
CONTINUOUS
 62
     3
100
AcDbLine
 10
451.29999999992
 20
699.93580453019
 30
0.0
 11
453.29999999992
 21
697.93580453019
 31
0.0
  0
LINE
  5
2E3
330
1F
100
AcDbEntity
  8
LAY-1
  6
CONTINUOUS
 62
     3
100
AcDbLine
 10
451.29999999992
 20
687.93578953019
 30
0.0
 11
451.29999999992
 21
699.93580453019
 31
0.0
  0
LINE
  5
2E4
330
1F
100
AcDbEntity
  8
LAY-1
  6
CONTINUOUS
 62
     3
100
AcDbLine
 10
451.29999999992
 20
687.93580453019
 30
0.0
 11
453.29999999992
 21
689.93580453019
 31
0.0
  0
LINE
  5
2E5
330
1F
100
AcDbEntity
  8
LAY-1
  6
CONTINUOUS
 62
     3
100
AcDbLine
 10
446.79999999992
 20
699.93580453019
 30
0.0
 11
451.2999999999199
 21
699.93580453019
 31
0.0
  0
LINE
  5
2E6
330
1F
100
AcDbEntity
  8
LAY-1
  6
CONTINUOUS
 62
     1
100
AcDbLine
 10
446.79999999992
 20
698.9887825301901
 30
0.0
 11
452.24702199992
 21
698.9887825301901
 31
0.0
  0
LINE
  5
2E7
330
1F
100
AcDbEntity
  8
LAY-1
  6
CONTINUOUS
 62
     3
100
AcDbLine
 10
451.29999999992
 20
687.9358645301905
 30
0.0
 11
453.29999999992
 21
689.9358645301905
 31
0.0
  0
LINE
  5
2E8
330
1F
100
AcDbEntity
  8
LAY-1
  6
CONTINUOUS
 62
     3
100
AcDbLine
 10
446.79999999992
 20
687.9358645301905
 30
0.0
 11
451.2999999999199
 21
687.9358645301905
 31
0.0
  0
LINE
  5
2E9
330
1F
100
AcDbEntity
  8
LAY-1
  6
CONTINUOUS
 62
     1
100
AcDbLine
 10
446.79999999992
 20
688.8828865301905
 30
0.0
 11
452.24702199992
 21
688.8828865301905
 31
0.0
  0
LINE
  5
2EA
330
1F
100
AcDbEntity
  8
LAY-1
  6
CONTINUOUS
 62
     3
100
AcDbLine
 10
446.79999999992
 20
602.86413446981
 30
0.0
 11
445.6627319999201
 21
604.83392246981
 31
0.0
  0
ARC
  5
2EB
330
1F
100
AcDbEntity
  8
LAY-1
  6
CONTINUOUS
 62
     3
100
AcDbCircle
 10
433.0052309999201
 20
593.86352446981
 30
0.0
 40
13.794775
100
AcDbArc
 50
336.5742569235562
 51
23.43045893045747
  0
ARC
  5
2EC
330
1F
100
AcDbEntity
  8
LAY-1
  6
CONTINUOUS
 62
     3
100
AcDbCircle
 10
440.5301329999201
 20
602.95001146981
 30
0.0
 40
6.271714
100
AcDbArc
 50
324.9443023022117
 51
359.2153144517252
  0
LINE
  5
2ED
330
1F
100
AcDbEntity
  8
LAY-1
  6
CONTINUOUS
 62
     3
100
AcDbLine
 10
445.6627319999201
 20
604.83389246981
 30
0.0
 11
436.79999999992
 21
604.83386146981
 31
0.0
  0
LINE
  5
2EE
330
1F
100
AcDbEntity
  8
LAY-1
  6
CONTINUOUS
 62
     3
100
AcDbLine
 10
445.6627319999201
 20
599.34890646981
 30
0.0
 11
436.8000609999201
 21
599.34889146981
 31
0.0
  0
LINE
  5
2EF
330
1F
100
AcDbEntity
  8
LAY-1
  6
CONTINUOUS
 62
     3
100
AcDbLine
 10
453.29999999992
 20
597.86421046981
 30
0.0
 11
453.29999999992
 21
589.86419546981
 31
0.0
  0
LINE
  5
2F0
330
1F
100
AcDbEntity
  8
LAY-1
  6
CONTINUOUS
 62
     3
100
AcDbLine
 10
451.2999999999201
 20
587.86419546981
 30
0.0
 11
453.29999999992
 21
589.86419546981
 31
0.0
  0
LINE
  5
2F1
330
1F
100
AcDbEntity
  8
LAY-1
  6
CONTINUOUS
 62
     3
100
AcDbLine
 10
451.29999999992
 20
599.86421046981
 30
0.0
 11
451.2999999999201
 21
587.86419546981
 31
0.0
  0
LINE
  5
2F2
330
1F
100
AcDbEntity
  8
LAY-1
  6
CONTINUOUS
 62
     3
100
AcDbLine
 10
451.29999999992
 20
599.86419546981
 30
0.0
 11
453.29999999992
 21
597.86419546981
 31
0.0
  0
LINE
  5
2F3
330
1F
100
AcDbEntity
  8
LAY-1
  6
CONTINUOUS
 62
     3
100
AcDbLine
 10
446.7999999999201
 20
587.86419546981
 30
0.0
 11
451.29999999992
 21
587.86419546981
 31
0.0
  0
LINE
  5
2F4
330
1F
100
AcDbEntity
  8
LAY-1
  6
CONTINUOUS
 62
     1
100
AcDbLine
 10
446.79999999992
 20
588.81121746981
 30
0.0
 11
452.24702199992
 21
588.81121746981
 31
0.0
  0
LINE
  5
2F5
330
1F
100
AcDbEntity
  8
LAY-1
  6
CONTINUOUS
 62
     3
100
AcDbLine
 10
451.29999999992
 20
599.8641354698095
 30
0.0
 11
453.29999999992
 21
597.8641354698095
 31
0.0
  0
LINE
  5
2F6
330
1F
100
AcDbEntity
  8
LAY-1
  6
CONTINUOUS
 62
     3
100
AcDbLine
 10
446.79999999992
 20
599.8641354698095
 30
0.0
 11
451.29999999992
 21
599.8641354698095
 31
0.0
  0
LINE
  5
2F7
330
1F
100
AcDbEntity
  8
LAY-1
  6
CONTINUOUS
 62
     1
100
AcDbLine
 10
446.79999999992
 20
598.9171134698096
 30
0.0
 11
452.24702199992
 21
598.9171134698096
 31
0.0
  0
ARC
  5
2F8
330
1F
100
AcDbEntity
  8
LAY-1
  6
CONTINUOUS
 62
     3
100
AcDbCircle
 10
296.8000000000002
 20
703.9000000000002
 30
0.0
 40
2.0
100
AcDbArc
 50
90.00000000000001
 51
180.0
  0
LINE
  5
2F9
330
1F
100
AcDbEntity
  8
LAY-1
  6
CONTINUOUS
 62
     3
100
AcDbLine
 10
284.8000000000004
 20
702.9358655301901
 30
0.0
 11
284.8000000000004
 21
684.9358655301901
 31
0.0
  0
LINE
  5
2FA
330
1F
100
AcDbEntity
  8
LAY-1
  6
CONTINUOUS
 62
     3
100
AcDbLine
 10
284.8000000000004
 20
684.9358655301901
 30
0.0
 11
285.9372680000004
 21
682.9660775301901
 31
0.0
  0
ARC
  5
2FB
330
1F
100
AcDbEntity
  8
LAY-1
  6
CONTINUOUS
 62
     3
100
AcDbCircle
 10
298.5947690000005
 20
693.93647553019
 30
0.0
 40
13.794775
100
AcDbArc
 50
156.5742569235562
 51
203.4304589304575
  0
ARC
  5
2FC
330
1F
100
AcDbEntity
  8
LAY-1
  6
CONTINUOUS
 62
     3
100
AcDbCircle
 10
291.0698670000004
 20
684.8499885301901
 30
0.0
 40
6.271714
100
AcDbArc
 50
144.9443023022114
 51
179.2153144517252
  0
LINE
  5
2FD
330
1F
100
AcDbEntity
  8
LAY-1
  6
CONTINUOUS
 62
     3
100
AcDbLine
 10
284.8000000000004
 20
702.9358655301901
 30
0.0
 11
285.9372680000004
 21
704.9056525301901
 31
0.0
  0
ARC
  5
2FE
330
1F
100
AcDbEntity
  8
LAY-1
  6
CONTINUOUS
 62
     3
100
AcDbCircle
 10
291.0698670000004
 20
703.0217415301901
 30
0.0
 40
6.271714
100
AcDbArc
 50
180.7846855482748
 51
215.0556976977883
  0
LINE
  5
2FF
330
1F
100
AcDbEntity
  8
LAY-1
  6
CONTINUOUS
 62
     3
100
AcDbLine
 10
294.8000000000004
 20
682.96613853019
 30
0.0
 11
294.8000000000004
 21
704.90553053019
 31
0.0
  0
LINE
  5
300
330
1F
100
AcDbEntity
  8
LAY-1
  6
CONTINUOUS
 62
     3
100
AcDbLine
 10
285.9372680000004
 20
682.96610753019
 30
0.0
 11
294.8000000000004
 21
682.96613853019
 31
0.0
  0
LINE
  5
301
330
1F
100
AcDbEntity
  8
LAY-1
  6
CONTINUOUS
 62
     3
100
AcDbLine
 10
285.9372680000004
 20
688.4510935301901
 30
0.0
 11
294.7999390000004
 21
688.45110853019
 31
0.0
  0
LINE
  5
302
330
1F
100
AcDbEntity
  8
LAY-1
  6
CONTINUOUS
 62
     3
100
AcDbLine
 10
285.9372680000004
 20
699.42062153019
 30
0.0
 11
294.7999390000004
 21
699.42063653019
 31
0.0
  0
LINE
  5
303
330
1F
100
AcDbEntity
  8
LAY-1
  6
CONTINUOUS
 62
     3
100
AcDbLine
 10
285.9372680000004
 20
704.90562253019
 30
0.0
 11
294.8000000000004
 21
704.90563753019
 31
0.0
  0
LINE
  5
304
330
1F
100
AcDbEntity
  8
LAY-1
  6
CONTINUOUS
 62
     3
100
AcDbLine
 10
278.3000000000004
 20
689.93578953019
 30
0.0
 11
278.3000000000004
 21
697.93580453019
 31
0.0
  0
LINE
  5
305
330
1F
100
AcDbEntity
  8
LAY-1
  6
CONTINUOUS
 62
     3
100
AcDbLine
 10
280.3000000000004
 20
699.93580453019
 30
0.0
 11
278.3000000000004
 21
697.93580453019
 31
0.0
  0
LINE
  5
306
330
1F
100
AcDbEntity
  8
LAY-1
  6
CONTINUOUS
 62
     3
100
AcDbLine
 10
280.3000000000004
 20
687.93578953019
 30
0.0
 11
280.3000000000004
 21
699.93580453019
 31
0.0
  0
LINE
  5
307
330
1F
100
AcDbEntity
  8
LAY-1
  6
CONTINUOUS
 62
     3
100
AcDbLine
 10
280.3000000000004
 20
687.93580453019
 30
0.0
 11
278.3000000000004
 21
689.93580453019
 31
0.0
  0
LINE
  5
308
330
1F
100
AcDbEntity
  8
LAY-1
  6
CONTINUOUS
 62
     3
100
AcDbLine
 10
284.8000000000004
 20
699.93580453019
 30
0.0
 11
280.3000000000005
 21
699.93580453019
 31
0.0
  0
LINE
  5
309
330
1F
100
AcDbEntity
  8
LAY-1
  6
CONTINUOUS
 62
     1
100
AcDbLine
 10
284.8000000000004
 20
698.9887825301901
 30
0.0
 11
279.3529780000006
 21
698.9887825301901
 31
0.0
  0
LINE
  5
30A
330
1F
100
AcDbEntity
  8
LAY-1
  6
CONTINUOUS
 62
     3
100
AcDbLine
 10
280.3000000000004
 20
687.9358645301905
 30
0.0
 11
278.3000000000004
 21
689.9358645301905
 31
0.0
  0
LINE
  5
30B
330
1F
100
AcDbEntity
  8
LAY-1
  6
CONTINUOUS
 62
     3
100
AcDbLine
 10
284.8000000000004
 20
687.9358645301905
 30
0.0
 11
280.3000000000005
 21
687.9358645301905
 31
0.0
  0
LINE
  5
30C
330
1F
100
AcDbEntity
  8
LAY-1
  6
CONTINUOUS
 62
     1
100
AcDbLine
 10
284.8000000000004
 20
688.8828865301905
 30
0.0
 11
279.3529780000006
 21
688.8828865301905
 31
0.0
  0
LINE
  5
30D
330
1F
100
AcDbEntity
  8
LAY-1
  6
CONTINUOUS
 62
     3
100
AcDbLine
 10
284.8000000000004
 20
584.86413446981
 30
0.0
 11
284.8000000000004
 21
602.86413446981
 31
0.0
  0
LINE
  5
30E
330
1F
100
AcDbEntity
  8
LAY-1
  6
CONTINUOUS
 62
     3
100
AcDbLine
 10
284.8000000000004
 20
602.86413446981
 30
0.0
 11
285.9372680000004
 21
604.83392246981
 31
0.0
  0
ARC
  5
30F
330
1F
100
AcDbEntity
  8
LAY-1
  6
CONTINUOUS
 62
     3
100
AcDbCircle
 10
298.5947690000004
 20
593.86352446981
 30
0.0
 40
13.794775
100
AcDbArc
 50
156.5695410695425
 51
203.4257430764438
  0
ARC
  5
310
330
1F
100
AcDbEntity
  8
LAY-1
  6
CONTINUOUS
 62
     3
100
AcDbCircle
 10
291.0698670000004
 20
602.95001146981
 30
0.0
 40
6.271714
100
AcDbArc
 50
180.7846855482748
 51
215.0556976977883
  0
LINE
  5
311
330
1F
100
AcDbEntity
  8
LAY-1
  6
CONTINUOUS
 62
     3
100
AcDbLine
 10
284.8000000000004
 20
584.86413446981
 30
0.0
 11
285.9372680000004
 21
582.89434746981
 31
0.0
  0
ARC
  5
312
330
1F
100
AcDbEntity
  8
LAY-1
  6
CONTINUOUS
 62
     3
100
AcDbCircle
 10
291.0698670000004
 20
584.77825846981
 30
0.0
 40
6.271714
100
AcDbArc
 50
144.9443023022114
 51
179.2153144517252
  0
LINE
  5
313
330
1F
100
AcDbEntity
  8
LAY-1
  6
CONTINUOUS
 62
     3
100
AcDbLine
 10
294.8000000000004
 20
604.83386146981
 30
0.0
 11
294.8000000000004
 21
582.89446946981
 31
0.0
  0
LINE
  5
314
330
1F
100
AcDbEntity
  8
LAY-1
  6
CONTINUOUS
 62
     3
100
AcDbLine
 10
285.9372680000004
 20
604.83389246981
 30
0.0
 11
294.8000000000004
 21
604.83386146981
 31
0.0
  0
LINE
  5
315
330
1F
100
AcDbEntity
  8
LAY-1
  6
CONTINUOUS
 62
     3
100
AcDbLine
 10
285.9372680000004
 20
599.34890646981
 30
0.0
 11
294.7999390000003
 21
599.34889146981
 31
0.0
  0
LINE
  5
316
330
1F
100
AcDbEntity
  8
LAY-1
  6
CONTINUOUS
 62
     3
100
AcDbLine
 10
285.9372680000004
 20
588.37937846981
 30
0.0
 11
294.7999390000003
 21
588.3793634698101
 31
0.0
  0
LINE
  5
317
330
1F
100
AcDbEntity
  8
LAY-1
  6
CONTINUOUS
 62
     3
100
AcDbLine
 10
285.9372680000004
 20
582.89437746981
 30
0.0
 11
294.8000000000004
 21
582.8943624698101
 31
0.0
  0
LINE
  5
318
330
1F
100
AcDbEntity
  8
LAY-1
  6
CONTINUOUS
 62
     3
100
AcDbLine
 10
278.3000000000004
 20
597.86421046981
 30
0.0
 11
278.3000000000004
 21
589.86419546981
 31
0.0
  0
LINE
  5
319
330
1F
100
AcDbEntity
  8
LAY-1
  6
CONTINUOUS
 62
     3
100
AcDbLine
 10
280.3000000000004
 20
587.86419546981
 30
0.0
 11
278.3000000000004
 21
589.86419546981
 31
0.0
  0
LINE
  5
31A
330
1F
100
AcDbEntity
  8
LAY-1
  6
CONTINUOUS
 62
     3
100
AcDbLine
 10
280.3000000000004
 20
599.86421046981
 30
0.0
 11
280.3000000000004
 21
587.86419546981
 31
0.0
  0
LINE
  5
31B
330
1F
100
AcDbEntity
  8
LAY-1
  6
CONTINUOUS
 62
     3
100
AcDbLine
 10
280.3000000000004
 20
599.86419546981
 30
0.0
 11
278.3000000000004
 21
597.86419546981
 31
0.0
  0
LINE
  5
31C
330
1F
100
AcDbEntity
  8
LAY-1
  6
CONTINUOUS
 62
     3
100
AcDbLine
 10
284.8000000000004
 20
587.86419546981
 30
0.0
 11
280.3000000000004
 21
587.86419546981
 31
0.0
  0
LINE
  5
31D
330
1F
100
AcDbEntity
  8
LAY-1
  6
CONTINUOUS
 62
     1
100
AcDbLine
 10
284.8000000000004
 20
588.81121746981
 30
0.0
 11
279.3529780000005
 21
588.81121746981
 31
0.0
  0
LINE
  5
31E
330
1F
100
AcDbEntity
  8
LAY-1
  6
CONTINUOUS
 62
     3
100
AcDbLine
 10
280.3000000000004
 20
599.8641354698095
 30
0.0
 11
278.3000000000004
 21
597.8641354698095
 31
0.0
  0
LINE
  5
31F
330
1F
100
AcDbEntity
  8
LAY-1
  6
CONTINUOUS
 62
     3
100
AcDbLine
 10
284.8000000000004
 20
599.8641354698095
 30
0.0
 11
280.3000000000004
 21
599.8641354698095
 31
0.0
  0
LINE
  5
320
330
1F
100
AcDbEntity
  8
LAY-1
  6
CONTINUOUS
 62
     1
100
AcDbLine
 10
284.8000000000004
 20
598.9171134698096
 30
0.0
 11
279.3529780000005
 21
598.9171134698096
 31
0.0
  0
LINE
  5
321
330
1F
100
AcDbEntity
  8
LAY-1
  6
CONTINUOUS
 62
     3
100
AcDbLine
 10
420.7999999999602
 20
583.5854811567461
 30
0.0
 11
420.7999999999602
 21
581.0
 31
0.0
  0
LINE
  5
322
330
1F
100
AcDbEntity
  8
LAY-1
  6
CONTINUOUS
 62
     3
100
AcDbLine
 10
397.350609774938
 20
583.0053649030849
 30
0.0
 11
401.5485134714652
 21
572.8707288653928
 31
0.0
  0
LINE
  5
323
330
1F
100
AcDbEntity
  8
LAY-1
  6
CONTINUOUS
 62
     3
100
AcDbLine
 10
404.0283960908728
 20
591.7082995444953
 30
0.0
 11
397.3505534182865
 21
583.0053415593954
 31
0.0
  0
LINE
  5
324
330
1F
100
AcDbEntity
  8
LAY-1
  6
CONTINUOUS
 62
     3
100
AcDbLine
 10
401.5484571148136
 20
572.8707055217035
 30
0.0
 11
412.4243409694661
 21
571.4388549503398
 31
0.0
  0
LINE
  5
325
330
1F
100
AcDbEntity
  8
LAY-1
  6
CONTINUOUS
 62
     3
100
AcDbLine
 10
412.4243000223389
 20
571.4389538054497
 30
0.0
 11
419.1021775191174
 21
580.1418277175121
 31
0.0
  0
CIRCLE
  5
326
330
1F
100
AcDbEntity
  8
LAY-1
  6
CONTINUOUS
 62
     1
100
AcDbCircle
 10
408.226394860736
 20
581.5735881538953
 30
0.0
 40
6.0
  0
CIRCLE
  5
327
330
1F
100
AcDbEntity
  8
LAY-1
  6
CONTINUOUS
 62
     3
100
AcDbCircle
 10
408.226394860736
 20
581.5735881538953
 30
0.0
 40
5.053
  0
LINE
  5
328
330
1F
100
AcDbEntity
  8
LAY-1
  6
CONTINUOUS
 62
     3
100
AcDbLine
 10
404.0283960908728
 20
591.7082995444953
 30
0.0
 11
407.5292123588349
 21
591.2473739737081
 31
0.0
  0
LINE
  5
329
330
1F
100
AcDbEntity
  8
LAY-1
  6
CONTINUOUS
 62
     3
100
AcDbLine
 10
419.1021775191174
 20
580.1418277175121
 30
0.0
 11
416.6937828813664
 21
585.9562067155173
 31
0.0
  0
ARC
  5
32A
330
1F
100
AcDbEntity
  8
LAY-1
  6
CONTINUOUS
 62
     3
100
AcDbCircle
 10
408.2263967084951
 20
581.5735889192622
 30
0.0
 40
9.0
100
AcDbArc
 50
86.85812744700553
 51
33.14187255299462
  0
LINE
  5
32B
330
1F
100
AcDbEntity
  8
LAY-1
  6
CONTINUOUS
 62
     3
100
AcDbLine
 10
445.6627319999201
 20
588.37937846981
 30
0.0
 11
442.49673556853
 21
588.3793731113864
 31
0.0
  0
ARC
  5
32C
330
1F
100
AcDbEntity
  8
LAY-1
  6
CONTINUOUS
 62
     3
100
AcDbCircle
 10
440.5301329999202
 20
584.77825846981
 30
0.0
 40
6.271714
100
AcDbArc
 50
10.84697282710363
 51
35.0556976977886
  0
LINE
  5
32D
330
1F
100
AcDbEntity
  8
LAY-1
  6
CONTINUOUS
 62
     3
100
AcDbLine
 10
446.7999999999201
 20
585.89488223353
 30
0.0
 11
446.79999999992
 21
602.86413446981
 31
0.0
  0
LINE
  5
32E
330
1F
100
AcDbEntity
  8
LAY-1
  6
CONTINUOUS
 62
     3
100
AcDbLine
 10
385.5948906840754
 20
603.9111604971224
 30
0.0
 11
378.1428005940527
 21
579.91891270674
 31
0.0
  0
LINE
  5
32F
330
1F
100
AcDbEntity
  8
LAY-1
  6
CONTINUOUS
 62
     3
100
AcDbLine
 10
496.7999999999201
 20
662.8736659610103
 30
0.0
 11
496.7999999999201
 21
728.4
 31
0.0
  0
LINE
  5
330
330
1F
100
AcDbEntity
  8
LAY-1
  6
CONTINUOUS
 62
     3
100
AcDbLine
 10
492.7999999999201
 20
728.4
 30
0.0
 11
505.7999999999201
 21
728.4
 31
0.0
  0
ARC
  5
331
330
1F
100
AcDbEntity
  8
LAY-1
  6
CONTINUOUS
 62
     3
100
AcDbCircle
 10
492.7999999999201
 20
726.4
 30
0.0
 40
2.0
100
AcDbArc
 50
90.00000000000001
 51
180.0000000000002
  0
LINE
  5
332
330
1F
100
AcDbEntity
  8
LAY-1
  6
CONTINUOUS
 62
     3
100
AcDbLine
 10
490.7999999999201
 20
660.5132477258362
 30
0.0
 11
490.7999999999201
 21
726.4
 31
0.0
  0
ARC
  5
333
330
1F
100
AcDbEntity
  8
LAY-1
  6
CONTINUOUS
 62
     3
100
AcDbCircle
 10
485.7999999999201
 20
660.5132477258362
 30
0.0
 40
5.0
100
AcDbArc
 50
320.2848627681738
 51
0.0
  0
LINE
  5
334
330
1F
100
AcDbEntity
  8
LAY-1
  6
CONTINUOUS
 62
     3
100
AcDbLine
 10
514.7999999999201
 20
662.8736659610103
 30
0.0
 11
514.7999999999201
 21
728.4
 31
0.0
  0
LINE
  5
335
330
1F
100
AcDbEntity
  8
LAY-1
  6
CONTINUOUS
 62
     3
100
AcDbLine
 10
518.7999999999201
 20
728.4
 30
0.0
 11
505.7999999999201
 21
728.4
 31
0.0
  0
ARC
  5
336
330
1F
100
AcDbEntity
  8
LAY-1
  6
CONTINUOUS
 62
     3
100
AcDbCircle
 10
518.7999999999201
 20
726.4
 30
0.0
 40
2.0
100
AcDbArc
 50
0.0
 51
90.00000000000001
  0
LINE
  5
337
330
1F
100
AcDbEntity
  8
LAY-1
  6
CONTINUOUS
 62
     3
100
AcDbLine
 10
520.7999999999201
 20
660.5132477258361
 30
0.0
 11
520.7999999999201
 21
726.4
 31
0.0
  0
ARC
  5
338
330
1F
100
AcDbEntity
  8
LAY-1
  6
CONTINUOUS
 62
     3
100
AcDbCircle
 10
525.7999999999201
 20
660.5132477258361
 30
0.0
 40
5.0
100
AcDbArc
 50
180.0
 51
219.7151372318264
  0
LINE
  5
339
330
1F
100
AcDbEntity
  8
LAY-1
  6
CONTINUOUS
 62
     3
100
AcDbLine
 10
492.7999999999201
 20
559.3999999999999
 30
0.0
 11
505.7999999999201
 21
559.3999999999999
 31
0.0
  0
ARC
  5
33A
330
1F
100
AcDbEntity
  8
LAY-1
  6
CONTINUOUS
 62
     3
100
AcDbCircle
 10
492.7999999999201
 20
561.3999999999999
 30
0.0
 40
2.0
100
AcDbArc
 50
180.0
 51
270.0
  0
LINE
  5
33B
330
1F
100
AcDbEntity
  8
LAY-1
  6
CONTINUOUS
 62
     3
100
AcDbLine
 10
518.7999999999201
 20
559.3999999999999
 30
0.0
 11
505.7999999999201
 21
559.3999999999999
 31
0.0
  0
ARC
  5
33C
330
1F
100
AcDbEntity
  8
LAY-1
  6
CONTINUOUS
 62
     3
100
AcDbCircle
 10
518.7999999999201
 20
561.3999999999999
 30
0.0
 40
2.0
100
AcDbArc
 50
270.0
 51
0.0
  0
LINE
  5
33D
330
1F
100
AcDbEntity
  8
LAY-1
  6
CONTINUOUS
 62
     3
100
AcDbLine
 10
520.7999999999201
 20
627.2867522741637
 30
0.0
 11
520.7999999999201
 21
561.3999999999999
 31
0.0
  0
ARC
  5
33E
330
1F
100
AcDbEntity
  8
LAY-1
  6
CONTINUOUS
 62
     3
100
AcDbCircle
 10
525.7999999999201
 20
627.2867522741637
 30
0.0
 40
5.0
100
AcDbArc
 50
140.2848627681737
 51
180.0
  0
ARC
  5
33F
330
1F
100
AcDbEntity
  8
LAY-1
  6
CONTINUOUS
 62
     3
100
AcDbCircle
 10
505.7999999999203
 20
718.9000000000002
 30
0.0
 40
15.0
100
AcDbArc
 50
39.29648023918637
 51
140.7035197608137
  0
ARC
  5
340
330
1F
100
AcDbEntity
  8
LAY-1
  6
CONTINUOUS
 62
     3
100
AcDbCircle
 10
505.7999999999201
 20
568.9
 30
0.0
 40
15.0
100
AcDbArc
 50
219.296480239188
 51
320.7035197608121
  0
LINE
  5
341
330
1F
100
AcDbEntity
  8
LAY-1
  6
CONTINUOUS
 62
     3
100
AcDbLine
 10
439.7999999999203
 20
673.9000000000002
 30
0.0
 11
456.7464578240487
 21
673.9000000000002
 31
0.0
  0
LINE
  5
342
330
1F
100
AcDbEntity
  8
LAY-1
  6
CONTINUOUS
 62
     3
100
AcDbLine
 10
439.7999999999203
 20
613.9000000000002
 30
0.0
 11
456.7464578240483
 21
613.9000000000002
 31
0.0
  0
ARC
  5
343
330
1F
100
AcDbEntity
  8
LAY-1
  6
CONTINUOUS
 62
     3
100
AcDbCircle
 10
505.7999999999199
 20
643.9
 30
0.0
 40
57.5
100
AcDbArc
 50
285.1216653149092
 51
74.8783346850908
  0
LINE
  5
344
330
1F
100
AcDbEntity
  8
LAY-1
  6
CONTINUOUS
 62
     3
100
AcDbLine
 10
561.0290684331283
 20
627.9000000000002
 30
0.0
 11
565.7999999999201
 21
627.9000000000002
 31
0.0
  0
LINE
  5
345
330
1F
100
AcDbEntity
  8
LAY-1
  6
CONTINUOUS
 62
     3
100
AcDbLine
 10
561.0290684331281
 20
659.9000000000002
 30
0.0
 11
565.7999999999201
 21
659.9000000000002
 31
0.0
  0
LINE
  5
346
330
1F
100
AcDbEntity
  8
LAY-1
  6
CONTINUOUS
 62
     1
100
AcDbLine
 10
580.289395556903
 20
653.389395556983
 30
0.0
 11
570.7999999999199
 21
643.9000000000001
 31
0.0
  0
LINE
  5
347
330
1F
100
AcDbEntity
  8
LAY-1
  6
CONTINUOUS
 62
     3
100
AcDbLine
 10
580.289395556903
 20
653.389395556983
 30
0.0
 11
580.289395556903
 21
643.8999999999999
 31
0.0
  0
LINE
  5
348
330
1F
100
AcDbEntity
  8
LAY-1
  6
CONTINUOUS
 62
     3
100
AcDbLine
 10
570.7999999999199
 20
653.389395556983
 30
0.0
 11
580.289395556903
 21
653.389395556983
 31
0.0
  0
LINE
  5
349
330
1F
100
AcDbEntity
  8
LAY-1
  6
CONTINUOUS
 62
     1
100
AcDbLine
 10
580.289395556903
 20
643.9
 30
0.0
 11
570.799999999912
 21
653.389395556983
 31
0.0
  0
LINE
  5
34A
330
1F
100
AcDbEntity
  8
LAY-1
  6
CONTINUOUS
 62
     1
100
AcDbLine
 10
580.289395556903
 20
634.4106044430167
 30
0.0
 11
570.7999999999199
 21
643.8999999999997
 31
0.0
  0
LINE
  5
34B
330
1F
100
AcDbEntity
  8
LAY-1
  6
CONTINUOUS
 62
     3
100
AcDbLine
 10
580.289395556903
 20
634.4106044430168
 30
0.0
 11
580.289395556903
 21
643.8999999999999
 31
0.0
  0
LINE
  5
34C
330
1F
100
AcDbEntity
  8
LAY-1
  6
CONTINUOUS
 62
     3
100
AcDbLine
 10
570.7999999999199
 20
634.4106044430168
 30
0.0
 11
580.289395556903
 21
634.4106044430168
 31
0.0
  0
LINE
  5
34D
330
1F
100
AcDbEntity
  8
LAY-1
  6
CONTINUOUS
 62
     1
100
AcDbLine
 10
580.289395556903
 20
643.8999999999999
 30
0.0
 11
570.799999999912
 21
634.4106044430168
 31
0.0
  0
LINE
  5
34E
330
1F
100
AcDbEntity
  8
LAY-1
  6
CONTINUOUS
 62
     3
100
AcDbLine
 10
570.7999999999199
 20
633.2478961525417
 30
0.0
 11
570.7999999999199
 21
654.5521038474582
 31
0.0
  0
LINE
  5
34F
330
1F
100
AcDbEntity
  8
LAY-1
  6
CONTINUOUS
 62
     3
100
AcDbLine
 10
565.79999999992
 20
654.3774999999994
 30
0.0
 11
570.7999999999199
 21
654.5521038474582
 31
0.0
  0
LINE
  5
350
330
1F
100
AcDbEntity
  8
LAY-1
  6
CONTINUOUS
 62
     1
100
AcDbLine
 10
570.7999999999199
 20
653.3893955569832
 30
0.0
 11
565.79999999992
 21
653.2147917095245
 31
0.0
  0
LINE
  5
351
330
1F
100
AcDbEntity
  8
LAY-1
  6
CONTINUOUS
 62
     1
100
AcDbLine
 10
570.7999999999199
 20
634.4106044430165
 30
0.0
 11
565.79999999992
 21
634.5852082904753
 31
0.0
  0
LINE
  5
352
330
1F
100
AcDbEntity
  8
LAY-1
  6
CONTINUOUS
 62
     3
100
AcDbLine
 10
565.79999999992
 20
633.4225000000004
 30
0.0
 11
570.7999999999199
 21
633.2478961525417
 31
0.0
  0
LINE
  5
353
330
1F
100
AcDbEntity
  8
LAY-1
  6
CONTINUOUS
 62
     1
100
AcDbLine
 10
151.3106044429371
 20
634.410604443017
 30
0.0
 11
160.7999999999201
 21
643.9
 31
0.0
  0
LINE
  5
354
330
1F
100
AcDbEntity
  8
LAY-1
  6
CONTINUOUS
 62
     3
100
AcDbLine
 10
151.3106044429371
 20
634.410604443017
 30
0.0
 11
151.3106044429371
 21
643.9000000000001
 31
0.0
  0
LINE
  5
355
330
1F
100
AcDbEntity
  8
LAY-1
  6
CONTINUOUS
 62
     3
100
AcDbLine
 10
160.7999999999201
 20
634.410604443017
 30
0.0
 11
151.3106044429371
 21
634.410604443017
 31
0.0
  0
LINE
  5
356
330
1F
100
AcDbEntity
  8
LAY-1
  6
CONTINUOUS
 62
     1
100
AcDbLine
 10
151.3106044429371
 20
643.9
 30
0.0
 11
160.7999999999281
 21
634.410604443017
 31
0.0
  0
LINE
  5
357
330
1F
100
AcDbEntity
  8
LAY-1
  6
CONTINUOUS
 62
     1
100
AcDbLine
 10
151.3106044429371
 20
653.3893955569832
 30
0.0
 11
160.7999999999201
 21
643.9000000000002
 31
0.0
  0
LINE
  5
358
330
1F
100
AcDbEntity
  8
LAY-1
  6
CONTINUOUS
 62
     3
100
AcDbLine
 10
151.3106044429371
 20
653.3893955569831
 30
0.0
 11
151.3106044429371
 21
643.9000000000001
 31
0.0
  0
LINE
  5
359
330
1F
100
AcDbEntity
  8
LAY-1
  6
CONTINUOUS
 62
     3
100
AcDbLine
 10
160.7999999999201
 20
653.3893955569831
 30
0.0
 11
151.3106044429371
 21
653.3893955569831
 31
0.0
  0
LINE
  5
35A
330
1F
100
AcDbEntity
  8
LAY-1
  6
CONTINUOUS
 62
     1
100
AcDbLine
 10
151.3106044429371
 20
643.9000000000002
 30
0.0
 11
160.7999999999281
 21
653.3893955569831
 31
0.0
  0
LINE
  5
35B
330
1F
100
AcDbEntity
  8
LAY-1
  6
CONTINUOUS
 62
     3
100
AcDbLine
 10
160.7999999999201
 20
654.5521038474583
 30
0.0
 11
160.7999999999201
 21
633.2478961525418
 31
0.0
  0
LINE
  5
35C
330
1F
100
AcDbEntity
  8
LAY-1
  6
CONTINUOUS
 62
     3
100
AcDbLine
 10
165.7999999999201
 20
633.4225000000006
 30
0.0
 11
160.7999999999201
 21
633.2478961525418
 31
0.0
  0
LINE
  5
35D
330
1F
100
AcDbEntity
  8
LAY-1
  6
CONTINUOUS
 62
     1
100
AcDbLine
 10
160.7999999999201
 20
634.4106044430167
 30
0.0
 11
165.7999999999201
 21
634.5852082904754
 31
0.0
  0
LINE
  5
35E
330
1F
100
AcDbEntity
  8
LAY-1
  6
CONTINUOUS
 62
     1
100
AcDbLine
 10
160.7999999999201
 20
653.3893955569835
 30
0.0
 11
165.7999999999201
 21
653.2147917095247
 31
0.0
  0
LINE
  5
35F
330
1F
100
AcDbEntity
  8
LAY-1
  6
CONTINUOUS
 62
     3
100
AcDbLine
 10
165.7999999999201
 20
654.3774999999996
 30
0.0
 11
160.7999999999201
 21
654.5521038474583
 31
0.0
  0
LINE
  5
360
330
1F
100
AcDbEntity
  8
LAY-1
  6
CONTINUOUS
 62
     3
100
AcDbLine
 10
374.9999999999661
 20
729.0000000000061
 30
0.0
 11
365.7999999999602
 21
738.2000000000121
 31
0.0
  0
LINE
  5
361
330
1F
100
AcDbEntity
  8
LAY-1
  6
CONTINUOUS
 62
     3
100
AcDbLine
 10
374.99999999997
 20
729.00000000001
 30
0.0
 11
369.99999999996
 21
729.00000000001
 31
0.0
  0
LINE
  5
362
330
1F
100
AcDbEntity
  8
LAY-1
  6
CONTINUOUS
 62
     3
100
AcDbLine
 10
369.99999999996
 20
729.00000000001
 30
0.0
 11
369.99999999996
 21
716.0
 31
0.0
  0
LINE
  5
363
330
1F
100
AcDbEntity
  8
LAY-1
  6
CONTINUOUS
 62
     3
100
AcDbLine
 10
369.99999999996
 20
716.0
 30
0.0
 11
365.7999999999602
 21
716.0
 31
0.0
  0
LINE
  5
364
330
1F
100
AcDbEntity
  8
LAY-1
  6
CONTINUOUS
 62
     3
100
AcDbLine
 10
356.5999999999544
 20
729.0000000000061
 30
0.0
 11
365.7999999999604
 21
738.2000000000121
 31
0.0
  0
LINE
  5
365
330
1F
100
AcDbEntity
  8
LAY-1
  6
CONTINUOUS
 62
     3
100
AcDbLine
 10
356.5999999999506
 20
729.00000000001
 30
0.0
 11
361.5999999999606
 21
729.00000000001
 31
0.0
  0
LINE
  5
366
330
1F
100
AcDbEntity
  8
LAY-1
  6
CONTINUOUS
 62
     3
100
AcDbLine
 10
361.5999999999606
 20
729.00000000001
 30
0.0
 11
361.5999999999606
 21
716.0
 31
0.0
  0
LINE
  5
367
330
1F
100
AcDbEntity
  8
LAY-1
  6
CONTINUOUS
 62
     3
100
AcDbLine
 10
361.5999999999606
 20
716.0
 30
0.0
 11
365.7999999999604
 21
716.0
 31
0.0
  0
ARC
  5
368
330
1F
100
AcDbEntity
  8
LAY-1
  6
CONTINUOUS
 62
     3
100
AcDbCircle
 10
401.7999999999603
 20
636.69
 30
0.0
 40
1.0
100
AcDbArc
 50
90.00000000000001
 51
180.0
  0
LINE
  5
369
330
1F
100
AcDbEntity
  8
LAY-1
  6
CONTINUOUS
 62
     3
100
AcDbLine
 10
415.7999999999603
 20
580.9999999999995
 30
0.0
 11
420.79999999996
 21
580.9999999999995
 31
0.0
  0
LINE
  5
36A
330
1F
100
AcDbEntity
  8
LAY-1
  6
CONTINUOUS
 62
     3
100
AcDbLine
 10
415.79999999996
 20
571.9999999999991
 30
0.0
 11
420.79999999996
 21
571.9999999999991
 31
0.0
  0
LINE
  5
36B
330
1F
100
AcDbEntity
  8
LAY-1
  6
CONTINUOUS
 62
     3
100
AcDbLine
 10
423.79999999996
 20
637.0
 30
0.0
 11
420.7999999999602
 21
637.0
 31
0.0
  0
LINE
  5
36C
330
1F
100
AcDbEntity
  8
LAY-1
  6
CONTINUOUS
 62
     3
100
AcDbLine
 10
423.79999999996
 20
611.0
 30
0.0
 11
415.7999999999603
 21
611.0
 31
0.0
  0
LINE
  5
36D
330
1F
100
AcDbEntity
  8
LAY-1
  6
CONTINUOUS
 62
     3
100
AcDbLine
 10
420.79999999996
 20
572.0
 30
0.0
 11
420.79999999996
 21
583.5854811567463
 31
0.0
  0
LINE
  5
36E
330
1F
100
AcDbEntity
  8
LAY-1
  6
CONTINUOUS
 62
     3
100
AcDbLine
 10
415.7999999999603
 20
572.0
 30
0.0
 11
415.7999999999603
 21
586.4722325026942
 31
0.0
  0
LINE
  5
36F
330
1F
100
AcDbEntity
  8
LAY-1
  6
CONTINUOUS
 62
     1
100
AcDbLine
 10
196.3449192430728
 20
517.5048094716367
 30
0.0
 11
188.8449192430728
 21
530.4951905284032
 31
0.0
  0
LINE
  5
370
330
1F
100
AcDbEntity
  8
LAY-1
  6
EXLTYPE3
 62
     1
100
AcDbLine
 10
345.9934592766292
 20
621.2249424195338
 30
0.0
 11
188.8449192430728
 21
530.4951905284032
 31
0.0
  0
LINE
  5
371
330
1F
100
AcDbEntity
  8
LAY-1
  6
EXLTYPE3
 62
     1
100
AcDbLine
 10
353.4934592766292
 20
608.2345613627672
 30
0.0
 11
196.3449192430728
 21
517.5048094716367
 31
0.0
  0
ARC
  5
372
330
1F
100
AcDbEntity
  8
LAY-1
  6
CONTINUOUS
 62
     3
100
AcDbCircle
 10
329.7999999999602
 20
636.69
 30
0.0
 40
1.0
100
AcDbArc
 50
0.0
 51
90.00000000000001
  0
ARC
  5
373
330
1F
100
AcDbEntity
  8
LAY-1
  6
CONTINUOUS
 62
     3
100
AcDbCircle
 10
329.7999999999602
 20
611.31
 30
0.0
 40
1.0
100
AcDbArc
 50
270.0
 51
0.0
  0
LINE
  5
374
330
1F
100
AcDbEntity
  8
LAY-1
  6
CONTINUOUS
 62
     3
100
AcDbLine
 10
315.7999999999603
 20
603.0000000000001
 30
0.0
 11
310.7999999999606
 21
603.0000000000001
 31
0.0
  0
LINE
  5
375
330
1F
100
AcDbEntity
  8
LAY-1
  6
CONTINUOUS
 62
     3
100
AcDbLine
 10
307.7999999999606
 20
637.0
 30
0.0
 11
310.7999999999604
 21
637.0
 31
0.0
  0
LINE
  5
376
330
1F
100
AcDbEntity
  8
LAY-1
  6
CONTINUOUS
 62
     3
100
AcDbLine
 10
307.7999999999606
 20
611.0
 30
0.0
 11
315.7999999999603
 21
611.0
 31
0.0
  0
LINE
  5
377
330
1F
100
AcDbEntity
  8
LAY-1
  6
CONTINUOUS
 62
     3
100
AcDbLine
 10
308.2999999999602
 20
581.93583453019
 30
0.0
 11
310.7999999999604
 21
581.93583453019
 31
0.0
  0
LINE
  5
378
330
1F
100
AcDbEntity
  8
LAY-1
  6
CONTINUOUS
 62
     3
100
AcDbLine
 10
310.7999999999604
 20
583.5854811567461
 30
0.0
 11
310.7999999999604
 21
581.0
 31
0.0
  0
LINE
  5
379
330
1F
100
AcDbEntity
  8
LAY-1
  6
CONTINUOUS
 62
     3
100
AcDbLine
 10
315.7999999999603
 20
603.0000000000001
 30
0.0
 11
310.7999999999606
 21
603.0000000000001
 31
0.0
  0
LINE
  5
37A
330
1F
100
AcDbEntity
  8
LAY-1
  6
CONTINUOUS
 62
     3
100
AcDbLine
 10
315.7999999999603
 20
580.9999999999995
 30
0.0
 11
310.7999999999606
 21
580.9999999999995
 31
0.0
  0
LINE
  5
37B
330
1F
100
AcDbEntity
  8
LAY-1
  6
CONTINUOUS
 62
     3
100
AcDbLine
 10
315.7999999999606
 20
571.9999999999991
 30
0.0
 11
310.7999999999606
 21
571.9999999999991
 31
0.0
  0
LINE
  5
37C
330
1F
100
AcDbEntity
  8
LAY-1
  6
CONTINUOUS
 62
     3
100
AcDbLine
 10
310.7999999999606
 20
572.0
 30
0.0
 11
310.7999999999606
 21
583.5854811567463
 31
0.0
  0
LINE
  5
37D
330
1F
100
AcDbEntity
  8
LAY-1
  6
CONTINUOUS
 62
     3
100
AcDbLine
 10
315.7999999999603
 20
572.0
 30
0.0
 11
315.7999999999603
 21
603.0
 31
0.0
  0
LINE
  5
37E
330
1F
100
AcDbEntity
  8
LAY-1
  6
EXLTYPE2
 62
     1
100
AcDbLine
 10
315.7999999999603
 20
573.9999999999908
 30
0.0
 11
333.9801948465704
 21
592.1801948466007
 31
0.0
  0
ARC
  5
37F
330
1F
100
AcDbEntity
  8
LAY-1
  6
CONTINUOUS
 62
     3
100
AcDbCircle
 10
322.7999999999602
 20
581.0
 30
0.0
 40
12.0
100
AcDbArc
 50
228.5903778907358
 51
270.0
  0
LINE
  5
380
330
1F
100
AcDbEntity
  8
LAY-1
  6
CONTINUOUS
 62
     3
100
AcDbLine
 10
330.0515132731673
 20
572.8708509216109
 30
0.0
 11
334.2493698996323
 21
583.0053733221204
 31
0.0
  0
LINE
  5
381
330
1F
100
AcDbEntity
  8
LAY-1
  6
CONTINUOUS
 62
     3
100
AcDbLine
 10
327.5714708703946
 20
591.7083546509095
 30
0.0
 11
334.2493698996323
 21
583.0053733221204
 31
0.0
  0
LINE
  5
382
330
1F
100
AcDbEntity
  8
LAY-1
  6
CONTINUOUS
 62
     3
100
AcDbLine
 10
327.5714708703946
 20
591.7083546509095
 30
0.0
 11
316.6956024252664
 21
590.2763818807465
 31
0.0
  0
LINE
  5
383
330
1F
100
AcDbEntity
  8
LAY-1
  6
CONTINUOUS
 62
     3
100
AcDbLine
 10
319.1756796522314
 20
571.4389622244853
 30
0.0
 11
330.0515132731673
 21
572.8708509216109
 31
0.0
  0
CIRCLE
  5
384
330
1F
100
AcDbEntity
  8
LAY-1
  6
CONTINUOUS
 62
     1
100
AcDbCircle
 10
323.3735811183161
 20
581.5735981036646
 30
0.0
 40
6.0
  0
CIRCLE
  5
385
330
1F
100
AcDbEntity
  8
LAY-1
  6
CONTINUOUS
 62
     3
100
AcDbCircle
 10
323.3735811183161
 20
581.5735981036646
 30
0.0
 40
5.053
  0
LINE
  5
386
330
1F
100
AcDbEntity
  8
LAY-1
  6
CONTINUOUS
 62
     3
100
AcDbLine
 10
316.6956587819178
 20
590.2763585370571
 30
0.0
 11
315.7999999999603
 21
588.1140469583967
 31
0.0
  0
LINE
  5
387
330
1F
100
AcDbEntity
  8
LAY-1
  6
CONTINUOUS
 62
     3
100
AcDbLine
 10
315.7999999999603
 20
575.838092327474
 30
0.0
 11
319.1756387051041
 21
571.4388633693753
 31
0.0
  0
LINE
  5
388
330
1F
100
AcDbEntity
  8
LAY-1
  6
CONTINUOUS
 62
     3
100
AcDbLine
 10
312.4976987287392
 20
580.1417458430545
 30
0.0
 11
312.4977570724721
 21
580.1416698078322
 31
0.0
  0
ARC
  5
389
330
1F
100
AcDbEntity
  8
LAY-1
  6
CONTINUOUS
 62
     3
100
AcDbCircle
 10
323.3735829660751
 20
581.5735973382978
 30
0.0
 40
9.0
100
AcDbArc
 50
212.7001658170713
 51
147.2998341829287
  0
LINE
  5
38A
330
1F
100
AcDbEntity
  8
LAY-1
  6
CONTINUOUS
 62
     3
100
AcDbLine
 10
308.2999999999201
 20
705.9358345301899
 30
0.0
 11
308.2999999999201
 21
637.0
 31
0.0
  0
LINE
  5
38B
330
1F
100
AcDbEntity
  8
LAY-1
  6
CONTINUOUS
 62
     3
100
AcDbLine
 10
308.2999999999201
 20
611.0
 30
0.0
 11
308.2999999999201
 21
581.9358345301899
 31
0.0
  0
LINE
  5
38C
330
1F
100
AcDbEntity
  8
LAY-1
  6
CONTINUOUS
 62
     3
100
AcDbLine
 10
423.2999999999201
 20
705.9358345301899
 30
0.0
 11
423.2999999999201
 21
637.0
 31
0.0
  0
LINE
  5
38D
330
1F
100
AcDbEntity
  8
LAY-1
  6
CONTINUOUS
 62
     3
100
AcDbLine
 10
423.29999999992
 20
611.0
 30
0.0
 11
423.29999999992
 21
599.462613559484
 31
0.0
  0
LINE
  5
38E
330
1F
100
AcDbEntity
  8
LAY-1
  6
EXLTYPE2
 62
     1
100
AcDbLine
 10
365.799999999974
 20
624.0000000000277
 30
0.0
 11
188.4379973049075
 21
521.6000000000199
 31
0.0
  0
LINE
  5
38F
330
1F
100
AcDbEntity
  8
LAY-1
  6
EXLTYPE2
 62
     1
100
AcDbLine
 10
365.7999999999461
 20
624.000000000028
 30
0.0
 11
543.162002695013
 21
521.6000000000199
 31
0.0
  0
LINE
  5
390
330
1F
100
AcDbEntity
  8
LAY-1
  6
EXLTYPE0
 62
     1
100
AcDbLine
 10
352.18959703535
 20
664.0
 30
0.0
 11
379.41040296463
 21
664.0
 31
0.0
  0
LINE
  5
391
330
1F
100
AcDbEntity
  8
LAY-1
  6
EXLTYPE0
 62
     1
100
AcDbLine
 10
352.18959703535
 20
584.0
 30
0.0
 11
379.41040296463
 21
584.0
 31
0.0
  0
LINE
  5
392
330
1F
100
AcDbEntity
  8
LAY-1
  6
EXLTYPE2
 62
     1
100
AcDbLine
 10
365.8
 20
52.0
 30
0.0
 11
365.8
 21
473.2
 31
0.0
  0
LINE
  5
393
330
1F
100
AcDbEntity
  8
LAY-1
  6
EXLTYPE2
 62
     1
100
AcDbLine
 10
652.5999999999999
 20
195.5999999999999
 30
0.0
 11
939.0
 21
195.6000000000002
 31
0.0
  0
TEXT
  5
395
330
1F
100
AcDbEntity
  8
LAY-1
  6
CONTINUOUS
 62
     3
100
AcDbText
 10
77.0
 20
779.6875
 30
0.0
 40
8.203189124487004
  1
型式  : １０ＦＵＷ－１３Ａ
  7
EXCADTTF1
 72
     5
 11
233.0
 21
779.6875
 31
0.0
100
AcDbText
  0
LINE
  5
396
330
1F
100
AcDbEntity
  8
LAY-1
  6
CONTINUOUS
 62
     3
100
AcDbLine
 10
210.8000000000004
 20
718.9000000000002
 30
0.0
 11
210.8000000000004
 21
696.4000000000002
 31
0.0
  0
LINE
  5
397
330
1F
100
AcDbEntity
  8
LAY-1
  6
CONTINUOUS
 62
     3
100
AcDbLine
 10
240.8000000000003
 20
718.9000000000002
 30
0.0
 11
240.8000000000003
 21
696.4000000000002
 31
0.0
  0
LINE
  5
398
330
1F
100
AcDbEntity
  8
LAY-1
  6
CONTINUOUS
 62
     3
100
AcDbLine
 10
240.8000000000004
 20
568.9
 30
0.0
 11
240.8000000000003
 21
589.9903533678804
 31
0.0
  0
LINE
  5
399
330
1F
100
AcDbEntity
  8
LAY-1
  6
CONTINUOUS
 62
     3
100
AcDbLine
 10
210.8000000000004
 20
568.9
 30
0.0
 11
210.8000000000004
 21
589.9903533678804
 31
0.0
  0
LINE
  5
39A
330
1F
100
AcDbEntity
  8
LAY-1
  6
CONTINUOUS
 62
     3
100
AcDbLine
 10
165.8000000000004
 20
659.9000000000002
 30
0.0
 11
165.8000000000004
 21
627.9000000000002
 31
0.0
  0
LINE
  5
39B
330
1F
100
AcDbEntity
  8
LAY-1
  6
CONTINUOUS
 62
     3
100
AcDbLine
 10
234.8000000000004
 20
662.8736659610103
 30
0.0
 11
234.8000000000004
 21
728.4
 31
0.0
  0
LINE
  5
39C
330
1F
100
AcDbEntity
  8
LAY-1
  6
CONTINUOUS
 62
     3
100
AcDbLine
 10
238.8000000000004
 20
728.4
 30
0.0
 11
225.8000000000004
 21
728.4
 31
0.0
  0
ARC
  5
39D
330
1F
100
AcDbEntity
  8
LAY-1
  6
CONTINUOUS
 62
     3
100
AcDbCircle
 10
238.8000000000004
 20
726.4
 30
0.0
 40
2.0
100
AcDbArc
 50
0.0
 51
90.00000000000001
  0
LINE
  5
39E
330
1F
100
AcDbEntity
  8
LAY-1
  6
CONTINUOUS
 62
     3
100
AcDbLine
 10
240.8000000000004
 20
660.5132477258362
 30
0.0
 11
240.8000000000004
 21
726.4
 31
0.0
  0
ARC
  5
39F
330
1F
100
AcDbEntity
  8
LAY-1
  6
CONTINUOUS
 62
     3
100
AcDbCircle
 10
245.8000000000004
 20
660.5132477258362
 30
0.0
 40
5.0
100
AcDbArc
 50
180.0
 51
219.7151372318257
  0
LINE
  5
3A0
330
1F
100
AcDbEntity
  8
LAY-1
  6
CONTINUOUS
 62
     3
100
AcDbLine
 10
216.8000000000004
 20
662.8736659610103
 30
0.0
 11
216.8000000000004
 21
728.4
 31
0.0
  0
LINE
  5
3A1
330
1F
100
AcDbEntity
  8
LAY-1
  6
CONTINUOUS
 62
     3
100
AcDbLine
 10
212.8000000000004
 20
728.4
 30
0.0
 11
225.8000000000004
 21
728.4
 31
0.0
  0
ARC
  5
3A2
330
1F
100
AcDbEntity
  8
LAY-1
  6
CONTINUOUS
 62
     3
100
AcDbCircle
 10
212.8000000000004
 20
726.4
 30
0.0
 40
2.0
100
AcDbArc
 50
90.00000000000001
 51
180.0
  0
LINE
  5
3A3
330
1F
100
AcDbEntity
  8
LAY-1
  6
CONTINUOUS
 62
     3
100
AcDbLine
 10
210.8000000000004
 20
660.5132477258361
 30
0.0
 11
210.8000000000004
 21
726.4
 31
0.0
  0
ARC
  5
3A4
330
1F
100
AcDbEntity
  8
LAY-1
  6
CONTINUOUS
 62
     3
100
AcDbCircle
 10
205.8000000000004
 20
660.5132477258361
 30
0.0
 40
5.0
100
AcDbArc
 50
320.284862768173
 51
0.0
  0
LINE
  5
3A5
330
1F
100
AcDbEntity
  8
LAY-1
  6
CONTINUOUS
 62
     3
100
AcDbLine
 10
238.8000000000004
 20
559.3999999999999
 30
0.0
 11
225.8000000000004
 21
559.3999999999999
 31
0.0
  0
ARC
  5
3A6
330
1F
100
AcDbEntity
  8
LAY-1
  6
CONTINUOUS
 62
     3
100
AcDbCircle
 10
238.8000000000004
 20
561.3999999999999
 30
0.0
 40
2.0
100
AcDbArc
 50
270.0
 51
0.0
  0
LINE
  5
3A7
330
1F
100
AcDbEntity
  8
LAY-1
  6
CONTINUOUS
 62
     3
100
AcDbLine
 10
212.8000000000004
 20
559.3999999999999
 30
0.0
 11
225.8000000000004
 21
559.3999999999999
 31
0.0
  0
ARC
  5
3A8
330
1F
100
AcDbEntity
  8
LAY-1
  6
CONTINUOUS
 62
     3
100
AcDbCircle
 10
212.8000000000004
 20
561.3999999999999
 30
0.0
 40
2.0
100
AcDbArc
 50
180.0
 51
270.0
  0
LINE
  5
3A9
330
1F
100
AcDbEntity
  8
LAY-1
  6
CONTINUOUS
 62
     3
100
AcDbLine
 10
210.8000000000004
 20
627.2867522741637
 30
0.0
 11
210.8000000000004
 21
561.3999999999999
 31
0.0
  0
ARC
  5
3AA
330
1F
100
AcDbEntity
  8
LAY-1
  6
CONTINUOUS
 62
     3
100
AcDbCircle
 10
205.8000000000004
 20
627.2867522741637
 30
0.0
 40
5.0
100
AcDbArc
 50
0.0
 51
39.71513723182702
  0
ARC
  5
3AB
330
1F
100
AcDbEntity
  8
LAY-1
  6
CONTINUOUS
 62
     3
100
AcDbCircle
 10
225.8000000000003
 20
718.9000000000002
 30
0.0
 40
15.0
100
AcDbArc
 50
39.29648023918637
 51
140.7035197608137
  0
ARC
  5
3AC
330
1F
100
AcDbEntity
  8
LAY-1
  6
CONTINUOUS
 62
     3
100
AcDbCircle
 10
225.8000000000004
 20
568.9
 30
0.0
 40
15.0
100
AcDbArc
 50
219.2964802391879
 51
320.7035197608121
  0
LINE
  5
3AD
330
1F
100
AcDbEntity
  8
LAY-1
  6
CONTINUOUS
 62
     3
100
AcDbLine
 10
170.5709315667923
 20
627.9000000000002
 30
0.0
 11
165.8000000000004
 21
627.9000000000002
 31
0.0
  0
LINE
  5
3AE
330
1F
100
AcDbEntity
  8
LAY-1
  6
CONTINUOUS
 62
     3
100
AcDbLine
 10
170.5709315667924
 20
659.9000000000002
 30
0.0
 11
165.8000000000004
 21
659.9000000000002
 31
0.0
  0
LINE
  5
3AF
330
1F
100
AcDbEntity
  8
LAY-1
  6
CONTINUOUS
 62
     1
100
AcDbLine
 10
151.3106044430176
 20
653.389395556983
 30
0.0
 11
160.8000000000006
 21
643.9000000000001
 31
0.0
  0
LINE
  5
3B0
330
1F
100
AcDbEntity
  8
LAY-1
  6
CONTINUOUS
 62
     3
100
AcDbLine
 10
151.3106044430176
 20
653.389395556983
 30
0.0
 11
151.3106044430176
 21
643.8999999999999
 31
0.0
  0
LINE
  5
3B1
330
1F
100
AcDbEntity
  8
LAY-1
  6
CONTINUOUS
 62
     3
100
AcDbLine
 10
160.8000000000006
 20
653.389395556983
 30
0.0
 11
151.3106044430176
 21
653.389395556983
 31
0.0
  0
LINE
  5
3B2
330
1F
100
AcDbEntity
  8
LAY-1
  6
CONTINUOUS
 62
     1
100
AcDbLine
 10
151.3106044430176
 20
643.9
 30
0.0
 11
160.8000000000086
 21
653.389395556983
 31
0.0
  0
LINE
  5
3B3
330
1F
100
AcDbEntity
  8
LAY-1
  6
CONTINUOUS
 62
     1
100
AcDbLine
 10
151.3106044430176
 20
634.4106044430167
 30
0.0
 11
160.8000000000006
 21
643.8999999999997
 31
0.0
  0
LINE
  5
3B4
330
1F
100
AcDbEntity
  8
LAY-1
  6
CONTINUOUS
 62
     3
100
AcDbLine
 10
151.3106044430176
 20
634.4106044430168
 30
0.0
 11
151.3106044430176
 21
643.8999999999999
 31
0.0
  0
LINE
  5
3B5
330
1F
100
AcDbEntity
  8
LAY-1
  6
CONTINUOUS
 62
     3
100
AcDbLine
 10
160.8000000000006
 20
634.4106044430168
 30
0.0
 11
151.3106044430176
 21
634.4106044430168
 31
0.0
  0
LINE
  5
3B6
330
1F
100
AcDbEntity
  8
LAY-1
  6
CONTINUOUS
 62
     1
100
AcDbLine
 10
151.3106044430176
 20
643.8999999999999
 30
0.0
 11
160.8000000000086
 21
634.4106044430168
 31
0.0
  0
LINE
  5
3B7
330
1F
100
AcDbEntity
  8
LAY-1
  6
CONTINUOUS
 62
     3
100
AcDbLine
 10
160.8000000000006
 20
633.2478961525417
 30
0.0
 11
160.8000000000006
 21
654.5521038474582
 31
0.0
  0
LINE
  5
3B8
330
1F
100
AcDbEntity
  8
LAY-1
  6
CONTINUOUS
 62
     3
100
AcDbLine
 10
165.8000000000005
 20
654.3774999999994
 30
0.0
 11
160.8000000000006
 21
654.5521038474582
 31
0.0
  0
LINE
  5
3B9
330
1F
100
AcDbEntity
  8
LAY-1
  6
CONTINUOUS
 62
     1
100
AcDbLine
 10
160.8000000000006
 20
653.3893955569832
 30
0.0
 11
165.8000000000005
 21
653.2147917095245
 31
0.0
  0
LINE
  5
3BA
330
1F
100
AcDbEntity
  8
LAY-1
  6
CONTINUOUS
 62
     1
100
AcDbLine
 10
160.8000000000006
 20
634.4106044430165
 30
0.0
 11
165.8000000000005
 21
634.5852082904753
 31
0.0
  0
LINE
  5
3BB
330
1F
100
AcDbEntity
  8
LAY-1
  6
CONTINUOUS
 62
     3
100
AcDbLine
 10
165.8000000000005
 20
633.4225000000004
 30
0.0
 11
160.8000000000006
 21
633.2478961525417
 31
0.0
  0
LINE
  5
3BC
330
1F
100
AcDbEntity
  8
LAY-1
  6
EXLTYPE2
 62
     1
100
AcDbLine
 10
249.9000000000004
 20
718.9000000000002
 30
0.0
 11
200.3999999999205
 21
718.9000000000002
 31
0.0
  0
LINE
  5
3BD
330
1F
100
AcDbEntity
  8
LAY-1
  6
EXLTYPE2
 62
     1
100
AcDbLine
 10
247.5000000000005
 20
568.9
 30
0.0
 11
197.9999999999205
 21
568.9000000000002
 31
0.0
  0
LINE
  5
3BE
330
1F
100
AcDbEntity
  8
LAY-1
  6
EXLTYPE2
 62
     1
100
AcDbLine
 10
505.7999999999204
 20
738.6
 30
0.0
 11
505.7999999999204
 21
547.6
 31
0.0
  0
LINE
  5
3BF
330
1F
100
AcDbEntity
  8
LAY-1
  6
CONTINUOUS
 62
     3
100
AcDbLine
 10
170.5709315667923
 20
659.8999999999997
 30
0.0
 11
165.7999999999199
 21
659.8999999999997
 31
0.0
  0
LINE
  5
3C0
330
1F
100
AcDbEntity
  8
LAY-1
  6
CONTINUOUS
 62
     3
100
AcDbLine
 10
170.5709315667925
 20
627.8999999999997
 30
0.0
 11
165.7999999999199
 21
627.8999999999997
 31
0.0
  0
LINE
  5
3C1
330
1F
100
AcDbEntity
  8
LAY-1
  6
CONTINUOUS
 62
     3
100
AcDbLine
 10
291.7999999999198
 20
673.8999999999997
 30
0.0
 11
274.8535421758722
 21
673.8999999999997
 31
0.0
  0
LINE
  5
3C2
330
1F
100
AcDbEntity
  8
LAY-1
  6
CONTINUOUS
 62
     3
100
AcDbLine
 10
291.7999999999198
 20
613.8999999999997
 30
0.0
 11
274.853542175872
 21
613.8999999999997
 31
0.0
  0
ARC
  5
3C3
330
1F
100
AcDbEntity
  8
LAY-1
  6
EXLTYPE2
 62
     1
100
AcDbCircle
 10
365.7999999999602
 20
623.99999999995
 30
0.0
 40
60.0
100
AcDbArc
 50
113.5564643089817
 51
156.4435356908988
  0
ARC
  5
3C4
330
1F
100
AcDbEntity
  8
LAY-1
  6
EXLTYPE2
 62
     1
100
AcDbCircle
 10
365.7999999999602
 20
623.99999999995
 30
0.0
 40
60.0
100
AcDbArc
 50
32.6003335737096
 51
56.68936917543347
  0
ARC
  5
3C5
330
1F
100
AcDbEntity
  8
LAY-1
  6
EXLTYPE2
 62
     1
100
AcDbCircle
 10
365.7999999999602
 20
623.99999999995
 30
0.0
 40
60.0
100
AcDbArc
 50
300.7047943203108
 51
326.4133543464366
  0
ARC
  5
3C6
330
1F
100
AcDbEntity
  8
LAY-1
  6
EXLTYPE2
 62
     1
100
AcDbCircle
 10
365.7999999999602
 20
623.99999999995
 30
0.0
 40
60.0
100
AcDbArc
 50
212.0053832080639
 51
237.313063458996
  0
LINE
  5
3C7
330
1F
100
AcDbEntity
  8
LAY-1
  6
CONTINUOUS
 62
     3
100
AcDbLine
 10
283.3000000000002
 20
232.60000000003
 30
0.0
 11
283.3000000000002
 21
240.60000000003
 31
0.0
  0
ARC
  5
3C8
330
1F
100
AcDbEntity
  8
LAY-1
  6
CONTINUOUS
 62
     3
100
AcDbCircle
 10
281.3000000000002
 20
232.60000000003
 30
0.0
 40
2.0
100
AcDbArc
 50
270.0
 51
0.0
  0
LINE
  5
3C9
330
1F
100
AcDbEntity
  8
LAY-1
  6
CONTINUOUS
 62
     3
100
AcDbLine
 10
280.3000000000002
 20
230.60000000003
 30
0.0
 11
281.3000000000002
 21
230.60000000003
 31
0.0
  0
ARC
  5
3CA
330
1F
100
AcDbEntity
  8
LAY-1
  6
CONTINUOUS
 62
     3
100
AcDbCircle
 10
280.3000000000002
 20
228.60000000003
 30
0.0
 40
2.0
100
AcDbArc
 50
90.00000000000001
 51
180.0
  0
ARC
  5
3CB
330
1F
100
AcDbEntity
  8
LAY-1
  6
CONTINUOUS
 62
     3
100
AcDbCircle
 10
188.3000000000002
 20
55.60000000003004
 30
0.0
 40
15.0
100
AcDbArc
 50
180.0
 51
270.0
  0
ARC
  5
3CC
330
1F
100
AcDbEntity
  8
LAY-1
  6
CONTINUOUS
 62
     3
100
AcDbCircle
 10
170.3000000000002
 20
232.60000000003
 30
0.0
 40
2.0
100
AcDbArc
 50
180.0
 51
270.0
  0
ARC
  5
3CD
330
1F
100
AcDbEntity
  8
LAY-1
  6
CONTINUOUS
 62
     3
100
AcDbCircle
 10
170.3000000000002
 20
227.60000000003
 30
0.0
 40
3.0
100
AcDbArc
 50
0.0
 51
90.00000000000001
  0
LINE
  5
3CE
330
1F
100
AcDbEntity
  8
LAY-1
  6
CONTINUOUS
 62
     3
100
AcDbLine
 10
173.3000000000002
 20
55.60000000003004
 30
0.0
 11
173.3000000000002
 21
228.60000000003
 31
0.0
  0
ARC
  5
3CF
330
1F
100
AcDbEntity
  8
LAY-1
  6
CONTINUOUS
 62
     3
100
AcDbCircle
 10
263.3000000000002
 20
55.60000000003004
 30
0.0
 40
15.0
100
AcDbArc
 50
270.0
 51
0.0
  0
LINE
  5
3D0
330
1F
100
AcDbEntity
  8
LAY-1
  6
CONTINUOUS
 62
     3
100
AcDbLine
 10
278.3000000000002
 20
55.60000000003004
 30
0.0
 11
278.3000000000002
 21
228.60000000003
 31
0.0
  0
LINE
  5
3D1
330
1F
100
AcDbEntity
  8
LAY-1
  6
CONTINUOUS
 62
     3
100
AcDbLine
 10
225.8000000000002
 20
54.60000000002992
 30
0.0
 11
239.8
 21
54.60000000002992
 31
0.0
  0
ARC
  5
3D2
330
1F
100
AcDbEntity
  8
LAY-1
  6
CONTINUOUS
 62
     3
100
AcDbCircle
 10
239.8
 20
53.60000000002992
 30
0.0
 40
1.0
100
AcDbArc
 50
0.0
 51
90.00000000000001
  0
LINE
  5
3D3
330
1F
100
AcDbEntity
  8
LAY-1
  6
CONTINUOUS
 62
     3
100
AcDbLine
 10
240.8
 20
53.60000000002992
 30
0.0
 11
240.8
 21
41.60000000003004
 31
0.0
  0
ARC
  5
3D4
330
1F
100
AcDbEntity
  8
LAY-1
  6
CONTINUOUS
 62
     3
100
AcDbCircle
 10
239.8
 20
41.60000000003004
 30
0.0
 40
1.0
100
AcDbArc
 50
270.0
 51
0.0
  0
LINE
  5
3D5
330
1F
100
AcDbEntity
  8
LAY-1
  6
CONTINUOUS
 62
     3
100
AcDbLine
 10
225.8000000000002
 20
54.60000000002992
 30
0.0
 11
211.8000000000004
 21
54.60000000002992
 31
0.0
  0
ARC
  5
3D6
330
1F
100
AcDbEntity
  8
LAY-1
  6
CONTINUOUS
 62
     3
100
AcDbCircle
 10
211.8000000000004
 20
53.60000000002992
 30
0.0
 40
1.0
100
AcDbArc
 50
90.00000000000001
 51
180.0
  0
LINE
  5
3D7
330
1F
100
AcDbEntity
  8
LAY-1
  6
CONTINUOUS
 62
     3
100
AcDbLine
 10
210.8000000000004
 20
53.60000000002992
 30
0.0
 11
210.8000000000004
 21
41.60000000003004
 31
0.0
  0
ARC
  5
3D8
330
1F
100
AcDbEntity
  8
LAY-1
  6
CONTINUOUS
 62
     3
100
AcDbCircle
 10
211.8000000000004
 20
41.60000000003004
 30
0.0
 40
1.0
100
AcDbArc
 50
180.0
 51
270.0
  0
LINE
  5
3D9
330
1F
100
AcDbEntity
  8
LAY-1
  6
CONTINUOUS
 62
     3
100
AcDbLine
 10
306.7999999999995
 20
110.6000000000307
 30
0.0
 11
293.9421356237713
 21
110.6000000000307
 31
0.0
  0
ARC
  5
3DA
330
1F
100
AcDbEntity
  8
LAY-1
  6
CONTINUOUS
 62
     3
100
AcDbCircle
 10
279.2999999999984
 20
226.6000000000305
 30
0.0
 40
1.0
100
AcDbArc
 50
180.0
 51
270.0
  0
LINE
  5
3DB
330
1F
100
AcDbEntity
  8
LAY-1
  6
CONTINUOUS
 62
     3
100
AcDbLine
 10
306.7999999999995
 20
110.6000000000307
 30
0.0
 11
293.9421356237713
 21
110.6000000000307
 31
0.0
  0
ARC
  5
3DC
330
1F
100
AcDbEntity
  8
LAY-1
  6
CONTINUOUS
 62
     3
100
AcDbCircle
 10
293.9421356237715
 20
105.6000000000307
 30
0.0
 40
5.0
100
AcDbArc
 50
90.00000000000134
 51
135.0000000000015
  0
LINE
  5
3DD
330
1F
100
AcDbEntity
  8
LAY-1
  6
CONTINUOUS
 62
     3
100
AcDbLine
 10
290.4066017178386
 20
109.1355339059636
 30
0.0
 11
279.7644660940668
 21
98.4933982821916
 31
0.0
  0
ARC
  5
3DE
330
1F
100
AcDbEntity
  8
LAY-1
  6
CONTINUOUS
 62
     3
100
AcDbCircle
 10
283.2999999999997
 20
94.95786437625895
 30
0.0
 40
5.0
100
AcDbArc
 50
135.0000000000014
 51
180.0
  0
ARC
  5
3DF
330
1F
100
AcDbEntity
  8
LAY-1
  6
CONTINUOUS
 62
     3
100
AcDbCircle
 10
170.3
 20
75.60000000002935
 30
0.0
 40
3.0
100
AcDbArc
 50
270.0000000000022
 51
0.0000000000005157
  0
LINE
  5
3E0
330
1F
100
AcDbEntity
  8
LAY-1
  6
CONTINUOUS
 62
     3
100
AcDbLine
 10
168.3000000000002
 20
232.60000000003
 30
0.0
 11
168.3000000000002
 21
240.60000000003
 31
0.0
  0
LINE
  5
3E1
330
1F
100
AcDbEntity
  8
LAY-1
  6
CONTINUOUS
 62
     3
100
AcDbLine
 10
166.8000000000004
 20
40.60000000003004
 30
0.0
 11
263.3
 21
40.60000000003004
 31
0.0
  0
ARC
  5
3E2
330
1F
100
AcDbEntity
  8
LAY-1
  6
CONTINUOUS
 62
     3
100
AcDbCircle
 10
166.8000000000004
 20
41.60000000003004
 30
0.0
 40
1.0
100
AcDbArc
 50
180.0
 51
270.0
  0
LINE
  5
3E3
330
1F
100
AcDbEntity
  8
LAY-1
  6
CONTINUOUS
 62
     3
100
AcDbLine
 10
170.3
 20
72.60000000002935
 30
0.0
 11
166.8000000000002
 21
72.60000000002935
 31
0.0
  0
LINE
  5
3E4
330
1F
100
AcDbEntity
  8
LAY-1
  6
CONTINUOUS
 62
     3
100
AcDbLine
 10
165.8
 20
71.60000000002935
 30
0.0
 11
165.8000000000004
 21
41.60000000003004
 31
0.0
  0
ARC
  5
3E5
330
1F
100
AcDbEntity
  8
LAY-1
  6
CONTINUOUS
 62
     3
100
AcDbCircle
 10
166.8
 20
71.60000000002935
 30
0.0
 40
1.0
100
AcDbArc
 50
90.00000000000001
 51
180.0
  0
LINE
  5
3E6
330
1F
100
AcDbEntity
  8
LAY-1
  6
CONTINUOUS
 62
     3
100
AcDbLine
 10
310.8
 20
268.1
 30
0.0
 11
310.8
 21
256.1
 31
0.0
  0
ARC
  5
3E7
330
1F
100
AcDbEntity
  8
LAY-1
  6
CONTINUOUS
 62
     3
100
AcDbCircle
 10
245.7999999999998
 20
290.6000000000301
 30
0.0
 40
1.0
100
AcDbArc
 50
0.0
 51
90.00000000000001
  0
ARC
  5
3E8
330
1F
100
AcDbEntity
  8
LAY-1
  6
CONTINUOUS
 62
     3
100
AcDbCircle
 10
245.7999999999998
 20
262.6000000000301
 30
0.0
 40
1.0
100
AcDbArc
 50
270.0
 51
0.0
  0
LINE
  5
3E9
330
1F
100
AcDbEntity
  8
LAY-1
  6
CONTINUOUS
 62
     3
100
AcDbLine
 10
205.8
 20
291.60000000003
 30
0.0
 11
225.8
 21
291.60000000003
 31
0.0
  0
LINE
  5
3EA
330
1F
100
AcDbEntity
  8
LAY-1
  6
CONTINUOUS
 62
     3
100
AcDbLine
 10
245.7999999999998
 20
291.6000000000301
 30
0.0
 11
225.7999999999998
 21
291.60000000003
 31
0.0
  0
LINE
  5
3EB
330
1F
100
AcDbEntity
  8
LAY-1
  6
CONTINUOUS
 62
     3
100
AcDbLine
 10
246.7999999999998
 20
290.6000000000301
 30
0.0
 11
246.7999999999998
 21
285.1246785390914
 31
0.0
  0
LINE
  5
3EC
330
1F
100
AcDbEntity
  8
LAY-1
  6
CONTINUOUS
 62
     3
100
AcDbLine
 10
234.8
 20
291.6000000000301
 30
0.0
 11
234.8
 21
237.60000000003
 31
0.0
  0
LINE
  5
3ED
330
1F
100
AcDbEntity
  8
LAY-1
  6
CONTINUOUS
 62
     3
100
AcDbLine
 10
246.7999999999998
 20
285.12467853909
 30
0.0
 11
246.7999999999998
 21
262.6000000000301
 31
0.0
  0
LINE
  5
3EE
330
1F
100
AcDbEntity
  8
LAY-1
  6
CONTINUOUS
 62
     3
100
AcDbLine
 10
245.8
 20
261.6000000000299
 30
0.0
 11
240.7999999999997
 21
261.6000000000299
 31
0.0
  0
LINE
  5
3EF
330
1F
100
AcDbEntity
  8
LAY-1
  6
CONTINUOUS
 62
     3
100
AcDbLine
 10
240.7999999999997
 20
291.6000000000301
 30
0.0
 11
240.7999999999997
 21
215.60000000003
 31
0.0
  0
LINE
  5
3F0
330
1F
100
AcDbEntity
  8
LAY-1
  6
CONTINUOUS
 62
     3
100
AcDbLine
 10
216.7999999999997
 20
291.6000000000301
 30
0.0
 11
216.8
 21
237.60000000003
 31
0.0
  0
LINE
  5
3F1
330
1F
100
AcDbEntity
  8
LAY-1
  6
CONTINUOUS
 62
     3
100
AcDbLine
 10
210.8
 20
291.6000000000301
 30
0.0
 11
210.8000000000002
 21
215.6000000000299
 31
0.0
  0
LINE
  5
3F2
330
1F
100
AcDbEntity
  8
LAY-1
  6
CONTINUOUS
 62
     3
100
AcDbLine
 10
210.2114302999998
 20
307.6
 30
0.0
 11
241.3884868999999
 21
307.6
 31
0.0
  0
ARC
  5
3F3
330
1F
100
AcDbEntity
  8
LAY-1
  6
CONTINUOUS
 62
     3
100
AcDbCircle
 10
216.0799972999998
 20
306.8799973000001
 30
0.0
 40
0.72
100
AcDbArc
 50
359.9999988761248
 51
89.99998015215364
  0
ARC
  5
3F4
330
1F
100
AcDbEntity
  8
LAY-1
  6
CONTINUOUS
 62
     3
100
AcDbCircle
 10
235.5200026999998
 20
306.8799973000001
 30
0.0
 40
0.72
100
AcDbArc
 50
90.00001984784183
 51
180.0000011238752
  0
LINE
  5
3F5
330
1F
100
AcDbEntity
  8
LAY-1
  6
CONTINUOUS
 62
     3
100
AcDbLine
 10
212.7499999999998
 20
319.2998767
 30
0.0
 11
238.8499999999998
 21
319.2998767
 31
0.0
  0
LINE
  5
3F6
330
1F
100
AcDbEntity
  8
LAY-1
  6
CONTINUOUS
 62
     3
100
AcDbLine
 10
210.2113888999999
 20
317.8342177000001
 30
0.0
 11
212.7499999999998
 21
319.2998767
 31
0.0
  0
ARC
  5
3F7
330
1F
100
AcDbEntity
  8
LAY-1
  6
CONTINUOUS
 62
     3
100
AcDbCircle
 10
225.7999585999999
 20
297.8434744
 30
0.0
 40
21.456522
100
AcDbArc
 50
68.69970116037358
 51
111.3000872566022
  0
ARC
  5
3F8
330
1F
100
AcDbEntity
  8
LAY-1
  6
CONTINUOUS
 62
     3
100
AcDbCircle
 10
212.6715163999999
 20
308.8604887
 30
0.0
 40
10.4396202
100
AcDbArc
 50
59.2710503879217
 51
89.56923048177806
  0
LINE
  5
3F9
330
1F
100
AcDbEntity
  8
LAY-1
  6
CONTINUOUS
 62
     3
100
AcDbLine
 10
241.3886101999998
 20
317.8342177000001
 30
0.0
 11
238.8499999999998
 21
319.2998767
 31
0.0
  0
ARC
  5
3FA
330
1F
100
AcDbEntity
  8
LAY-1
  6
CONTINUOUS
 62
     3
100
AcDbCircle
 10
238.9284835999998
 20
308.8604887000001
 30
0.0
 40
10.4396202
100
AcDbArc
 50
90.43071222244276
 51
120.7289496120787
  0
LINE
  5
3FB
330
1F
100
AcDbEntity
  8
LAY-1
  6
CONTINUOUS
 62
     3
100
AcDbLine
 10
210.2114302999998
 20
307.6
 30
0.0
 11
210.2113888999999
 21
317.8342177000001
 31
0.0
  0
LINE
  5
3FC
330
1F
100
AcDbEntity
  8
LAY-1
  6
CONTINUOUS
 62
     3
100
AcDbLine
 10
218.0059000999998
 20
307.6000819000001
 30
0.0
 11
218.0058586999997
 21
317.8342177000001
 31
0.0
  0
LINE
  5
3FD
330
1F
100
AcDbEntity
  8
LAY-1
  6
CONTINUOUS
 62
     3
100
AcDbLine
 10
233.5941817999999
 20
307.6000819000001
 30
0.0
 11
233.5941403999998
 21
317.8342177000001
 31
0.0
  0
LINE
  5
3FE
330
1F
100
AcDbEntity
  8
LAY-1
  6
CONTINUOUS
 62
     3
100
AcDbLine
 10
241.3886515999998
 20
307.6
 30
0.0
 11
241.3886101999998
 21
317.8342177000001
 31
0.0
  0
LINE
  5
3FF
330
1F
100
AcDbEntity
  8
LAY-1
  6
CONTINUOUS
 62
     3
100
AcDbLine
 10
234.8000134999999
 20
303.9999928000001
 30
0.0
 11
216.7999999999998
 21
303.9999928000001
 31
0.0
  0
LINE
  5
400
330
1F
100
AcDbEntity
  8
LAY-1
  6
CONTINUOUS
 62
     1
100
AcDbLine
 10
216.7999999999998
 20
307.3749928000001
 30
0.0
 11
218.0176972999998
 21
303.9999928000001
 31
0.0
  0
LINE
  5
401
330
1F
100
AcDbEntity
  8
LAY-1
  6
CONTINUOUS
 62
     1
100
AcDbLine
 10
234.7999999999998
 20
307.3749928000001
 30
0.0
 11
233.5823026999999
 21
303.9999928000001
 31
0.0
  0
LINE
  5
402
330
1F
100
AcDbEntity
  8
LAY-1
  6
CONTINUOUS
 62
     3
100
AcDbLine
 10
216.7999999999998
 20
307.3749865000001
 30
0.0
 11
216.7999999999998
 21
306.8799973000001
 31
0.0
  0
LINE
  5
403
330
1F
100
AcDbEntity
  8
LAY-1
  6
CONTINUOUS
 62
     3
100
AcDbLine
 10
234.7999999999998
 20
307.3749865000001
 30
0.0
 11
234.7999999999998
 21
306.8799973000001
 31
0.0
  0
LINE
  5
404
330
1F
100
AcDbEntity
  8
LAY-1
  6
CONTINUOUS
 62
     3
100
AcDbLine
 10
234.7999999999998
 20
307.3749865000001
 30
0.0
 11
234.7999999999998
 21
244.1441558772844
 31
0.0
  0
LINE
  5
405
330
1F
100
AcDbEntity
  8
LAY-1
  6
CONTINUOUS
 62
     1
100
AcDbLine
 10
233.5823026999999
 20
303.9999928000001
 30
0.0
 11
233.5823026999999
 21
291.6000000000301
 31
0.0
  0
LINE
  5
406
330
1F
100
AcDbEntity
  8
LAY-1
  6
CONTINUOUS
 62
     3
100
AcDbLine
 10
216.7999999999998
 20
307.3749865
 30
0.0
 11
216.8000000000001
 21
244.1441558772844
 31
0.0
  0
LINE
  5
407
330
1F
100
AcDbEntity
  8
LAY-1
  6
CONTINUOUS
 62
     1
100
AcDbLine
 10
218.0176972999998
 20
303.9999928
 30
0.0
 11
218.0176972999998
 21
291.6000000000301
 31
0.0
  0
ARC
  5
408
330
1F
100
AcDbEntity
  8
LAY-1
  6
CONTINUOUS
 62
     3
100
AcDbCircle
 10
205.8
 20
290.6000000000301
 30
0.0
 40
1.0
100
AcDbArc
 50
90.00000000000001
 51
180.0
  0
ARC
  5
409
330
1F
100
AcDbEntity
  8
LAY-1
  6
CONTINUOUS
 62
     3
100
AcDbCircle
 10
205.8
 20
262.6000000000301
 30
0.0
 40
1.0
100
AcDbArc
 50
180.0
 51
270.0
  0
LINE
  5
40A
330
1F
100
AcDbEntity
  8
LAY-1
  6
CONTINUOUS
 62
     3
100
AcDbLine
 10
204.8
 20
290.6000000000301
 30
0.0
 11
204.8
 21
285.1246785390913
 31
0.0
  0
LINE
  5
40B
330
1F
100
AcDbEntity
  8
LAY-1
  6
CONTINUOUS
 62
     3
100
AcDbLine
 10
204.8
 20
285.1246785390899
 30
0.0
 11
204.8
 21
262.6000000000301
 31
0.0
  0
LINE
  5
40C
330
1F
100
AcDbEntity
  8
LAY-1
  6
CONTINUOUS
 62
     3
100
AcDbLine
 10
205.8
 20
261.6000000000299
 30
0.0
 11
210.8000000000001
 21
261.6000000000299
 31
0.0
  0
LINE
  5
40D
330
1F
100
AcDbEntity
  8
LAY-1
  6
CONTINUOUS
 62
     3
100
AcDbLine
 10
240.7999999999997
 20
240.60000000003
 30
0.0
 11
283.3000000000002
 21
240.60000000003
 31
0.0
  0
LINE
  5
40E
330
1F
100
AcDbEntity
  8
LAY-1
  6
CONTINUOUS
 62
     1
100
AcDbLine
 10
151.310604443017
 20
66.08939555698305
 30
0.0
 11
160.8000000000001
 21
56.60000000000002
 31
0.0
  0
LINE
  5
40F
330
1F
100
AcDbEntity
  8
LAY-1
  6
CONTINUOUS
 62
     3
100
AcDbLine
 10
151.3106044430169
 20
66.08939555698305
 30
0.0
 11
151.3106044430169
 21
56.59999999999991
 31
0.0
  0
LINE
  5
410
330
1F
100
AcDbEntity
  8
LAY-1
  6
CONTINUOUS
 62
     3
100
AcDbLine
 10
160.8
 20
66.08939555698305
 30
0.0
 11
151.3106044430169
 21
66.08939555698305
 31
0.0
  0
LINE
  5
411
330
1F
100
AcDbEntity
  8
LAY-1
  6
CONTINUOUS
 62
     1
100
AcDbLine
 10
151.3106044430169
 20
56.60000000000002
 30
0.0
 11
160.800000000008
 21
66.08939555698305
 31
0.0
  0
LINE
  5
412
330
1F
100
AcDbEntity
  8
LAY-1
  6
CONTINUOUS
 62
     1
100
AcDbLine
 10
151.310604443017
 20
47.11060444301677
 30
0.0
 11
160.8000000000001
 21
56.5999999999998
 31
0.0
  0
LINE
  5
413
330
1F
100
AcDbEntity
  8
LAY-1
  6
CONTINUOUS
 62
     3
100
AcDbLine
 10
151.3106044430169
 20
47.11060444301677
 30
0.0
 11
151.3106044430169
 21
56.59999999999991
 31
0.0
  0
LINE
  5
414
330
1F
100
AcDbEntity
  8
LAY-1
  6
CONTINUOUS
 62
     3
100
AcDbLine
 10
160.8
 20
47.11060444301677
 30
0.0
 11
151.3106044430169
 21
47.11060444301677
 31
0.0
  0
LINE
  5
415
330
1F
100
AcDbEntity
  8
LAY-1
  6
CONTINUOUS
 62
     1
100
AcDbLine
 10
151.3106044430169
 20
56.5999999999998
 30
0.0
 11
160.800000000008
 21
47.11060444301677
 31
0.0
  0
LINE
  5
416
330
1F
100
AcDbEntity
  8
LAY-1
  6
CONTINUOUS
 62
     3
100
AcDbLine
 10
160.8
 20
45.94789615254172
 30
0.0
 11
160.8
 21
67.2521038474581
 31
0.0
  0
LINE
  5
417
330
1F
100
AcDbEntity
  8
LAY-1
  6
CONTINUOUS
 62
     3
100
AcDbLine
 10
165.8
 20
67.07749999999942
 30
0.0
 11
160.8
 21
67.2521038474581
 31
0.0
  0
LINE
  5
418
330
1F
100
AcDbEntity
  8
LAY-1
  6
CONTINUOUS
 62
     1
100
AcDbLine
 10
160.8
 20
66.08939555698328
 30
0.0
 11
165.8
 21
65.91479170952448
 31
0.0
  0
LINE
  5
419
330
1F
100
AcDbEntity
  8
LAY-1
  6
CONTINUOUS
 62
     1
100
AcDbLine
 10
160.8
 20
47.11060444301654
 30
0.0
 11
165.8
 21
47.28520829047534
 31
0.0
  0
LINE
  5
41A
330
1F
100
AcDbEntity
  8
LAY-1
  6
CONTINUOUS
 62
     3
100
AcDbLine
 10
165.8
 20
46.1225000000004
 30
0.0
 11
160.8
 21
45.94789615254172
 31
0.0
  0
LINE
  5
41B
330
1F
100
AcDbEntity
  8
LAY-1
  6
EXLTYPE2
 62
     1
100
AcDbLine
 10
180.0
 20
56.59999999999991
 30
0.0
 11
147.7999999999998
 21
56.59999999999991
 31
0.0
  0
ARC
  5
41C
330
1F
100
AcDbEntity
  8
LAY-1
  6
CONTINUOUS
 62
     3
100
AcDbCircle
 10
207.2999999999997
 20
215.60000000003
 30
0.0
 40
1.0
100
AcDbArc
 50
270.0
 51
0.0
  0
LINE
  5
41D
330
1F
100
AcDbEntity
  8
LAY-1
  6
CONTINUOUS
 62
     3
100
AcDbLine
 10
207.2999999999997
 20
214.60000000003
 30
0.0
 11
204.2999999999997
 21
214.60000000003
 31
0.0
  0
ARC
  5
41E
330
1F
100
AcDbEntity
  8
LAY-1
  6
CONTINUOUS
 62
     3
100
AcDbCircle
 10
204.2999999999997
 20
215.60000000003
 30
0.0
 40
1.0
100
AcDbArc
 50
180.0
 51
270.0
  0
LINE
  5
41F
330
1F
100
AcDbEntity
  8
LAY-1
  6
CONTINUOUS
 62
     3
100
AcDbLine
 10
208.2999999999997
 20
225.60000000003
 30
0.0
 11
208.2999999999997
 21
215.60000000003
 31
0.0
  0
ARC
  5
420
330
1F
100
AcDbEntity
  8
LAY-1
  6
CONTINUOUS
 62
     3
100
AcDbCircle
 10
209.2999999999997
 20
225.60000000003
 30
0.0
 40
1.0
100
AcDbArc
 50
90.00000000000001
 51
180.0
  0
ARC
  5
421
330
1F
100
AcDbEntity
  8
LAY-1
  6
CONTINUOUS
 62
     3
100
AcDbCircle
 10
242.2999999999997
 20
227.60000000003
 30
0.0
 40
1.0
100
AcDbArc
 50
270.0
 51
0.0
  0
ARC
  5
422
330
1F
100
AcDbEntity
  8
LAY-1
  6
CONTINUOUS
 62
     3
100
AcDbCircle
 10
242.2999999999997
 20
236.60000000003
 30
0.0
 40
1.0
100
AcDbArc
 50
0.0
 51
90.00000000000001
  0
ARC
  5
423
330
1F
100
AcDbEntity
  8
LAY-1
  6
CONTINUOUS
 62
     3
100
AcDbCircle
 10
204.2999999999997
 20
236.60000000003
 30
0.0
 40
1.0
100
AcDbArc
 50
90.00000000000001
 51
180.0
  0
ARC
  5
424
330
1F
100
AcDbEntity
  8
LAY-1
  6
CONTINUOUS
 62
     3
100
AcDbCircle
 10
245.2999999999997
 20
228.60000000003
 30
0.0
 40
2.0
100
AcDbArc
 50
90.00000000000001
 51
180.0
  0
ARC
  5
425
330
1F
100
AcDbEntity
  8
LAY-1
  6
CONTINUOUS
 62
     3
100
AcDbCircle
 10
201.2999999999997
 20
228.60000000003
 30
0.0
 40
2.0
100
AcDbArc
 50
0.0
 51
90.00000000000001
  0
LINE
  5
426
330
1F
100
AcDbEntity
  8
LAY-1
  6
CONTINUOUS
 62
     3
100
AcDbLine
 10
203.2999999999997
 20
236.60000000003
 30
0.0
 11
203.2999999999997
 21
215.60000000003
 31
0.0
  0
LINE
  5
427
330
1F
100
AcDbEntity
  8
LAY-1
  6
CONTINUOUS
 62
     3
100
AcDbLine
 10
243.2999999999997
 20
236.60000000003
 30
0.0
 11
243.2999999999997
 21
227.60000000003
 31
0.0
  0
ARC
  5
428
330
1F
100
AcDbEntity
  8
LAY-1
  6
CONTINUOUS
 62
     3
100
AcDbCircle
 10
211.8000000000002
 20
215.60000000003
 30
0.0
 40
1.0
100
AcDbArc
 50
180.0
 51
270.0
  0
ARC
  5
429
330
1F
100
AcDbEntity
  8
LAY-1
  6
CONTINUOUS
 62
     3
100
AcDbCircle
 10
239.7999999999997
 20
215.6000000000299
 30
0.0
 40
1.0
100
AcDbArc
 50
270.0
 51
0.0
  0
LINE
  5
42A
330
1F
100
AcDbEntity
  8
LAY-1
  6
CONTINUOUS
 62
     3
100
AcDbLine
 10
240.0
 20
214.60000000003
 30
0.0
 11
211.8000000000002
 21
214.60000000003
 31
0.0
  0
LINE
  5
42B
330
1F
100
AcDbEntity
  8
LAY-1
  6
CONTINUOUS
 62
     3
100
AcDbLine
 10
210.8000000000002
 20
226.60000000003
 30
0.0
 11
209.2999999999997
 21
226.60000000003
 31
0.0
  0
LINE
  5
42C
330
1F
100
AcDbEntity
  8
LAY-1
  6
CONTINUOUS
 62
     3
100
AcDbLine
 10
242.2999999999997
 20
226.60000000003
 30
0.0
 11
240.8
 21
226.60000000003
 31
0.0
  0
LINE
  5
42D
330
1F
100
AcDbEntity
  8
LAY-1
  6
CONTINUOUS
 62
     3
100
AcDbLine
 10
242.3
 20
237.60000000003
 30
0.0
 11
240.8
 21
237.60000000003
 31
0.0
  0
LINE
  5
42E
330
1F
100
AcDbEntity
  8
LAY-1
  6
CONTINUOUS
 62
     3
100
AcDbLine
 10
210.8000000000002
 20
237.60000000003
 30
0.0
 11
204.2999999999997
 21
237.60000000003
 31
0.0
  0
LINE
  5
42F
330
1F
100
AcDbEntity
  8
LAY-1
  6
CONTINUOUS
 62
     3
100
AcDbLine
 10
245.3
 20
230.60000000003
 30
0.0
 11
280.3000000000002
 21
230.60000000003
 31
0.0
  0
LINE
  5
430
330
1F
100
AcDbEntity
  8
LAY-1
  6
CONTINUOUS
 62
     3
100
AcDbLine
 10
201.2999999999997
 20
230.60000000003
 30
0.0
 11
171.3000000000002
 21
230.60000000003
 31
0.0
  0
DIMENSION
  5
431
330
1F
100
AcDbEntity
  8
LAY-1
  6
CONTINUOUS
 62
     1
100
AcDbDimension
  2
*D21
 10
634.0
 20
763.9
 30
0.0
 11
627.0
 21
643.9
 31
0.0
 70
   160
  3
ISO-25
100
AcDbAlignedDimension
 13
365.8
 23
523.9
 33
0.0
 14
365.79999999996
 24
763.9
 34
0.0
 50
90.0
100
AcDbRotatedDimension
1001
ACAD
1000
DSTYLE
1002
{
1070
   270
1070
     2
1070
     6
1000
EX_NORM
1070
     7
1000
EX_NORM
1070
    41
1040
5.0
1070
    42
1040
2.0
1070
    44
1040
2.0
1070
    73
1070
     0
1070
    74
1070
     0
1070
    75
1070
     0
1070
    76
1070
     0
1070
    77
1070
     1
1070
    78
1070
     8
1070
   140
1040
8.203189124487004
1070
   147
1040
0.0
1070
   173
1070
     1
1070
   176
1070
     1
1070
   177
1070
     1
1070
   178
1070
     3
1070
   271
1070
     3
1070
   277
1070
     2
1070
   279
1070
     2
1070
   280
1070
     0
1070
   287
1070
     5
1070
   340
1005
103
1002
}
  0
LINE
  5
43E
330
1F
100
AcDbEntity
  8
LAY-1
  6
CONTINUOUS
 62
     3
100
AcDbLine
 10
365.8
 20
442.4
 30
0.0
 11
346.8
 21
442.4
 31
0.0
  0
LINE
  5
43F
330
1F
100
AcDbEntity
  8
LAY-1
  6
CONTINUOUS
 62
     3
100
AcDbLine
 10
365.8
 20
442.4
 30
0.0
 11
393.3000000000002
 21
442.4
 31
0.0
  0
LINE
  5
440
330
1F
100
AcDbEntity
  8
LAY-1
  6
EXLTYPE3
 62
     3
100
AcDbLine
 10
343.8605000000001
 20
448.7028788837167
 30
0.0
 11
346.8000000000002
 21
450.3999999999996
 31
0.0
  0
LINE
  5
441
330
1F
100
AcDbEntity
  8
LAY-1
  6
EXLTYPE3
 62
     3
100
AcDbLine
 10
343.8604999999998
 20
448.7028788837169
 30
0.0
 11
343.8604999999998
 21
442.4
 31
0.0
  0
LINE
  5
442
330
1F
100
AcDbEntity
  8
LAY-1
  6
EXLTYPE3
 62
     3
100
AcDbLine
 10
346.8
 20
442.4
 30
0.0
 11
343.8605000000001
 21
442.4
 31
0.0
  0
LINE
  5
443
330
1F
100
AcDbEntity
  8
LAY-1
  6
EXLTYPE3
 62
     3
100
AcDbLine
 10
387.7394999999999
 20
448.7028788837167
 30
0.0
 11
384.7999999999997
 21
450.3999999999996
 31
0.0
  0
LINE
  5
444
330
1F
100
AcDbEntity
  8
LAY-1
  6
EXLTYPE3
 62
     3
100
AcDbLine
 10
387.7395000000001
 20
448.7028788837169
 30
0.0
 11
387.7395000000001
 21
442.4
 31
0.0
  0
LINE
  5
445
330
1F
100
AcDbEntity
  8
LAY-1
  6
EXLTYPE3
 62
     3
100
AcDbLine
 10
384.7999999999999
 20
442.4
 30
0.0
 11
387.7394999999999
 21
442.4
 31
0.0
  0
ARC
  5
446
330
1F
100
AcDbEntity
  8
LAY-1
  6
CONTINUOUS
 62
     3
100
AcDbCircle
 10
385.1351537714817
 20
428.9660391709222
 30
0.0
 40
21.4365809977473
100
AcDbArc
 50
90.89583684155276
 51
112.9701374147763
  0
ARC
  5
447
330
1F
100
AcDbEntity
  8
LAY-1
  6
CONTINUOUS
 62
     3
100
AcDbCircle
 10
346.4648462285182
 20
428.9660391709222
 30
0.0
 40
21.4365809977473
100
AcDbArc
 50
67.02986258522377
 51
89.10416315844724
  0
LINE
  5
448
330
1F
100
AcDbEntity
  8
LAY-1
  6
CONTINUOUS
 62
     3
100
AcDbLine
 10
354.8304999999997
 20
442.4
 30
0.0
 11
354.8304999999997
 21
448.7028788837201
 31
0.0
  0
LINE
  5
449
330
1F
100
AcDbEntity
  8
LAY-1
  6
CONTINUOUS
 62
     3
100
AcDbLine
 10
376.7695000000002
 20
442.4
 30
0.0
 11
376.7695000000002
 21
448.7028788837201
 31
0.0
  0
ARC
  5
44A
330
1F
100
AcDbEntity
  8
LAY-1
  6
CONTINUOUS
 62
     3
100
AcDbCircle
 10
365.8
 20
414.1002482759161
 30
0.0
 40
36.29975172408386
100
AcDbArc
 50
72.41068361497129
 51
107.5893163850286
  0
LINE
  5
44B
330
1F
100
AcDbEntity
  8
LAY-1
  6
CONTINUOUS
 62
     3
100
AcDbLine
 10
375.8
 20
450.4
 30
0.0
 11
375.8
 21
460.6
 31
0.0
  0
LINE
  5
44C
330
1F
100
AcDbEntity
  8
LAY-1
  6
CONTINUOUS
 62
     1
100
AcDbLine
 10
373.55
 20
460.5999999999998
 30
0.0
 11
373.55
 21
450.4
 31
0.0
  0
LINE
  5
44D
330
1F
100
AcDbEntity
  8
LAY-1
  6
CONTINUOUS
 62
     1
100
AcDbLine
 10
358.05
 20
460.5999999999998
 30
0.0
 11
358.05
 21
450.4
 31
0.0
  0
LINE
  5
44E
330
1F
100
AcDbEntity
  8
LAY-1
  6
CONTINUOUS
 62
     3
100
AcDbLine
 10
355.8
 20
450.4
 30
0.0
 11
355.8
 21
460.6
 31
0.0
  0
LINE
  5
44F
330
1F
100
AcDbEntity
  8
LAY-1
  6
CONTINUOUS
 62
     3
100
AcDbLine
 10
365.8
 20
422.1
 30
0.0
 11
343.3
 21
422.1
 31
0.0
  0
LINE
  5
450
330
1F
100
AcDbEntity
  8
LAY-1
  6
CONTINUOUS
 62
     3
100
AcDbLine
 10
365.8
 20
422.1
 30
0.0
 11
388.3
 21
422.1
 31
0.0
  0
LINE
  5
451
330
1F
100
AcDbEntity
  8
LAY-1
  6
CONTINUOUS
 62
     3
100
AcDbLine
 10
365.8
 20
422.4
 30
0.0
 11
338.3
 21
422.4
 31
0.0
  0
LINE
  5
452
330
1F
100
AcDbEntity
  8
LAY-1
  6
CONTINUOUS
 62
     3
100
AcDbLine
 10
365.8
 20
422.4
 30
0.0
 11
393.3
 21
422.4
 31
0.0
  0
LINE
  5
453
330
1F
100
AcDbEntity
  8
LAY-1
  6
CONTINUOUS
 62
     3
100
AcDbLine
 10
340.3
 20
419.1
 30
0.0
 11
365.8
 21
419.1
 31
0.0
  0
LINE
  5
454
330
1F
100
AcDbEntity
  8
LAY-1
  6
CONTINUOUS
 62
     3
100
AcDbLine
 10
391.3
 20
419.1
 30
0.0
 11
365.8
 21
419.1
 31
0.0
  0
LINE
  5
455
330
1F
100
AcDbEntity
  8
LAY-1
  6
CONTINUOUS
 62
     3
100
AcDbLine
 10
365.8
 20
394.0999999999999
 30
0.0
 11
337.4526111558298
 21
394.1
 31
0.0
  0
LINE
  5
456
330
1F
100
AcDbEntity
  8
LAY-1
  6
CONTINUOUS
 62
     3
100
AcDbLine
 10
365.8
 20
394.1
 30
0.0
 11
388.3
 21
394.1
 31
0.0
  0
LINE
  5
457
330
1F
100
AcDbEntity
  8
LAY-1
  6
CONTINUOUS
 62
     3
100
AcDbLine
 10
365.8
 20
388.1
 30
0.0
 11
343.3
 21
388.1
 31
0.0
  0
LINE
  5
458
330
1F
100
AcDbEntity
  8
LAY-1
  6
CONTINUOUS
 62
     3
100
AcDbLine
 10
388.3
 20
388.1
 30
0.0
 11
365.8
 21
388.1
 31
0.0
  0
LINE
  5
459
330
1F
100
AcDbEntity
  8
LAY-1
  6
CONTINUOUS
 62
     3
100
AcDbLine
 10
365.8
 20
378.6
 30
0.0
 11
345.8
 21
378.6
 31
0.0
  0
LINE
  5
45A
330
1F
100
AcDbEntity
  8
LAY-1
  6
CONTINUOUS
 62
     3
100
AcDbLine
 10
385.8
 20
378.6
 30
0.0
 11
365.8
 21
378.6
 31
0.0
  0
LINE
  5
45B
330
1F
100
AcDbEntity
  8
LAY-1
  6
CONTINUOUS
 62
     3
100
AcDbLine
 10
365.8
 20
358.6
 30
0.0
 11
345.8
 21
358.6
 31
0.0
  0
LINE
  5
45C
330
1F
100
AcDbEntity
  8
LAY-1
  6
CONTINUOUS
 62
     3
100
AcDbLine
 10
385.8
 20
358.6
 30
0.0
 11
365.8
 21
358.6
 31
0.0
  0
INSERT
  5
45D
330
1F
100
AcDbEntity
  8
LAY-1
  6
CONTINUOUS
 62
     0
100
AcDbBlockReference
  2
HBH8
 10
365.8
 20
368.6
 30
0.0
  0
LINE
  5
45E
330
1F
100
AcDbEntity
  8
LAY-1
  6
CONTINUOUS
 62
     3
100
AcDbLine
 10
355.8
 20
378.6
 30
0.0
 11
355.8
 21
388.1
 31
0.0
  0
LINE
  5
45F
330
1F
100
AcDbEntity
  8
LAY-1
  6
CONTINUOUS
 62
     3
100
AcDbLine
 10
375.8
 20
378.6
 30
0.0
 11
375.8
 21
388.1
 31
0.0
  0
LINE
  5
460
330
1F
100
AcDbEntity
  8
LAY-1
  6
CONTINUOUS
 62
     3
100
AcDbLine
 10
310.8
 20
329.1
 30
0.0
 11
310.8
 21
369.0999999999998
 31
0.0
  0
LINE
  5
461
330
1F
100
AcDbEntity
  8
LAY-1
  6
CONTINUOUS
 62
     3
100
AcDbLine
 10
310.8
 20
369.0999999999998
 30
0.0
 11
310.8
 21
379.1
 31
0.0
  0
LINE
  5
462
330
1F
100
AcDbEntity
  8
LAY-1
  6
CONTINUOUS
 62
     3
100
AcDbLine
 10
315.8
 20
369.0999999999998
 30
0.0
 11
315.8
 21
379.1
 31
0.0
  0
LINE
  5
463
330
1F
100
AcDbEntity
  8
LAY-1
  6
CONTINUOUS
 62
     3
100
AcDbLine
 10
315.8
 20
329.1000000000002
 30
0.0
 11
315.8
 21
369.0999999999998
 31
0.0
  0
LINE
  5
464
330
1F
100
AcDbEntity
  8
LAY-1
  6
EXLTYPE2
 62
     1
100
AcDbLine
 10
479.0
 20
368.6000000000005
 30
0.0
 11
356.0
 21
368.6000000000005
 31
0.0
  0
LINE
  5
465
330
1F
100
AcDbEntity
  8
LAY-1
  6
CONTINUOUS
 62
     3
100
AcDbLine
 10
343.3
 20
313.1
 30
0.0
 11
365.8
 21
313.1
 31
0.0
  0
LINE
  5
466
330
1F
100
AcDbEntity
  8
LAY-1
  6
CONTINUOUS
 62
     3
100
AcDbLine
 10
388.3
 20
313.1
 30
0.0
 11
365.8
 21
313.1
 31
0.0
  0
LINE
  5
467
330
1F
100
AcDbEntity
  8
LAY-1
  6
CONTINUOUS
 62
     3
100
AcDbLine
 10
348.3
 20
294.1
 30
0.0
 11
383.3
 21
294.1
 31
0.0
  0
LINE
  5
468
330
1F
100
AcDbEntity
  8
LAY-1
  6
CONTINUOUS
 62
     3
100
AcDbLine
 10
349.3999999999999
 20
294.1
 30
0.0
 11
349.3999999999999
 21
313.1
 31
0.0
  0
LINE
  5
469
330
1F
100
AcDbEntity
  8
LAY-1
  6
CONTINUOUS
 62
     3
100
AcDbLine
 10
382.2
 20
294.1
 30
0.0
 11
382.2
 21
313.1
 31
0.0
  0
LINE
  5
46A
330
1F
100
AcDbEntity
  8
LAY-1
  6
CONTINUOUS
 62
     3
100
AcDbLine
 10
446.79999999993
 20
222.60003100003
 30
0.0
 11
446.79999999993
 21
204.60003100003
 31
0.0
  0
LINE
  5
46B
330
1F
100
AcDbEntity
  8
LAY-1
  6
CONTINUOUS
 62
     3
100
AcDbLine
 10
446.79999999993
 20
204.60003100003
 30
0.0
 11
445.66273199993
 21
202.63024300003
 31
0.0
  0
ARC
  5
46C
330
1F
100
AcDbEntity
  8
LAY-1
  6
CONTINUOUS
 62
     3
100
AcDbCircle
 10
433.00523099993
 20
213.60064100003
 30
0.0
 40
13.794775
100
AcDbArc
 50
336.5695410695425
 51
23.42574307644363
  0
ARC
  5
46D
330
1F
100
AcDbEntity
  8
LAY-1
  6
CONTINUOUS
 62
     3
100
AcDbCircle
 10
440.53013299993
 20
204.5141540000301
 30
0.0
 40
6.271714
100
AcDbArc
 50
0.7846855482745037
 51
35.0556976977886
  0
LINE
  5
46E
330
1F
100
AcDbEntity
  8
LAY-1
  6
CONTINUOUS
 62
     3
100
AcDbLine
 10
446.79999999993
 20
222.60003100003
 30
0.0
 11
445.66273199993
 21
224.56981800003
 31
0.0
  0
ARC
  5
46F
330
1F
100
AcDbEntity
  8
LAY-1
  6
CONTINUOUS
 62
     3
100
AcDbCircle
 10
440.53013299993
 20
222.68590700003
 30
0.0
 40
6.271714
100
AcDbArc
 50
324.9443023022114
 51
359.2153144517255
  0
LINE
  5
470
330
1F
100
AcDbEntity
  8
LAY-1
  6
CONTINUOUS
 62
     3
100
AcDbLine
 10
453.29999999993
 20
209.59995500003
 30
0.0
 11
453.29999999993
 21
217.59997000003
 31
0.0
  0
LINE
  5
471
330
1F
100
AcDbEntity
  8
LAY-1
  6
CONTINUOUS
 62
     3
100
AcDbLine
 10
451.29999999993
 20
219.59997000003
 30
0.0
 11
453.29999999993
 21
217.59997000003
 31
0.0
  0
LINE
  5
472
330
1F
100
AcDbEntity
  8
LAY-1
  6
CONTINUOUS
 62
     3
100
AcDbLine
 10
451.29999999993
 20
207.59995500003
 30
0.0
 11
451.29999999993
 21
219.59997000003
 31
0.0
  0
LINE
  5
473
330
1F
100
AcDbEntity
  8
LAY-1
  6
CONTINUOUS
 62
     3
100
AcDbLine
 10
451.29999999993
 20
207.59997000003
 30
0.0
 11
453.29999999993
 21
209.59997000003
 31
0.0
  0
LINE
  5
474
330
1F
100
AcDbEntity
  8
LAY-1
  6
CONTINUOUS
 62
     3
100
AcDbLine
 10
446.79999999993
 20
219.59997000003
 30
0.0
 11
451.2999999999299
 21
219.59997000003
 31
0.0
  0
LINE
  5
475
330
1F
100
AcDbEntity
  8
LAY-1
  6
CONTINUOUS
 62
     1
100
AcDbLine
 10
446.79999999993
 20
218.65294800003
 30
0.0
 11
452.2470219999299
 21
218.65294800003
 31
0.0
  0
LINE
  5
476
330
1F
100
AcDbEntity
  8
LAY-1
  6
CONTINUOUS
 62
     3
100
AcDbLine
 10
451.29999999993
 20
207.6000300000305
 30
0.0
 11
453.29999999993
 21
209.6000300000305
 31
0.0
  0
LINE
  5
477
330
1F
100
AcDbEntity
  8
LAY-1
  6
CONTINUOUS
 62
     3
100
AcDbLine
 10
446.79999999993
 20
207.6000300000305
 30
0.0
 11
451.2999999999299
 21
207.6000300000305
 31
0.0
  0
LINE
  5
478
330
1F
100
AcDbEntity
  8
LAY-1
  6
CONTINUOUS
 62
     1
100
AcDbLine
 10
446.79999999993
 20
208.5470520000304
 30
0.0
 11
452.2470219999299
 21
208.5470520000304
 31
0.0
  0
LINE
  5
479
330
1F
100
AcDbEntity
  8
LAY-1
  6
CONTINUOUS
 62
     3
100
AcDbLine
 10
446.79999999993
 20
179.60003100003
 30
0.0
 11
446.79999999993
 21
161.60003100003
 31
0.0
  0
LINE
  5
47A
330
1F
100
AcDbEntity
  8
LAY-1
  6
CONTINUOUS
 62
     3
100
AcDbLine
 10
446.79999999993
 20
161.60003100003
 30
0.0
 11
445.66273199993
 21
159.63024300003
 31
0.0
  0
ARC
  5
47B
330
1F
100
AcDbEntity
  8
LAY-1
  6
CONTINUOUS
 62
     3
100
AcDbCircle
 10
433.00523099993
 20
170.60064100003
 30
0.0
 40
13.794775
100
AcDbArc
 50
336.5695410695425
 51
23.42574307644363
  0
ARC
  5
47C
330
1F
100
AcDbEntity
  8
LAY-1
  6
CONTINUOUS
 62
     3
100
AcDbCircle
 10
440.53013299993
 20
161.5141540000301
 30
0.0
 40
6.271714
100
AcDbArc
 50
0.7846855482745037
 51
35.0556976977886
  0
LINE
  5
47D
330
1F
100
AcDbEntity
  8
LAY-1
  6
CONTINUOUS
 62
     3
100
AcDbLine
 10
446.79999999993
 20
179.60003100003
 30
0.0
 11
445.66273199993
 21
181.56981800003
 31
0.0
  0
ARC
  5
47E
330
1F
100
AcDbEntity
  8
LAY-1
  6
CONTINUOUS
 62
     3
100
AcDbCircle
 10
440.53013299993
 20
179.68590700003
 30
0.0
 40
6.271714
100
AcDbArc
 50
324.9443023022114
 51
359.2153144517255
  0
LINE
  5
47F
330
1F
100
AcDbEntity
  8
LAY-1
  6
CONTINUOUS
 62
     3
100
AcDbLine
 10
445.66273199993
 20
159.63027300003
 30
0.0
 11
436.79999999993
 21
159.63030400003
 31
0.0
  0
LINE
  5
480
330
1F
100
AcDbEntity
  8
LAY-1
  6
CONTINUOUS
 62
     3
100
AcDbLine
 10
445.66273199993
 20
165.11525900003
 30
0.0
 11
436.8000609999301
 21
165.11527400003
 31
0.0
  0
LINE
  5
481
330
1F
100
AcDbEntity
  8
LAY-1
  6
CONTINUOUS
 62
     3
100
AcDbLine
 10
453.29999999993
 20
166.59995500003
 30
0.0
 11
453.29999999993
 21
174.59997000003
 31
0.0
  0
LINE
  5
482
330
1F
100
AcDbEntity
  8
LAY-1
  6
CONTINUOUS
 62
     3
100
AcDbLine
 10
451.29999999993
 20
176.59997000003
 30
0.0
 11
453.29999999993
 21
174.59997000003
 31
0.0
  0
LINE
  5
483
330
1F
100
AcDbEntity
  8
LAY-1
  6
CONTINUOUS
 62
     3
100
AcDbLine
 10
451.29999999993
 20
164.59995500003
 30
0.0
 11
451.29999999993
 21
176.59997000003
 31
0.0
  0
LINE
  5
484
330
1F
100
AcDbEntity
  8
LAY-1
  6
CONTINUOUS
 62
     3
100
AcDbLine
 10
451.29999999993
 20
164.59997000003
 30
0.0
 11
453.29999999993
 21
166.59997000003
 31
0.0
  0
LINE
  5
485
330
1F
100
AcDbEntity
  8
LAY-1
  6
CONTINUOUS
 62
     3
100
AcDbLine
 10
446.79999999993
 20
176.59997000003
 30
0.0
 11
451.2999999999299
 21
176.59997000003
 31
0.0
  0
LINE
  5
486
330
1F
100
AcDbEntity
  8
LAY-1
  6
CONTINUOUS
 62
     1
100
AcDbLine
 10
446.79999999993
 20
175.65294800003
 30
0.0
 11
452.2470219999299
 21
175.65294800003
 31
0.0
  0
LINE
  5
487
330
1F
100
AcDbEntity
  8
LAY-1
  6
CONTINUOUS
 62
     3
100
AcDbLine
 10
451.29999999993
 20
164.6000300000305
 30
0.0
 11
453.29999999993
 21
166.6000300000305
 31
0.0
  0
LINE
  5
488
330
1F
100
AcDbEntity
  8
LAY-1
  6
CONTINUOUS
 62
     3
100
AcDbLine
 10
446.79999999993
 20
164.6000300000305
 30
0.0
 11
451.2999999999299
 21
164.6000300000305
 31
0.0
  0
LINE
  5
489
330
1F
100
AcDbEntity
  8
LAY-1
  6
CONTINUOUS
 62
     1
100
AcDbLine
 10
446.79999999993
 20
165.5470520000304
 30
0.0
 11
452.2470219999299
 21
165.5470520000304
 31
0.0
  0
LINE
  5
48A
330
1F
100
AcDbEntity
  8
LAY-1
  6
CONTINUOUS
 62
     3
100
AcDbLine
 10
446.79999999993
 20
131.60003100003
 30
0.0
 11
446.79999999993
 21
113.60003100003
 31
0.0
  0
LINE
  5
48B
330
1F
100
AcDbEntity
  8
LAY-1
  6
CONTINUOUS
 62
     3
100
AcDbLine
 10
446.79999999993
 20
113.60003100003
 30
0.0
 11
445.66273199993
 21
111.63024300003
 31
0.0
  0
ARC
  5
48C
330
1F
100
AcDbEntity
  8
LAY-1
  6
CONTINUOUS
 62
     3
100
AcDbCircle
 10
433.00523099993
 20
122.60064100003
 30
0.0
 40
13.794775
100
AcDbArc
 50
336.5695410695425
 51
23.42574307644363
  0
ARC
  5
48D
330
1F
100
AcDbEntity
  8
LAY-1
  6
CONTINUOUS
 62
     3
100
AcDbCircle
 10
440.53013299993
 20
113.51415400003
 30
0.0
 40
6.271714
100
AcDbArc
 50
0.7846855482745037
 51
35.0556976977886
  0
LINE
  5
48E
330
1F
100
AcDbEntity
  8
LAY-1
  6
CONTINUOUS
 62
     3
100
AcDbLine
 10
446.79999999993
 20
131.60003100003
 30
0.0
 11
445.66273199993
 21
133.56981800003
 31
0.0
  0
ARC
  5
48F
330
1F
100
AcDbEntity
  8
LAY-1
  6
CONTINUOUS
 62
     3
100
AcDbCircle
 10
440.53013299993
 20
131.68590700003
 30
0.0
 40
6.271714
100
AcDbArc
 50
324.9443023022114
 51
359.2153144517255
  0
LINE
  5
490
330
1F
100
AcDbEntity
  8
LAY-1
  6
CONTINUOUS
 62
     3
100
AcDbLine
 10
436.79999999993
 20
111.63030400003
 30
0.0
 11
436.79999999993
 21
133.56969600003
 31
0.0
  0
LINE
  5
491
330
1F
100
AcDbEntity
  8
LAY-1
  6
CONTINUOUS
 62
     3
100
AcDbLine
 10
445.66273199993
 20
111.63027300003
 30
0.0
 11
436.79999999993
 21
111.63030400003
 31
0.0
  0
LINE
  5
492
330
1F
100
AcDbEntity
  8
LAY-1
  6
CONTINUOUS
 62
     3
100
AcDbLine
 10
445.66273199993
 20
117.11525900003
 30
0.0
 11
436.8000609999301
 21
117.11527400003
 31
0.0
  0
LINE
  5
493
330
1F
100
AcDbEntity
  8
LAY-1
  6
CONTINUOUS
 62
     3
100
AcDbLine
 10
445.66273199993
 20
128.08478700003
 30
0.0
 11
436.8000609999301
 21
128.0848020000299
 31
0.0
  0
LINE
  5
494
330
1F
100
AcDbEntity
  8
LAY-1
  6
CONTINUOUS
 62
     3
100
AcDbLine
 10
445.66273199993
 20
133.56978800003
 30
0.0
 11
436.79999999993
 21
133.5698030000299
 31
0.0
  0
LINE
  5
495
330
1F
100
AcDbEntity
  8
LAY-1
  6
CONTINUOUS
 62
     3
100
AcDbLine
 10
453.29999999993
 20
118.59995500003
 30
0.0
 11
453.29999999993
 21
126.59997000003
 31
0.0
  0
LINE
  5
496
330
1F
100
AcDbEntity
  8
LAY-1
  6
CONTINUOUS
 62
     3
100
AcDbLine
 10
451.29999999993
 20
128.5999700000299
 30
0.0
 11
453.29999999993
 21
126.59997000003
 31
0.0
  0
LINE
  5
497
330
1F
100
AcDbEntity
  8
LAY-1
  6
CONTINUOUS
 62
     3
100
AcDbLine
 10
451.29999999993
 20
116.59995500003
 30
0.0
 11
451.29999999993
 21
128.5999700000299
 31
0.0
  0
LINE
  5
498
330
1F
100
AcDbEntity
  8
LAY-1
  6
CONTINUOUS
 62
     3
100
AcDbLine
 10
451.29999999993
 20
116.59997000003
 30
0.0
 11
453.29999999993
 21
118.59997000003
 31
0.0
  0
LINE
  5
499
330
1F
100
AcDbEntity
  8
LAY-1
  6
CONTINUOUS
 62
     3
100
AcDbLine
 10
446.79999999993
 20
128.5999700000299
 30
0.0
 11
451.2999999999299
 21
128.5999700000299
 31
0.0
  0
LINE
  5
49A
330
1F
100
AcDbEntity
  8
LAY-1
  6
CONTINUOUS
 62
     1
100
AcDbLine
 10
446.79999999993
 20
127.65294800003
 30
0.0
 11
452.2470219999299
 21
127.65294800003
 31
0.0
  0
LINE
  5
49B
330
1F
100
AcDbEntity
  8
LAY-1
  6
CONTINUOUS
 62
     3
100
AcDbLine
 10
451.29999999993
 20
116.6000300000305
 30
0.0
 11
453.29999999993
 21
118.6000300000305
 31
0.0
  0
LINE
  5
49C
330
1F
100
AcDbEntity
  8
LAY-1
  6
CONTINUOUS
 62
     3
100
AcDbLine
 10
446.79999999993
 20
116.6000300000305
 30
0.0
 11
451.2999999999299
 21
116.6000300000305
 31
0.0
  0
LINE
  5
49D
330
1F
100
AcDbEntity
  8
LAY-1
  6
CONTINUOUS
 62
     1
100
AcDbLine
 10
446.79999999993
 20
117.5470520000304
 30
0.0
 11
452.2470219999299
 21
117.5470520000304
 31
0.0
  0
ARC
  5
49E
330
1F
100
AcDbEntity
  8
LAY-1
  6
CONTINUOUS
 62
     3
100
AcDbCircle
 10
279.2999999999984
 20
226.6000000000305
 30
0.0
 40
1.0
100
AcDbArc
 50
180.0
 51
270.0
  0
ARC
  5
49F
330
1F
100
AcDbEntity
  8
LAY-1
  6
CONTINUOUS
 62
     3
100
AcDbCircle
 10
293.9421356237715
 20
105.6000000000307
 30
0.0
 40
5.0
100
AcDbArc
 50
90.00000000000134
 51
135.0000000000015
  0
LINE
  5
4A0
330
1F
100
AcDbEntity
  8
LAY-1
  6
CONTINUOUS
 62
     3
100
AcDbLine
 10
284.8000000000699
 20
222.60003100003
 30
0.0
 11
284.8000000000699
 21
204.60003100003
 31
0.0
  0
LINE
  5
4A1
330
1F
100
AcDbEntity
  8
LAY-1
  6
CONTINUOUS
 62
     3
100
AcDbLine
 10
284.8000000000699
 20
204.60003100003
 30
0.0
 11
285.9372680000699
 21
202.63024300003
 31
0.0
  0
ARC
  5
4A2
330
1F
100
AcDbEntity
  8
LAY-1
  6
CONTINUOUS
 62
     3
100
AcDbCircle
 10
298.5947690000699
 20
213.60064100003
 30
0.0
 40
13.794775
100
AcDbArc
 50
156.5742569235564
 51
203.4304589304575
  0
ARC
  5
4A3
330
1F
100
AcDbEntity
  8
LAY-1
  6
CONTINUOUS
 62
     3
100
AcDbCircle
 10
291.0698670000699
 20
204.5141540000301
 30
0.0
 40
6.271714
100
AcDbArc
 50
144.9443023022112
 51
179.2153144517255
  0
LINE
  5
4A4
330
1F
100
AcDbEntity
  8
LAY-1
  6
CONTINUOUS
 62
     3
100
AcDbLine
 10
284.8000000000699
 20
222.60003100003
 30
0.0
 11
285.9372680000699
 21
224.56981800003
 31
0.0
  0
ARC
  5
4A5
330
1F
100
AcDbEntity
  8
LAY-1
  6
CONTINUOUS
 62
     3
100
AcDbCircle
 10
291.0698670000699
 20
222.68590700003
 30
0.0
 40
6.271714
100
AcDbArc
 50
180.7846855482746
 51
215.0556976977887
  0
LINE
  5
4A6
330
1F
100
AcDbEntity
  8
LAY-1
  6
CONTINUOUS
 62
     3
100
AcDbLine
 10
278.3000000000699
 20
209.59995500003
 30
0.0
 11
278.3000000000699
 21
217.59997000003
 31
0.0
  0
LINE
  5
4A7
330
1F
100
AcDbEntity
  8
LAY-1
  6
CONTINUOUS
 62
     3
100
AcDbLine
 10
280.3000000000699
 20
219.59997000003
 30
0.0
 11
278.3000000000699
 21
217.59997000003
 31
0.0
  0
LINE
  5
4A8
330
1F
100
AcDbEntity
  8
LAY-1
  6
CONTINUOUS
 62
     3
100
AcDbLine
 10
280.3000000000699
 20
207.59995500003
 30
0.0
 11
280.3000000000699
 21
219.59997000003
 31
0.0
  0
LINE
  5
4A9
330
1F
100
AcDbEntity
  8
LAY-1
  6
CONTINUOUS
 62
     3
100
AcDbLine
 10
280.3000000000699
 20
207.59997000003
 30
0.0
 11
278.3000000000699
 21
209.59997000003
 31
0.0
  0
LINE
  5
4AA
330
1F
100
AcDbEntity
  8
LAY-1
  6
CONTINUOUS
 62
     3
100
AcDbLine
 10
284.8000000000699
 20
219.59997000003
 30
0.0
 11
280.30000000007
 21
219.59997000003
 31
0.0
  0
LINE
  5
4AB
330
1F
100
AcDbEntity
  8
LAY-1
  6
CONTINUOUS
 62
     1
100
AcDbLine
 10
284.8000000000699
 20
218.65294800003
 30
0.0
 11
279.35297800007
 21
218.65294800003
 31
0.0
  0
LINE
  5
4AC
330
1F
100
AcDbEntity
  8
LAY-1
  6
CONTINUOUS
 62
     3
100
AcDbLine
 10
280.3000000000699
 20
207.6000300000305
 30
0.0
 11
278.3000000000699
 21
209.6000300000305
 31
0.0
  0
LINE
  5
4AD
330
1F
100
AcDbEntity
  8
LAY-1
  6
CONTINUOUS
 62
     3
100
AcDbLine
 10
284.8000000000699
 20
207.6000300000305
 30
0.0
 11
280.30000000007
 21
207.6000300000305
 31
0.0
  0
LINE
  5
4AE
330
1F
100
AcDbEntity
  8
LAY-1
  6
CONTINUOUS
 62
     1
100
AcDbLine
 10
284.8000000000699
 20
208.5470520000304
 30
0.0
 11
279.35297800007
 21
208.5470520000304
 31
0.0
  0
LINE
  5
4AF
330
1F
100
AcDbEntity
  8
LAY-1
  6
CONTINUOUS
 62
     3
100
AcDbLine
 10
284.8000000000699
 20
179.60003100003
 30
0.0
 11
284.8000000000699
 21
161.60003100003
 31
0.0
  0
ARC
  5
4B0
330
1F
100
AcDbEntity
  8
LAY-1
  6
CONTINUOUS
 62
     3
100
AcDbCircle
 10
298.5947690000699
 20
170.60064100003
 30
0.0
 40
13.794775
100
AcDbArc
 50
156.5742569235564
 51
203.4304589304575
  0
ARC
  5
4B1
330
1F
100
AcDbEntity
  8
LAY-1
  6
CONTINUOUS
 62
     3
100
AcDbCircle
 10
291.0698670000699
 20
161.5141540000301
 30
0.0
 40
6.271714
100
AcDbArc
 50
144.9443023022112
 51
179.2153144517255
  0
LINE
  5
4B2
330
1F
100
AcDbEntity
  8
LAY-1
  6
CONTINUOUS
 62
     3
100
AcDbLine
 10
284.8000000000699
 20
179.60003100003
 30
0.0
 11
285.9372680000699
 21
181.56981800003
 31
0.0
  0
ARC
  5
4B3
330
1F
100
AcDbEntity
  8
LAY-1
  6
CONTINUOUS
 62
     3
100
AcDbCircle
 10
291.0698670000699
 20
179.68590700003
 30
0.0
 40
6.271714
100
AcDbArc
 50
180.7846855482746
 51
215.0556976977887
  0
LINE
  5
4B4
330
1F
100
AcDbEntity
  8
LAY-1
  6
CONTINUOUS
 62
     3
100
AcDbLine
 10
285.9372680000699
 20
159.63027300003
 30
0.0
 11
294.8000000000699
 21
159.63030400003
 31
0.0
  0
LINE
  5
4B5
330
1F
100
AcDbEntity
  8
LAY-1
  6
CONTINUOUS
 62
     3
100
AcDbLine
 10
278.3000000000699
 20
166.59995500003
 30
0.0
 11
278.3000000000699
 21
174.59997000003
 31
0.0
  0
LINE
  5
4B6
330
1F
100
AcDbEntity
  8
LAY-1
  6
CONTINUOUS
 62
     3
100
AcDbLine
 10
280.3000000000699
 20
176.59997000003
 30
0.0
 11
278.3000000000699
 21
174.59997000003
 31
0.0
  0
LINE
  5
4B7
330
1F
100
AcDbEntity
  8
LAY-1
  6
CONTINUOUS
 62
     3
100
AcDbLine
 10
280.3000000000699
 20
164.59995500003
 30
0.0
 11
280.3000000000699
 21
176.59997000003
 31
0.0
  0
LINE
  5
4B8
330
1F
100
AcDbEntity
  8
LAY-1
  6
CONTINUOUS
 62
     3
100
AcDbLine
 10
280.3000000000699
 20
164.59997000003
 30
0.0
 11
278.3000000000699
 21
166.59997000003
 31
0.0
  0
LINE
  5
4B9
330
1F
100
AcDbEntity
  8
LAY-1
  6
CONTINUOUS
 62
     3
100
AcDbLine
 10
284.8000000000699
 20
176.59997000003
 30
0.0
 11
280.30000000007
 21
176.59997000003
 31
0.0
  0
LINE
  5
4BA
330
1F
100
AcDbEntity
  8
LAY-1
  6
CONTINUOUS
 62
     1
100
AcDbLine
 10
284.8000000000699
 20
175.65294800003
 30
0.0
 11
279.35297800007
 21
175.65294800003
 31
0.0
  0
LINE
  5
4BB
330
1F
100
AcDbEntity
  8
LAY-1
  6
CONTINUOUS
 62
     3
100
AcDbLine
 10
280.3000000000699
 20
164.6000300000305
 30
0.0
 11
278.3000000000699
 21
166.6000300000305
 31
0.0
  0
LINE
  5
4BC
330
1F
100
AcDbEntity
  8
LAY-1
  6
CONTINUOUS
 62
     3
100
AcDbLine
 10
284.8000000000699
 20
164.6000300000305
 30
0.0
 11
280.30000000007
 21
164.6000300000305
 31
0.0
  0
LINE
  5
4BD
330
1F
100
AcDbEntity
  8
LAY-1
  6
CONTINUOUS
 62
     1
100
AcDbLine
 10
284.8000000000699
 20
165.5470520000304
 30
0.0
 11
279.35297800007
 21
165.5470520000304
 31
0.0
  0
LINE
  5
4BE
330
1F
100
AcDbEntity
  8
LAY-1
  6
CONTINUOUS
 62
     3
100
AcDbLine
 10
284.8000000000699
 20
131.60003100003
 30
0.0
 11
284.8000000000699
 21
113.60003100003
 31
0.0
  0
LINE
  5
4BF
330
1F
100
AcDbEntity
  8
LAY-1
  6
CONTINUOUS
 62
     3
100
AcDbLine
 10
284.8000000000699
 20
113.60003100003
 30
0.0
 11
285.9372680000699
 21
111.63024300003
 31
0.0
  0
ARC
  5
4C0
330
1F
100
AcDbEntity
  8
LAY-1
  6
CONTINUOUS
 62
     3
100
AcDbCircle
 10
298.5947690000699
 20
122.60064100003
 30
0.0
 40
13.794775
100
AcDbArc
 50
156.5742569235564
 51
203.4304589304575
  0
ARC
  5
4C1
330
1F
100
AcDbEntity
  8
LAY-1
  6
CONTINUOUS
 62
     3
100
AcDbCircle
 10
291.0698670000699
 20
113.51415400003
 30
0.0
 40
6.271714
100
AcDbArc
 50
144.9443023022113
 51
179.2153144517255
  0
LINE
  5
4C2
330
1F
100
AcDbEntity
  8
LAY-1
  6
CONTINUOUS
 62
     3
100
AcDbLine
 10
284.8000000000699
 20
131.60003100003
 30
0.0
 11
285.9372680000699
 21
133.56981800003
 31
0.0
  0
ARC
  5
4C3
330
1F
100
AcDbEntity
  8
LAY-1
  6
CONTINUOUS
 62
     3
100
AcDbCircle
 10
291.0698670000699
 20
131.68590700003
 30
0.0
 40
6.271714
100
AcDbArc
 50
180.7846855482746
 51
215.0556976977887
  0
LINE
  5
4C4
330
1F
100
AcDbEntity
  8
LAY-1
  6
CONTINUOUS
 62
     3
100
AcDbLine
 10
294.8000000000699
 20
111.63030400003
 30
0.0
 11
294.8000000000699
 21
133.56969600003
 31
0.0
  0
LINE
  5
4C5
330
1F
100
AcDbEntity
  8
LAY-1
  6
CONTINUOUS
 62
     3
100
AcDbLine
 10
285.9372680000699
 20
111.63027300003
 30
0.0
 11
294.8000000000699
 21
111.63030400003
 31
0.0
  0
LINE
  5
4C6
330
1F
100
AcDbEntity
  8
LAY-1
  6
CONTINUOUS
 62
     3
100
AcDbLine
 10
285.9372680000699
 20
117.11525900003
 30
0.0
 11
294.7999390000699
 21
117.11527400003
 31
0.0
  0
LINE
  5
4C7
330
1F
100
AcDbEntity
  8
LAY-1
  6
CONTINUOUS
 62
     3
100
AcDbLine
 10
285.9372680000699
 20
128.08478700003
 30
0.0
 11
294.7999390000699
 21
128.0848020000299
 31
0.0
  0
LINE
  5
4C8
330
1F
100
AcDbEntity
  8
LAY-1
  6
CONTINUOUS
 62
     3
100
AcDbLine
 10
285.9372680000699
 20
133.56978800003
 30
0.0
 11
294.8000000000699
 21
133.5698030000299
 31
0.0
  0
LINE
  5
4C9
330
1F
100
AcDbEntity
  8
LAY-1
  6
CONTINUOUS
 62
     3
100
AcDbLine
 10
278.3000000000699
 20
118.59995500003
 30
0.0
 11
278.3000000000699
 21
126.59997000003
 31
0.0
  0
LINE
  5
4CA
330
1F
100
AcDbEntity
  8
LAY-1
  6
CONTINUOUS
 62
     3
100
AcDbLine
 10
280.3000000000699
 20
128.5999700000299
 30
0.0
 11
278.3000000000699
 21
126.59997000003
 31
0.0
  0
LINE
  5
4CB
330
1F
100
AcDbEntity
  8
LAY-1
  6
CONTINUOUS
 62
     3
100
AcDbLine
 10
280.3000000000699
 20
116.59995500003
 30
0.0
 11
280.3000000000699
 21
128.5999700000299
 31
0.0
  0
LINE
  5
4CC
330
1F
100
AcDbEntity
  8
LAY-1
  6
CONTINUOUS
 62
     3
100
AcDbLine
 10
280.3000000000699
 20
116.59997000003
 30
0.0
 11
278.3000000000699
 21
118.59997000003
 31
0.0
  0
LINE
  5
4CD
330
1F
100
AcDbEntity
  8
LAY-1
  6
CONTINUOUS
 62
     3
100
AcDbLine
 10
284.8000000000699
 20
128.5999700000299
 30
0.0
 11
280.30000000007
 21
128.5999700000299
 31
0.0
  0
LINE
  5
4CE
330
1F
100
AcDbEntity
  8
LAY-1
  6
CONTINUOUS
 62
     1
100
AcDbLine
 10
284.8000000000699
 20
127.65294800003
 30
0.0
 11
279.35297800007
 21
127.65294800003
 31
0.0
  0
LINE
  5
4CF
330
1F
100
AcDbEntity
  8
LAY-1
  6
CONTINUOUS
 62
     3
100
AcDbLine
 10
280.3000000000699
 20
116.6000300000305
 30
0.0
 11
278.3000000000699
 21
118.6000300000305
 31
0.0
  0
LINE
  5
4D0
330
1F
100
AcDbEntity
  8
LAY-1
  6
CONTINUOUS
 62
     3
100
AcDbLine
 10
284.8000000000699
 20
116.6000300000305
 30
0.0
 11
280.30000000007
 21
116.6000300000305
 31
0.0
  0
LINE
  5
4D1
330
1F
100
AcDbEntity
  8
LAY-1
  6
CONTINUOUS
 62
     1
100
AcDbLine
 10
284.8000000000699
 20
117.5470520000304
 30
0.0
 11
279.35297800007
 21
117.5470520000304
 31
0.0
  0
ARC
  5
4D2
330
1F
100
AcDbEntity
  8
LAY-1
  6
CONTINUOUS
 62
     3
100
AcDbCircle
 10
325.3648673393
 20
107.60000000005
 30
0.0
 40
3.0
100
AcDbArc
 50
0.0
 51
90.00000000000001
  0
LINE
  5
4D3
330
1F
100
AcDbEntity
  8
LAY-1
  6
CONTINUOUS
 62
     1
100
AcDbLine
 10
328.3648673393
 20
107.60000000005
 30
0.0
 11
328.3648673393
 21
110.6
 31
0.0
  0
LINE
  5
4D4
330
1F
100
AcDbEntity
  8
LAY-1
  6
CONTINUOUS
 62
     1
100
AcDbLine
 10
403.2351326606999
 20
107.6000000000499
 30
0.0
 11
403.2351326606999
 21
110.6
 31
0.0
  0
LINE
  5
4D5
330
1F
100
AcDbEntity
  8
LAY-1
  6
CONTINUOUS
 62
     3
100
AcDbLine
 10
328.3648673393
 20
95.60000000000036
 30
0.0
 11
328.3648673393
 21
110.6
 31
0.0
  0
LINE
  5
4D6
330
1F
100
AcDbEntity
  8
LAY-1
  6
CONTINUOUS
 62
     3
100
AcDbLine
 10
403.2351326606999
 20
95.60000000000036
 30
0.0
 11
403.2351326606999
 21
110.3816952855114
 31
0.0
  0
ARC
  5
4D7
330
1F
100
AcDbEntity
  8
LAY-1
  6
CONTINUOUS
 62
     3
100
AcDbCircle
 10
406.2351326606999
 20
107.6000000000499
 30
0.0
 40
3.0
100
AcDbArc
 50
90.00000000000001
 51
180.0
  0
LINE
  5
4D8
330
1F
100
AcDbEntity
  8
LAY-1
  6
CONTINUOUS
 62
     3
100
AcDbLine
 10
404.1291184836712
 20
120.6
 30
0.0
 11
423.3
 21
120.6
 31
0.0
  0
LINE
  5
4D9
330
1F
100
AcDbEntity
  8
LAY-1
  6
CONTINUOUS
 62
     3
100
AcDbLine
 10
327.4708815163288
 20
120.6
 30
0.0
 11
308.3
 21
120.6
 31
0.0
  0
LINE
  5
4DA
330
1F
100
AcDbEntity
  8
LAY-1
  6
EXLTYPE2
 62
     1
100
AcDbLine
 10
587.0
 20
643.9000000000001
 30
0.0
 11
141.0
 21
643.8999999999996
 31
0.0
  0
LINE
  5
4DB
330
1F
100
AcDbEntity
  8
LAY-1
  6
CONTINUOUS
 62
     3
100
AcDbLine
 10
834.5999999999999
 20
81.5999999999998
 30
0.0
 11
834.5999999999999
 21
97.59999999999991
 31
0.0
  0
LINE
  5
4DC
330
1F
100
AcDbEntity
  8
LAY-1
  6
CONTINUOUS
 62
     3
100
AcDbLine
 10
834.5999999999999
 20
65.5999999999998
 30
0.0
 11
834.5999999999999
 21
81.5999999999998
 31
0.0
  0
LINE
  5
4DD
330
1F
100
AcDbEntity
  8
LAY-1
  6
CONTINUOUS
 62
     3
100
AcDbLine
 10
834.5999999999999
 20
89.92961249999968
 30
0.0
 11
838.5749999999999
 21
90.06842255872937
 31
0.0
  0
LINE
  5
4DE
330
1F
100
AcDbEntity
  8
LAY-1
  6
CONTINUOUS
 62
     1
100
AcDbLine
 10
838.5749999999999
 20
89.14406946780184
 30
0.0
 11
834.6
 21
89.00525940907215
 31
0.0
  0
LINE
  5
4DF
330
1F
100
AcDbEntity
  8
LAY-1
  6
CONTINUOUS
 62
     1
100
AcDbLine
 10
838.5749999999999
 20
74.05593053219832
 30
0.0
 11
834.6
 21
74.194740590928
 31
0.0
  0
LINE
  5
4E0
330
1F
100
AcDbEntity
  8
LAY-1
  6
CONTINUOUS
 62
     3
100
AcDbLine
 10
834.6
 20
73.27038750000045
 30
0.0
 11
838.5749999999999
 21
73.13157744127079
 31
0.0
  0
LINE
  5
4E1
330
1F
100
AcDbEntity
  8
LAY-1
  6
EXLTYPE2
 62
     1
100
AcDbLine
 10
848.5999999999999
 20
81.5999999999998
 30
0.0
 11
823.0
 21
81.5999999999998
 31
0.0
  0
LINE
  5
4E2
330
1F
100
AcDbEntity
  8
LAY-1
  6
CONTINUOUS
 62
     3
100
AcDbLine
 10
284.8000000000699
 20
161.60003100003
 30
0.0
 11
285.9372506794389
 21
159.6302729999694
 31
0.0
  0
LINE
  5
4E3
330
1F
100
AcDbEntity
  8
LAY-1
  6
CONTINUOUS
 62
     3
100
AcDbLine
 10
306.7999999999993
 20
134.6000000000309
 30
0.0
 11
294.8000000000885
 21
134.6000000000307
 31
0.0
  0
LINE
  5
4E4
330
1F
100
AcDbEntity
  8
LAY-1
  6
CONTINUOUS
 62
     3
100
AcDbLine
 10
424.8000000000006
 20
134.6000000000309
 30
0.0
 11
436.7999999999114
 21
134.6000000000309
 31
0.0
  0
CIRCLE
  5
4E5
330
1F
100
AcDbEntity
  8
LAY-1
  6
CONTINUOUS
 62
     3
100
AcDbCircle
 10
365.8
 20
195.6
 30
0.0
 40
25.0
  0
LINE
  5
4E6
330
1F
100
AcDbEntity
  8
LAY-1
  6
CONTINUOUS
 62
     3
100
AcDbLine
 10
310.8
 20
250.2008241696039
 30
0.0
 11
310.8
 21
260.6
 31
0.0
  0
ARC
  5
4E7
330
1F
100
AcDbEntity
  8
LAY-1
  6
CONTINUOUS
 62
     3
100
AcDbCircle
 10
709.1000000000001
 20
232.6
 30
0.0
 40
2.0
100
AcDbArc
 50
180.0
 51
270.0
  0
LINE
  5
4E8
330
1F
100
AcDbEntity
  8
LAY-1
  6
CONTINUOUS
 62
     3
100
AcDbLine
 10
710.1000000000001
 20
230.6
 30
0.0
 11
709.1000000000001
 21
230.6
 31
0.0
  0
ARC
  5
4E9
330
1F
100
AcDbEntity
  8
LAY-1
  6
CONTINUOUS
 62
     3
100
AcDbCircle
 10
710.1000000000001
 20
228.6
 30
0.0
 40
2.0
100
AcDbArc
 50
0.0
 51
90.00000000000001
  0
LINE
  5
4EA
330
1F
100
AcDbEntity
  8
LAY-1
  6
CONTINUOUS
 62
     3
100
AcDbLine
 10
822.1
 20
240.6
 30
0.0
 11
707.1000000000001
 21
240.6
 31
0.0
  0
ARC
  5
4EB
330
1F
100
AcDbEntity
  8
LAY-1
  6
CONTINUOUS
 62
     3
100
AcDbCircle
 10
802.1
 20
55.59999999999999
 30
0.0
 40
15.0
100
AcDbArc
 50
270.0
 51
0.0
  0
ARC
  5
4EC
330
1F
100
AcDbEntity
  8
LAY-1
  6
CONTINUOUS
 62
     3
100
AcDbCircle
 10
820.1
 20
232.6
 30
0.0
 40
2.0
100
AcDbArc
 50
270.0
 51
0.0
  0
ARC
  5
4ED
330
1F
100
AcDbEntity
  8
LAY-1
  6
CONTINUOUS
 62
     3
100
AcDbCircle
 10
820.1
 20
227.6
 30
0.0
 40
3.0
100
AcDbArc
 50
90.00000000000001
 51
180.0
  0
ARC
  5
4EE
330
1F
100
AcDbEntity
  8
LAY-1
  6
CONTINUOUS
 62
     3
100
AcDbCircle
 10
706.1000000000001
 20
238.6
 30
0.0
 40
1.0
100
AcDbArc
 50
270.0
 51
0.0
  0
LINE
  5
4EF
330
1F
100
AcDbEntity
  8
LAY-1
  6
CONTINUOUS
 62
     3
100
AcDbLine
 10
695.6
 20
237.6
 30
0.0
 11
706.1000000000001
 21
237.6
 31
0.0
  0
ARC
  5
4F0
330
1F
100
AcDbEntity
  8
LAY-1
  6
CONTINUOUS
 62
     3
100
AcDbCircle
 10
695.6
 20
236.6
 30
0.0
 40
1.0
100
AcDbArc
 50
90.00000000000001
 51
180.0
  0
LINE
  5
4F1
330
1F
100
AcDbEntity
  8
LAY-1
  6
CONTINUOUS
 62
     3
100
AcDbLine
 10
695.6
 20
226.6
 30
0.0
 11
712.1000000000001
 21
226.6
 31
0.0
  0
ARC
  5
4F2
330
1F
100
AcDbEntity
  8
LAY-1
  6
CONTINUOUS
 62
     3
100
AcDbCircle
 10
695.6
 20
227.6
 30
0.0
 40
1.0
100
AcDbArc
 50
180.0
 51
270.0
  0
LINE
  5
4F3
330
1F
100
AcDbEntity
  8
LAY-1
  6
CONTINUOUS
 62
     3
100
AcDbLine
 10
707.1000000000001
 20
232.6
 30
0.0
 11
707.1000000000001
 21
240.6
 31
0.0
  0
LINE
  5
4F4
330
1F
100
AcDbEntity
  8
LAY-1
  6
CONTINUOUS
 62
     3
100
AcDbLine
 10
822.1
 20
232.6
 30
0.0
 11
822.1
 21
240.6
 31
0.0
  0
LINE
  5
4F5
330
1F
100
AcDbEntity
  8
LAY-1
  6
CONTINUOUS
 62
     3
100
AcDbLine
 10
712.1000000000001
 20
225.3366945943099
 30
0.0
 11
712.1000000000001
 21
228.6
 31
0.0
  0
LINE
  5
4F6
330
1F
100
AcDbEntity
  8
LAY-1
  6
CONTINUOUS
 62
     3
100
AcDbLine
 10
817.1
 20
225.3366945943099
 30
0.0
 11
817.1
 21
228.6
 31
0.0
  0
LINE
  5
4F7
330
1F
100
AcDbEntity
  8
LAY-1
  6
CONTINUOUS
 62
     3
100
AcDbLine
 10
817.1
 20
225.3366945943099
 30
0.0
 11
817.1
 21
228.6
 31
0.0
  0
ARC
  5
4F8
330
1F
100
AcDbEntity
  8
LAY-1
  6
CONTINUOUS
 62
     3
100
AcDbCircle
 10
833.6
 20
236.6
 30
0.0
 40
1.0
100
AcDbArc
 50
0.0
 51
90.00000000000001
  0
LINE
  5
4F9
330
1F
100
AcDbEntity
  8
LAY-1
  6
CONTINUOUS
 62
     3
100
AcDbLine
 10
833.6
 20
237.6
 30
0.0
 11
823.1
 21
237.6
 31
0.0
  0
ARC
  5
4FA
330
1F
100
AcDbEntity
  8
LAY-1
  6
CONTINUOUS
 62
     3
100
AcDbCircle
 10
823.1
 20
238.6
 30
0.0
 40
1.0
100
AcDbArc
 50
180.0
 51
270.0
  0
LINE
  5
4FB
330
1F
100
AcDbEntity
  8
LAY-1
  6
CONTINUOUS
 62
     3
100
AcDbLine
 10
712.1
 20
55.59999999999999
 30
0.0
 11
712.1
 21
113.2325030024022
 31
0.0
  0
ARC
  5
4FC
330
1F
100
AcDbEntity
  8
LAY-1
  6
CONTINUOUS
 62
     3
100
AcDbCircle
 10
853.6
 20
53.59999999999999
 30
0.0
 40
1.0
100
AcDbArc
 50
0.0
 51
90.00000000000001
  0
LINE
  5
4FD
330
1F
100
AcDbEntity
  8
LAY-1
  6
CONTINUOUS
 62
     3
100
AcDbLine
 10
854.6
 20
41.59999999999999
 30
0.0
 11
854.6
 21
53.59999999999999
 31
0.0
  0
ARC
  5
4FE
330
1F
100
AcDbEntity
  8
LAY-1
  6
CONTINUOUS
 62
     3
100
AcDbCircle
 10
853.6
 20
41.59999999999999
 30
0.0
 40
1.0
100
AcDbArc
 50
270.0
 51
0.0
  0
LINE
  5
4FF
330
1F
100
AcDbEntity
  8
LAY-1
  6
EXLTYPE2
 62
     1
100
AcDbLine
 10
839.6
 20
28.80000000000027
 30
0.0
 11
839.6
 21
64.80000000000027
 31
0.0
  0
LINE
  5
500
330
1F
100
AcDbEntity
  8
LAY-1
  6
CONTINUOUS
 62
     3
100
AcDbLine
 10
825.1
 20
54.59999999999999
 30
0.0
 11
853.6
 21
54.59999999999999
 31
0.0
  0
ARC
  5
501
330
1F
100
AcDbEntity
  8
LAY-1
  6
CONTINUOUS
 62
     3
100
AcDbCircle
 10
825.1
 20
62.59999999999999
 30
0.0
 40
8.0
100
AcDbArc
 50
180.0
 51
270.0
  0
LINE
  5
502
330
1F
100
AcDbEntity
  8
LAY-1
  6
CONTINUOUS
 62
     3
100
AcDbLine
 10
817.1
 20
55.59999999999999
 30
0.0
 11
817.1
 21
113.2325030024022
 31
0.0
  0
LINE
  5
503
330
1F
100
AcDbEntity
  8
LAY-1
  6
CONTINUOUS
 62
     3
100
AcDbLine
 10
817.1
 20
113.2325030024
 30
0.0
 11
817.1
 21
159.6912878853642
 31
0.0
  0
LINE
  5
504
330
1F
100
AcDbEntity
  8
LAY-1
  6
CONTINUOUS
 62
     3
100
AcDbLine
 10
817.1
 20
131.9674969975977
 30
0.0
 11
817.1
 21
181.5087121146356
 31
0.0
  0
LINE
  5
505
330
1F
100
AcDbEntity
  8
LAY-1
  6
CONTINUOUS
 62
     3
100
AcDbLine
 10
712.1000000000001
 20
113.2325030024
 30
0.0
 11
712.1000000000001
 21
181.5087121146399
 31
0.0
  0
LINE
  5
506
330
1F
100
AcDbEntity
  8
LAY-1
  6
CONTINUOUS
 62
     3
100
AcDbLine
 10
817.1
 20
181.5087121146399
 30
0.0
 11
817.1
 21
199.1999999999999
 31
0.0
  0
LINE
  5
507
330
1F
100
AcDbEntity
  8
LAY-1
  6
CONTINUOUS
 62
     3
100
AcDbLine
 10
710.6839757739203
 20
210.290311680341
 30
0.0
 11
696.8235428646916
 21
214.0042034851145
 31
0.0
  0
ARC
  5
508
330
1F
100
AcDbEntity
  8
LAY-1
  6
CONTINUOUS
 62
     3
100
AcDbCircle
 10
710.1895026825459
 20
208.4449129803557
 30
0.0
 40
1.9104973174542
100
AcDbArc
 50
0.0
 51
75.00000000000085
  0
LINE
  5
509
330
1F
100
AcDbEntity
  8
LAY-1
  6
CONTINUOUS
 62
     3
100
AcDbLine
 10
712.1000000000001
 20
181.5087121146399
 30
0.0
 11
712.1000000000001
 21
225.3366945943099
 31
0.0
  0
LINE
  5
50A
330
1F
100
AcDbEntity
  8
LAY-1
  6
CONTINUOUS
 62
     3
100
AcDbLine
 10
817.1
 20
181.5087121146399
 30
0.0
 11
817.1
 21
225.1999999999999
 31
0.0
  0
LINE
  5
50B
330
1F
100
AcDbEntity
  8
LAY-1
  6
CONTINUOUS
 62
     3
100
AcDbLine
 10
853.6
 20
40.59999999999977
 30
0.0
 11
727.0999999999998
 21
40.59999999999977
 31
0.0
  0
LINE
  5
50C
330
1F
100
AcDbEntity
  8
LAY-1
  6
CONTINUOUS
 62
     3
100
AcDbLine
 10
675.6000000000001
 20
40.59999999999931
 30
0.0
 11
802.1000000000003
 21
40.59999999999999
 31
0.0
  0
CIRCLE
  5
50D
330
1F
100
AcDbEntity
  8
LAY-1
  6
CONTINUOUS
 62
     3
100
AcDbCircle
 10
764.6
 20
56.6
 30
0.0
 40
16.000000000001
  0
CIRCLE
  5
50E
330
1F
100
AcDbEntity
  8
LAY-1
  6
CONTINUOUS
 62
     3
100
AcDbCircle
 10
764.6
 20
56.6
 30
0.0
 40
10.652103847458
  0
CIRCLE
  5
50F
330
1F
100
AcDbEntity
  8
LAY-1
  6
CONTINUOUS
 62
     1
100
AcDbCircle
 10
764.6
 20
56.6
 30
0.0
 40
9.489395556983006
  0
LINE
  5
510
330
1F
100
AcDbEntity
  8
LAY-1
  6
CONTINUOUS
 62
     3
100
AcDbLine
 10
764.6
 20
66.089395556983
 30
0.0
 11
755.11060444302
 21
56.6
 31
0.0
  0
LINE
  5
511
330
1F
100
AcDbEntity
  8
LAY-1
  6
CONTINUOUS
 62
     3
100
AcDbLine
 10
755.11060444302
 20
56.599999999997
 30
0.0
 11
764.6
 21
47.110604443017
 31
0.0
  0
LINE
  5
512
330
1F
100
AcDbEntity
  8
LAY-1
  6
CONTINUOUS
 62
     3
100
AcDbLine
 10
764.6
 20
47.110604443017
 30
0.0
 11
774.08939555698
 21
56.6
 31
0.0
  0
LINE
  5
513
330
1F
100
AcDbEntity
  8
LAY-1
  6
CONTINUOUS
 62
     3
100
AcDbLine
 10
774.08939555698
 20
56.6
 30
0.0
 11
764.6
 21
66.089395556983
 31
0.0
  0
LINE
  5
514
330
1F
100
AcDbEntity
  8
LAY-1
  6
CONTINUOUS
 62
     3
100
AcDbLine
 10
825.1
 20
54.60000000000002
 30
0.0
 11
853.4999999999999
 21
54.60000000000002
 31
0.0
  0
ARC
  5
515
330
1F
100
AcDbEntity
  8
LAY-1
  6
CONTINUOUS
 62
     3
100
AcDbCircle
 10
727.1000000000001
 20
55.59999999999982
 30
0.0
 40
15.0
100
AcDbArc
 50
180.0000000000002
 51
270.0
  0
ARC
  5
516
330
1F
100
AcDbEntity
  8
LAY-1
  6
CONTINUOUS
 62
     3
100
AcDbCircle
 10
675.6000000000001
 20
53.5999999999996
 30
0.0
 40
1.0
100
AcDbArc
 50
90.00000000000001
 51
180.0
  0
LINE
  5
517
330
1F
100
AcDbEntity
  8
LAY-1
  6
CONTINUOUS
 62
     3
100
AcDbLine
 10
674.6000000000001
 20
41.5999999999996
 30
0.0
 11
674.6000000000001
 21
53.5999999999996
 31
0.0
  0
ARC
  5
518
330
1F
100
AcDbEntity
  8
LAY-1
  6
CONTINUOUS
 62
     3
100
AcDbCircle
 10
675.6000000000001
 20
41.5999999999996
 30
0.0
 40
1.0
100
AcDbArc
 50
180.0
 51
270.0
  0
LINE
  5
519
330
1F
100
AcDbEntity
  8
LAY-1
  6
EXLTYPE2
 62
     1
100
AcDbLine
 10
689.6000000000003
 20
28.79999999999993
 30
0.0
 11
689.6000000000001
 21
64.79999999999993
 31
0.0
  0
LINE
  5
51A
330
1F
100
AcDbEntity
  8
LAY-1
  6
CONTINUOUS
 62
     3
100
AcDbLine
 10
704.1000000000001
 20
54.59999999999972
 30
0.0
 11
675.6000000000001
 21
54.5999999999996
 31
0.0
  0
ARC
  5
51B
330
1F
100
AcDbEntity
  8
LAY-1
  6
CONTINUOUS
 62
     3
100
AcDbCircle
 10
704.1000000000001
 20
62.59999999999972
 30
0.0
 40
8.0
100
AcDbArc
 50
270.0
 51
0.0000000000002292
  0
LINE
  5
51C
330
1F
100
AcDbEntity
  8
LAY-1
  6
CONTINUOUS
 62
     3
100
AcDbLine
 10
704.1000000000001
 20
54.59999999999975
 30
0.0
 11
675.7000000000003
 21
54.59999999999962
 31
0.0
  0
ARC
  5
51D
330
1F
100
AcDbEntity
  8
LAY-1
  6
CONTINUOUS
 62
     3
100
AcDbCircle
 10
169.2999999999998
 20
249.6000000000301
 30
0.0
 40
1.0
100
AcDbArc
 50
90.00000000000001
 51
180.0
  0
LINE
  5
51E
330
1F
100
AcDbEntity
  8
LAY-1
  6
CONTINUOUS
 62
     3
100
AcDbLine
 10
168.2999999999998
 20
240.6000000000301
 30
0.0
 11
168.2999999999998
 21
249.6000000000301
 31
0.0
  0
ARC
  5
51F
330
1F
100
AcDbEntity
  8
LAY-1
  6
CONTINUOUS
 62
     3
100
AcDbCircle
 10
282.3000000000005
 20
249.6000000000301
 30
0.0
 40
1.0
100
AcDbArc
 50
0.0
 51
90.00000000000001
  0
LINE
  5
520
330
1F
100
AcDbEntity
  8
LAY-1
  6
CONTINUOUS
 62
     3
100
AcDbLine
 10
283.3000000000005
 20
240.6000000000301
 30
0.0
 11
283.3000000000005
 21
249.6000000000301
 31
0.0
  0
LINE
  5
521
330
1F
100
AcDbEntity
  8
LAY-1
  6
CONTINUOUS
 62
     3
100
AcDbLine
 10
283.3000000000003
 20
240.6000000000301
 30
0.0
 11
275.8000000000003
 21
240.6000000000301
 31
0.0
  0
LINE
  5
522
330
1F
100
AcDbEntity
  8
LAY-1
  6
CONTINUOUS
 62
     3
100
AcDbLine
 10
490.8000000000002
 20
240.60000000003
 30
0.0
 11
448.2999999999997
 21
240.60000000003
 31
0.0
  0
ARC
  5
523
330
1F
100
AcDbEntity
  8
LAY-1
  6
CONTINUOUS
 62
     3
100
AcDbCircle
 10
562.3000000000001
 20
249.6000000000301
 30
0.0
 40
1.0
100
AcDbArc
 50
0.0
 51
90.00000000000001
  0
LINE
  5
524
330
1F
100
AcDbEntity
  8
LAY-1
  6
CONTINUOUS
 62
     3
100
AcDbLine
 10
563.3000000000001
 20
240.6000000000301
 30
0.0
 11
563.3000000000001
 21
249.6000000000301
 31
0.0
  0
ARC
  5
525
330
1F
100
AcDbEntity
  8
LAY-1
  6
CONTINUOUS
 62
     3
100
AcDbCircle
 10
449.2999999999994
 20
249.6000000000301
 30
0.0
 40
1.0
100
AcDbArc
 50
90.00000000000001
 51
180.0
  0
LINE
  5
526
330
1F
100
AcDbEntity
  8
LAY-1
  6
CONTINUOUS
 62
     3
100
AcDbLine
 10
448.2999999999994
 20
240.6000000000301
 30
0.0
 11
448.2999999999994
 21
249.6000000000301
 31
0.0
  0
LINE
  5
527
330
1F
100
AcDbEntity
  8
LAY-1
  6
CONTINUOUS
 62
     3
100
AcDbLine
 10
448.2999999999996
 20
240.6000000000301
 30
0.0
 11
455.7999999999996
 21
240.6000000000301
 31
0.0
  0
LINE
  5
528
330
1F
100
AcDbEntity
  8
LAY-1
  6
CONTINUOUS
 62
     3
100
AcDbLine
 10
490.8000000000002
 20
250.6000000000303
 30
0.0
 11
449.2999999999998
 21
250.6000000000303
 31
0.0
  0
LINE
  5
529
330
1F
100
AcDbEntity
  8
LAY-1
  6
CONTINUOUS
 62
     3
100
AcDbLine
 10
520.8
 20
250.6000000000301
 30
0.0
 11
562.2999999999998
 21
250.6000000000301
 31
0.0
  0
LINE
  5
52A
330
1F
100
AcDbEntity
  8
LAY-1
  6
CONTINUOUS
 62
     3
100
AcDbLine
 10
563.2999999999998
 20
240.6000000000301
 30
0.0
 11
520.8
 21
240.6000000000301
 31
0.0
  0
LINE
  5
52B
330
1F
100
AcDbEntity
  8
LAY-1
  6
CONTINUOUS
 62
     3
100
AcDbLine
 10
563.2999999999997
 20
240.60000000003
 30
0.0
 11
520.7999999999997
 21
240.6000000000303
 31
0.0
  0
LINE
  5
52C
330
1F
100
AcDbEntity
  8
LAY-1
  6
CONTINUOUS
 62
     3
100
AcDbLine
 10
210.8
 20
250.6000000000301
 30
0.0
 11
169.3
 21
250.6000000000301
 31
0.0
  0
LINE
  5
52D
330
1F
100
AcDbEntity
  8
LAY-1
  6
CONTINUOUS
 62
     3
100
AcDbLine
 10
240.7999999999997
 20
250.6000000000303
 30
0.0
 11
282.3000000000001
 21
250.6000000000303
 31
0.0
  0
LINE
  5
52E
330
1F
100
AcDbEntity
  8
LAY-1
  6
CONTINUOUS
 62
     3
100
AcDbLine
 10
168.3000000000002
 20
240.60000000003
 30
0.0
 11
210.8
 21
240.6000000000303
 31
0.0
  0
LINE
  5
52F
330
1F
100
AcDbEntity
  8
LAY-1
  6
CONTINUOUS
 62
     3
100
AcDbLine
 10
168.3
 20
240.6000000000301
 30
0.0
 11
210.8
 21
240.6000000000301
 31
0.0
  0
ARC
  5
530
330
1F
100
AcDbEntity
  8
LAY-1
  6
CONTINUOUS
 62
     3
100
AcDbCircle
 10
744.6000000000001
 20
290.6000000000301
 30
0.0
 40
1.0
100
AcDbArc
 50
90.00000000000001
 51
180.0
  0
ARC
  5
531
330
1F
100
AcDbEntity
  8
LAY-1
  6
CONTINUOUS
 62
     3
100
AcDbCircle
 10
744.6000000000001
 20
262.6000000000301
 30
0.0
 40
1.0
100
AcDbArc
 50
180.0
 51
270.0
  0
LINE
  5
532
330
1F
100
AcDbEntity
  8
LAY-1
  6
CONTINUOUS
 62
     3
100
AcDbLine
 10
784.5999999999999
 20
291.60000000003
 30
0.0
 11
764.5999999999999
 21
291.60000000003
 31
0.0
  0
LINE
  5
533
330
1F
100
AcDbEntity
  8
LAY-1
  6
CONTINUOUS
 62
     3
100
AcDbLine
 10
744.6000000000001
 20
291.6000000000301
 30
0.0
 11
764.6000000000001
 21
291.60000000003
 31
0.0
  0
LINE
  5
534
330
1F
100
AcDbEntity
  8
LAY-1
  6
CONTINUOUS
 62
     3
100
AcDbLine
 10
743.6000000000001
 20
290.6000000000301
 30
0.0
 11
743.6000000000001
 21
285.1246785390914
 31
0.0
  0
LINE
  5
535
330
1F
100
AcDbEntity
  8
LAY-1
  6
CONTINUOUS
 62
     3
100
AcDbLine
 10
743.6000000000001
 20
285.12467853909
 30
0.0
 11
743.6000000000001
 21
262.6000000000301
 31
0.0
  0
LINE
  5
536
330
1F
100
AcDbEntity
  8
LAY-1
  6
CONTINUOUS
 62
     3
100
AcDbLine
 10
780.1885697
 20
307.6
 30
0.0
 11
749.0115131
 21
307.6
 31
0.0
  0
ARC
  5
537
330
1F
100
AcDbEntity
  8
LAY-1
  6
CONTINUOUS
 62
     3
100
AcDbCircle
 10
774.3200027
 20
306.8799973000001
 30
0.0
 40
0.72
100
AcDbArc
 50
90.00001984784286
 51
180.0000011238745
  0
ARC
  5
538
330
1F
100
AcDbEntity
  8
LAY-1
  6
CONTINUOUS
 62
     3
100
AcDbCircle
 10
754.8799973
 20
306.8799973000001
 30
0.0
 40
0.72
100
AcDbArc
 50
359.9999988761255
 51
89.99998015215712
  0
LINE
  5
539
330
1F
100
AcDbEntity
  8
LAY-1
  6
CONTINUOUS
 62
     3
100
AcDbLine
 10
777.6500000000001
 20
319.2998767
 30
0.0
 11
751.5500000000002
 21
319.2998767
 31
0.0
  0
LINE
  5
53A
330
1F
100
AcDbEntity
  8
LAY-1
  6
CONTINUOUS
 62
     3
100
AcDbLine
 10
780.1886111000001
 20
317.8342177000001
 30
0.0
 11
777.6500000000001
 21
319.2998767
 31
0.0
  0
ARC
  5
53B
330
1F
100
AcDbEntity
  8
LAY-1
  6
CONTINUOUS
 62
     3
100
AcDbCircle
 10
764.6000414
 20
297.8434744
 30
0.0
 40
21.456522
100
AcDbArc
 50
68.69991274339786
 51
111.3002988396264
  0
ARC
  5
53C
330
1F
100
AcDbEntity
  8
LAY-1
  6
CONTINUOUS
 62
     3
100
AcDbCircle
 10
777.7284836000001
 20
308.8604887
 30
0.0
 40
10.4396202
100
AcDbArc
 50
90.43076951822216
 51
120.7289496120786
  0
LINE
  5
53D
330
1F
100
AcDbEntity
  8
LAY-1
  6
CONTINUOUS
 62
     3
100
AcDbLine
 10
749.0113898000002
 20
317.8342177000001
 30
0.0
 11
751.5500000000002
 21
319.2998767
 31
0.0
  0
ARC
  5
53E
330
1F
100
AcDbEntity
  8
LAY-1
  6
CONTINUOUS
 62
     3
100
AcDbCircle
 10
751.4715164000002
 20
308.8604887000001
 30
0.0
 40
10.4396202
100
AcDbArc
 50
59.27105038792131
 51
89.56928777755735
  0
LINE
  5
53F
330
1F
100
AcDbEntity
  8
LAY-1
  6
CONTINUOUS
 62
     3
100
AcDbLine
 10
780.1885697
 20
307.6
 30
0.0
 11
780.1886111000001
 21
317.8342177000001
 31
0.0
  0
LINE
  5
540
330
1F
100
AcDbEntity
  8
LAY-1
  6
CONTINUOUS
 62
     3
100
AcDbLine
 10
772.3940999000001
 20
307.6000819000001
 30
0.0
 11
772.3941413000002
 21
317.8342177000001
 31
0.0
  0
LINE
  5
541
330
1F
100
AcDbEntity
  8
LAY-1
  6
CONTINUOUS
 62
     3
100
AcDbLine
 10
756.8058182
 20
307.6000819000001
 30
0.0
 11
756.8058596000001
 21
317.8342177000001
 31
0.0
  0
LINE
  5
542
330
1F
100
AcDbEntity
  8
LAY-1
  6
CONTINUOUS
 62
     3
100
AcDbLine
 10
749.0113484000001
 20
307.6
 30
0.0
 11
749.0113898000002
 21
317.8342177000001
 31
0.0
  0
ARC
  5
543
330
1F
100
AcDbEntity
  8
LAY-1
  6
CONTINUOUS
 62
     3
100
AcDbCircle
 10
784.5999999999999
 20
290.6000000000301
 30
0.0
 40
1.0
100
AcDbArc
 50
0.0
 51
90.00000000000001
  0
ARC
  5
544
330
1F
100
AcDbEntity
  8
LAY-1
  6
CONTINUOUS
 62
     3
100
AcDbCircle
 10
784.5999999999999
 20
262.6000000000301
 30
0.0
 40
1.0
100
AcDbArc
 50
270.0
 51
0.0
  0
LINE
  5
545
330
1F
100
AcDbEntity
  8
LAY-1
  6
CONTINUOUS
 62
     3
100
AcDbLine
 10
785.5999999999999
 20
290.6000000000301
 30
0.0
 11
785.5999999999999
 21
285.1246785390913
 31
0.0
  0
LINE
  5
546
330
1F
100
AcDbEntity
  8
LAY-1
  6
CONTINUOUS
 62
     3
100
AcDbLine
 10
785.5999999999999
 20
285.1246785390899
 30
0.0
 11
785.5999999999999
 21
262.6000000000301
 31
0.0
  0
LINE
  5
547
330
1F
100
AcDbEntity
  8
LAY-1
  6
CONTINUOUS
 62
     3
100
AcDbLine
 10
796.6712470499899
 20
316.0336605035707
 30
0.0
 11
780.1885990536797
 21
314.8563285038343
 31
0.0
  0
LINE
  5
548
330
1F
100
AcDbEntity
  8
LAY-1
  6
CONTINUOUS
 62
     1
100
AcDbLine
 10
779.5971239999999
 20
307.6
 30
0.0
 11
779.5971239999999
 21
304.100008
 31
0.0
  0
LINE
  5
549
330
1F
100
AcDbEntity
  8
LAY-1
  6
CONTINUOUS
 62
     3
100
AcDbLine
 10
778.600069
 20
301.475
 30
0.0
 11
778.6000833480808
 21
307.6
 31
0.0
  0
LINE
  5
54A
330
1F
100
AcDbEntity
  8
LAY-1
  6
CONTINUOUS
 62
     3
100
AcDbLine
 10
755.5999865000001
 20
303.0600000000001
 30
0.0
 11
773.6000000000001
 21
303.0600000000001
 31
0.0
  0
LINE
  5
54B
330
1F
100
AcDbEntity
  8
LAY-1
  6
CONTINUOUS
 62
     1
100
AcDbLine
 10
773.6000000000001
 20
306.4350000000001
 30
0.0
 11
772.3823027000001
 21
303.0600000000001
 31
0.0
  0
LINE
  5
54C
330
1F
100
AcDbEntity
  8
LAY-1
  6
CONTINUOUS
 62
     1
100
AcDbLine
 10
755.6000000000001
 20
306.4350000000001
 30
0.0
 11
756.8176973
 21
303.0600000000001
 31
0.0
  0
LINE
  5
54D
330
1F
100
AcDbEntity
  8
LAY-1
  6
CONTINUOUS
 62
     3
100
AcDbLine
 10
707.0999999999997
 20
232.60000000003
 30
0.0
 11
707.0999999999997
 21
240.60000000003
 31
0.0
  0
ARC
  5
54E
330
1F
100
AcDbEntity
  8
LAY-1
  6
CONTINUOUS
 62
     3
100
AcDbCircle
 10
709.0999999999997
 20
232.60000000003
 30
0.0
 40
2.0
100
AcDbArc
 50
180.0
 51
270.0
  0
LINE
  5
54F
330
1F
100
AcDbEntity
  8
LAY-1
  6
CONTINUOUS
 62
     3
100
AcDbLine
 10
710.0999999999997
 20
230.60000000003
 30
0.0
 11
709.0999999999997
 21
230.60000000003
 31
0.0
  0
ARC
  5
550
330
1F
100
AcDbEntity
  8
LAY-1
  6
CONTINUOUS
 62
     3
100
AcDbCircle
 10
710.0999999999997
 20
228.60000000003
 30
0.0
 40
2.0
100
AcDbArc
 50
0.0
 51
90.00000000000001
  0
ARC
  5
551
330
1F
100
AcDbEntity
  8
LAY-1
  6
CONTINUOUS
 62
     3
100
AcDbCircle
 10
820.0999999999997
 20
232.60000000003
 30
0.0
 40
2.0
100
AcDbArc
 50
270.0
 51
0.0
  0
ARC
  5
552
330
1F
100
AcDbEntity
  8
LAY-1
  6
CONTINUOUS
 62
     3
100
AcDbCircle
 10
820.0999999999997
 20
227.60000000003
 30
0.0
 40
3.0
100
AcDbArc
 50
90.00000000000001
 51
180.0
  0
LINE
  5
553
330
1F
100
AcDbEntity
  8
LAY-1
  6
CONTINUOUS
 62
     3
100
AcDbLine
 10
822.0999999999997
 20
232.60000000003
 30
0.0
 11
822.0999999999997
 21
240.60000000003
 31
0.0
  0
LINE
  5
554
330
1F
100
AcDbEntity
  8
LAY-1
  6
CONTINUOUS
 62
     3
100
AcDbLine
 10
749.6000000000001
 20
240.60000000003
 30
0.0
 11
707.0999999999997
 21
240.60000000003
 31
0.0
  0
LINE
  5
555
330
1F
100
AcDbEntity
  8
LAY-1
  6
CONTINUOUS
 62
     3
100
AcDbLine
 10
822.0999999999997
 20
240.60000000003
 30
0.0
 11
779.5999999999999
 21
240.60000000003
 31
0.0
  0
LINE
  5
556
330
1F
100
AcDbEntity
  8
LAY-1
  6
CONTINUOUS
 62
     3
100
AcDbLine
 10
749.6000000000001
 20
240.60000000003
 30
0.0
 11
707.0999999999997
 21
240.60000000003
 31
0.0
  0
ARC
  5
557
330
1F
100
AcDbEntity
  8
LAY-1
  6
CONTINUOUS
 62
     3
100
AcDbCircle
 10
821.1000000000001
 20
249.6000000000301
 30
0.0
 40
1.0
100
AcDbArc
 50
0.0
 51
90.00000000000001
  0
LINE
  5
558
330
1F
100
AcDbEntity
  8
LAY-1
  6
CONTINUOUS
 62
     3
100
AcDbLine
 10
822.1000000000001
 20
240.6000000000301
 30
0.0
 11
822.1000000000001
 21
249.6000000000301
 31
0.0
  0
ARC
  5
559
330
1F
100
AcDbEntity
  8
LAY-1
  6
CONTINUOUS
 62
     3
100
AcDbCircle
 10
708.0999999999995
 20
249.6000000000301
 30
0.0
 40
1.0
100
AcDbArc
 50
90.00000000000001
 51
180.0
  0
LINE
  5
55A
330
1F
100
AcDbEntity
  8
LAY-1
  6
CONTINUOUS
 62
     3
100
AcDbLine
 10
707.0999999999995
 20
240.6000000000301
 30
0.0
 11
707.0999999999995
 21
249.6000000000301
 31
0.0
  0
LINE
  5
55B
330
1F
100
AcDbEntity
  8
LAY-1
  6
CONTINUOUS
 62
     3
100
AcDbLine
 10
707.0999999999997
 20
240.6000000000301
 30
0.0
 11
714.5999999999997
 21
240.6000000000301
 31
0.0
  0
LINE
  5
55C
330
1F
100
AcDbEntity
  8
LAY-1
  6
CONTINUOUS
 62
     3
100
AcDbLine
 10
822.0999999999999
 20
240.6000000000301
 30
0.0
 11
779.5999999999999
 21
240.6000000000301
 31
0.0
  0
LINE
  5
55D
330
1F
100
AcDbEntity
  8
LAY-1
  6
CONTINUOUS
 62
     3
100
AcDbLine
 10
822.0999999999997
 20
240.60000000003
 30
0.0
 11
779.5999999999997
 21
240.6000000000303
 31
0.0
  0
LINE
  5
55E
330
1F
100
AcDbEntity
  8
LAY-1
  6
CONTINUOUS
 62
     3
100
AcDbLine
 10
764.5999999999997
 20
250.6000000000304
 30
0.0
 11
708.0999999999999
 21
250.6000000000303
 31
0.0
  0
LINE
  5
55F
330
1F
100
AcDbEntity
  8
LAY-1
  6
CONTINUOUS
 62
     3
100
AcDbLine
 10
764.6
 20
250.6000000000301
 30
0.0
 11
821.0999999999999
 21
250.6000000000301
 31
0.0
  0
LINE
  5
560
330
1F
100
AcDbEntity
  8
LAY-1
  6
CONTINUOUS
 62
     3
100
AcDbLine
 10
764.5999999999998
 20
230.6000000000301
 30
0.0
 11
710.0999999999997
 21
230.60000000003
 31
0.0
  0
LINE
  5
561
330
1F
100
AcDbEntity
  8
LAY-1
  6
CONTINUOUS
 62
     3
100
AcDbLine
 10
764.6
 20
230.60000000003
 30
0.0
 11
819.0999999999997
 21
230.60000000003
 31
0.0
  0
LINE
  5
562
330
1F
100
AcDbEntity
  8
LAY-1
  6
CONTINUOUS
 62
     3
100
AcDbLine
 10
744.5999999999999
 20
261.6000000000299
 30
0.0
 11
764.5999999999997
 21
261.6000000000299
 31
0.0
  0
LINE
  5
563
330
1F
100
AcDbEntity
  8
LAY-1
  6
CONTINUOUS
 62
     3
100
AcDbLine
 10
784.5999999999999
 20
261.6000000000299
 30
0.0
 11
764.5999999999997
 21
261.6000000000299
 31
0.0
  0
LINE
  5
564
330
1F
100
AcDbEntity
  8
LAY-1
  6
CONTINUOUS
 62
     3
100
AcDbLine
 10
755.6000000000001
 20
261.6000000000299
 30
0.0
 11
755.6000000000001
 21
250.6000000000304
 31
0.0
  0
LINE
  5
565
330
1F
100
AcDbEntity
  8
LAY-1
  6
CONTINUOUS
 62
     1
100
AcDbLine
 10
756.8176973
 20
261.6000000000299
 30
0.0
 11
756.8176973
 21
250.6000000000304
 31
0.0
  0
LINE
  5
566
330
1F
100
AcDbEntity
  8
LAY-1
  6
CONTINUOUS
 62
     1
100
AcDbLine
 10
772.3823027000001
 20
261.6000000000299
 30
0.0
 11
772.3823027000001
 21
250.6000000000301
 31
0.0
  0
LINE
  5
567
330
1F
100
AcDbEntity
  8
LAY-1
  6
CONTINUOUS
 62
     3
100
AcDbLine
 10
773.6000000000001
 20
261.6000000000299
 30
0.0
 11
773.6000000000001
 21
250.6000000000301
 31
0.0
  0
LINE
  5
568
330
1F
100
AcDbEntity
  8
LAY-1
  6
CONTINUOUS
 62
     3
100
AcDbLine
 10
755.6000000000001
 20
306.8799973000001
 30
0.0
 11
755.6
 21
291.6000000000301
 31
0.0
  0
LINE
  5
569
330
1F
100
AcDbEntity
  8
LAY-1
  6
CONTINUOUS
 62
     1
100
AcDbLine
 10
756.8176973
 20
303.0600000000001
 30
0.0
 11
756.8176972999998
 21
291.6000000000301
 31
0.0
  0
LINE
  5
56A
330
1F
100
AcDbEntity
  8
LAY-1
  6
CONTINUOUS
 62
     1
100
AcDbLine
 10
772.3823027000001
 20
303.0600000000001
 30
0.0
 11
772.3823027000001
 21
291.60000000003
 31
0.0
  0
LINE
  5
56B
330
1F
100
AcDbEntity
  8
LAY-1
  6
CONTINUOUS
 62
     3
100
AcDbLine
 10
773.6000000000001
 20
306.8799973000001
 30
0.0
 11
773.6000000000001
 21
291.60000000003
 31
0.0
  0
LINE
  5
56C
330
1F
100
AcDbEntity
  8
LAY-1
  6
EXLTYPE2
 62
     1
100
AcDbLine
 10
784.6000000000001
 20
292.0
 30
0.0
 11
784.6000000000001
 21
302.7
 31
0.0
  0
LINE
  5
56D
330
1F
100
AcDbEntity
  8
LAY-1
  6
CONTINUOUS
 62
     3
100
AcDbLine
 10
773.6000000000001
 20
294.1
 30
0.0
 11
797.5999999999999
 21
294.1
 31
0.0
  0
LINE
  5
56E
330
1F
100
AcDbEntity
  8
LAY-1
  6
CONTINUOUS
 62
     3
100
AcDbLine
 10
691.5999999999999
 20
294.1000000000001
 30
0.0
 11
755.6
 21
294.0999999999996
 31
0.0
  0
LINE
  5
56F
330
1F
100
AcDbEntity
  8
LAY-1
  6
CONTINUOUS
 62
     3
100
AcDbLine
 10
728.1999999999998
 20
294.1000000000001
 30
0.0
 11
728.1999999999998
 21
313.1
 31
0.0
  0
ARC
  5
570
330
1F
100
AcDbEntity
  8
LAY-1
  6
CONTINUOUS
 62
     3
100
AcDbCircle
 10
744.6
 20
290.6000000000301
 30
0.0
 40
1.0
100
AcDbArc
 50
90.00000000000001
 51
180.0
  0
ARC
  5
571
330
1F
100
AcDbEntity
  8
LAY-1
  6
CONTINUOUS
 62
     3
100
AcDbCircle
 10
784.6
 20
290.60000000003
 30
0.0
 40
1.0
100
AcDbArc
 50
0.0
 51
90.00000000000001
  0
ARC
  5
572
330
1F
100
AcDbEntity
  8
LAY-1
  6
CONTINUOUS
 62
     3
100
AcDbCircle
 10
744.6
 20
262.6000000000301
 30
0.0
 40
1.0
100
AcDbArc
 50
180.0
 51
270.0
  0
ARC
  5
573
330
1F
100
AcDbEntity
  8
LAY-1
  6
CONTINUOUS
 62
     3
100
AcDbCircle
 10
784.6
 20
262.60000000003
 30
0.0
 40
1.0
100
AcDbArc
 50
270.0
 51
0.0
  0
LINE
  5
574
330
1F
100
AcDbEntity
  8
LAY-1
  6
CONTINUOUS
 62
     3
100
AcDbLine
 10
784.6
 20
291.60000000003
 30
0.0
 11
764.6
 21
291.60000000003
 31
0.0
  0
ARC
  5
575
330
1F
100
AcDbEntity
  8
LAY-1
  6
CONTINUOUS
 62
     3
100
AcDbCircle
 10
703.6
 20
225.6000000000301
 30
0.0
 40
1.0
100
AcDbArc
 50
0.0
 51
90.00000000000001
  0
ARC
  5
576
330
1F
100
AcDbEntity
  8
LAY-1
  6
CONTINUOUS
 62
     3
100
AcDbCircle
 10
703.6
 20
215.6000000000301
 30
0.0
 40
1.0
100
AcDbArc
 50
270.0
 51
0.0
  0
LINE
  5
577
330
1F
100
AcDbEntity
  8
LAY-1
  6
CONTINUOUS
 62
     3
100
AcDbLine
 10
744.6
 20
291.6000000000301
 30
0.0
 11
764.6
 21
291.60000000003
 31
0.0
  0
ARC
  5
578
330
1F
100
AcDbEntity
  8
LAY-1
  6
CONTINUOUS
 62
     3
100
AcDbCircle
 10
722.1
 20
233.5801903606617
 30
0.0
 40
30.0
100
AcDbArc
 50
105.0000000000004
 51
180.0
  0
ARC
  5
579
330
1F
100
AcDbEntity
  8
LAY-1
  6
CONTINUOUS
 62
     3
100
AcDbCircle
 10
722.1
 20
233.5801903606617
 30
0.0
 40
42.0
100
AcDbArc
 50
105.0000000000004
 51
179.9999999999999
  0
LINE
  5
57A
330
1F
100
AcDbEntity
  8
LAY-1
  6
CONTINUOUS
 62
     3
100
AcDbLine
 10
692.1
 20
233.5801903606617
 30
0.0
 11
692.1
 21
228.6000000000301
 31
0.0
  0
LINE
  5
57B
330
1F
100
AcDbEntity
  8
LAY-1
  6
CONTINUOUS
 62
     3
100
AcDbLine
 10
703.6
 20
226.6000000000301
 30
0.0
 11
694.1
 21
226.6000000000301
 31
0.0
  0
ARC
  5
57C
330
1F
100
AcDbEntity
  8
LAY-1
  6
CONTINUOUS
 62
     3
100
AcDbCircle
 10
694.1
 20
228.6000000000301
 30
0.0
 40
2.0
100
AcDbArc
 50
180.0
 51
270.0
  0
ARC
  5
57D
330
1F
100
AcDbEntity
  8
LAY-1
  6
CONTINUOUS
 62
     3
100
AcDbCircle
 10
684.1
 20
218.6000000000301
 30
0.0
 40
4.0
100
AcDbArc
 50
180.0
 51
269.9999999999999
  0
LINE
  5
57E
330
1F
100
AcDbEntity
  8
LAY-1
  6
CONTINUOUS
 62
     3
100
AcDbLine
 10
704.6
 20
215.6000000000301
 30
0.0
 11
704.6
 21
225.6000000000301
 31
0.0
  0
LINE
  5
57F
330
1F
100
AcDbEntity
  8
LAY-1
  6
CONTINUOUS
 62
     3
100
AcDbLine
 10
684.1
 20
214.6000000000301
 30
0.0
 11
703.6
 21
214.6000000000301
 31
0.0
  0
LINE
  5
580
330
1F
100
AcDbEntity
  8
LAY-1
  6
CONTINUOUS
 62
     3
100
AcDbLine
 10
711.3813122177406
 20
261.6000000000301
 30
0.0
 11
764.6
 21
261.60000000003
 31
0.0
  0
LINE
  5
581
330
1F
100
AcDbEntity
  8
LAY-1
  6
CONTINUOUS
 62
     3
100
AcDbLine
 10
743.6
 20
266.4897072917099
 30
0.0
 11
743.6
 21
262.6000000000301
 31
0.0
  0
LINE
  5
582
330
1F
100
AcDbEntity
  8
LAY-1
  6
CONTINUOUS
 62
     3
100
AcDbLine
 10
739.8235428646925
 20
269.387484770577
 30
0.0
 11
714.3354286469242
 21
262.5579651493336
 31
0.0
  0
ARC
  5
583
330
1F
100
AcDbEntity
  8
LAY-1
  6
CONTINUOUS
 62
     3
100
AcDbCircle
 10
740.6
 20
266.4897072917099
 30
0.0
 40
3.0
100
AcDbArc
 50
0.0
 51
105.0000000000004
  0
LINE
  5
584
330
1F
100
AcDbEntity
  8
LAY-1
  6
CONTINUOUS
 62
     3
100
AcDbLine
 10
741.3764571353078
 20
282.2269010602242
 30
0.0
 11
711.229600105694
 21
274.1490750648025
 31
0.0
  0
LINE
  5
585
330
1F
100
AcDbEntity
  8
LAY-1
  6
CONTINUOUS
 62
     3
100
AcDbLine
 10
743.6
 20
290.6000000000301
 30
0.0
 11
743.6
 21
285.1246785390913
 31
0.0
  0
ARC
  5
586
330
1F
100
AcDbEntity
  8
LAY-1
  6
CONTINUOUS
 62
     3
100
AcDbCircle
 10
740.6
 20
285.1246785390913
 30
0.0
 40
3.0
100
AcDbArc
 50
285.0000000000004
 51
0.0
  0
LINE
  5
587
330
1F
100
AcDbEntity
  8
LAY-1
  6
CONTINUOUS
 62
     3
100
AcDbLine
 10
680.1
 20
241.3447617137373
 30
0.0
 11
680.1
 21
218.6000000000301
 31
0.0
  0
LINE
  5
588
330
1F
100
AcDbEntity
  8
LAY-1
  6
CONTINUOUS
 62
     3
100
AcDbLine
 10
711.229600105694
 20
281.9136464178781
 30
0.0
 11
743.6
 21
290.5872689282301
 31
0.0
  0
ARC
  5
589
330
1F
100
AcDbEntity
  8
LAY-1
  6
CONTINUOUS
 62
     3
100
AcDbCircle
 10
722.1
 20
241.3447617137373
 30
0.0
 40
42.0
100
AcDbArc
 50
105.0000000000004
 51
180.0
  0
ARC
  5
58A
330
1F
100
AcDbEntity
  8
LAY-1
  6
CONTINUOUS
 62
     3
100
AcDbCircle
 10
784.6
 20
290.60000000003
 30
0.0
 40
1.0
100
AcDbArc
 50
0.0
 51
90.00000000000001
  0
ARC
  5
58B
330
1F
100
AcDbEntity
  8
LAY-1
  6
CONTINUOUS
 62
     3
100
AcDbCircle
 10
784.6
 20
262.60000000003
 30
0.0
 40
1.0
100
AcDbArc
 50
270.0
 51
0.0
  0
ARC
  5
58C
330
1F
100
AcDbEntity
  8
LAY-1
  6
CONTINUOUS
 62
     3
100
AcDbCircle
 10
807.1
 20
233.5801903606616
 30
0.0
 40
30.0
100
AcDbArc
 50
0.0
 51
74.99999999999953
  0
ARC
  5
58D
330
1F
100
AcDbEntity
  8
LAY-1
  6
CONTINUOUS
 62
     3
100
AcDbCircle
 10
807.1
 20
233.5801903606616
 30
0.0
 40
42.0
100
AcDbArc
 50
0.0
 51
74.99999999999949
  0
LINE
  5
58E
330
1F
100
AcDbEntity
  8
LAY-1
  6
CONTINUOUS
 62
     3
100
AcDbLine
 10
837.1
 20
233.5801903606616
 30
0.0
 11
837.1
 21
228.60000000003
 31
0.0
  0
ARC
  5
58F
330
1F
100
AcDbEntity
  8
LAY-1
  6
CONTINUOUS
 62
     3
100
AcDbCircle
 10
835.1
 20
228.60000000003
 30
0.0
 40
2.0
100
AcDbArc
 50
270.0
 51
0.0
  0
ARC
  5
590
330
1F
100
AcDbEntity
  8
LAY-1
  6
CONTINUOUS
 62
     3
100
AcDbCircle
 10
845.1
 20
218.60000000003
 30
0.0
 40
4.0
100
AcDbArc
 50
270.0
 51
0.0
  0
LINE
  5
591
330
1F
100
AcDbEntity
  8
LAY-1
  6
CONTINUOUS
 62
     3
100
AcDbLine
 10
785.6
 20
266.4897072917099
 30
0.0
 11
785.6
 21
262.60000000003
 31
0.0
  0
LINE
  5
592
330
1F
100
AcDbEntity
  8
LAY-1
  6
CONTINUOUS
 62
     3
100
AcDbLine
 10
789.3764571353075
 20
269.387484770577
 30
0.0
 11
814.8645713530758
 21
262.5579651493336
 31
0.0
  0
ARC
  5
593
330
1F
100
AcDbEntity
  8
LAY-1
  6
CONTINUOUS
 62
     3
100
AcDbCircle
 10
788.6
 20
266.4897072917099
 30
0.0
 40
3.0
100
AcDbArc
 50
74.99999999999936
 51
180.0
  0
LINE
  5
594
330
1F
100
AcDbEntity
  8
LAY-1
  6
CONTINUOUS
 62
     3
100
AcDbLine
 10
787.8235428646925
 20
282.2269010602242
 30
0.0
 11
817.9703998943063
 21
274.1490750648024
 31
0.0
  0
LINE
  5
595
330
1F
100
AcDbEntity
  8
LAY-1
  6
CONTINUOUS
 62
     3
100
AcDbLine
 10
785.6
 20
290.60000000003
 30
0.0
 11
785.6
 21
285.1246785390913
 31
0.0
  0
ARC
  5
596
330
1F
100
AcDbEntity
  8
LAY-1
  6
CONTINUOUS
 62
     3
100
AcDbCircle
 10
788.6
 20
285.1246785390913
 30
0.0
 40
3.0
100
AcDbArc
 50
180.0
 51
254.9999999999994
  0
LINE
  5
597
330
1F
100
AcDbEntity
  8
LAY-1
  6
CONTINUOUS
 62
     3
100
AcDbLine
 10
849.1
 20
241.3447617137371
 30
0.0
 11
849.1
 21
218.60000000003
 31
0.0
  0
LINE
  5
598
330
1F
100
AcDbEntity
  8
LAY-1
  6
CONTINUOUS
 62
     3
100
AcDbLine
 10
817.9703998943063
 20
281.9136464178779
 30
0.0
 11
785.6
 21
290.5872689282301
 31
0.0
  0
ARC
  5
599
330
1F
100
AcDbEntity
  8
LAY-1
  6
CONTINUOUS
 62
     3
100
AcDbCircle
 10
807.1
 20
241.3447617137372
 30
0.0
 40
42.0
100
AcDbArc
 50
0.0
 51
74.99999999999949
  0
LINE
  5
59A
330
1F
100
AcDbEntity
  8
LAY-1
  6
CONTINUOUS
 62
     3
100
AcDbLine
 10
817.8186877822592
 20
261.60000000003
 30
0.0
 11
764.6
 21
261.60000000003
 31
0.0
  0
LINE
  5
59B
330
1F
100
AcDbEntity
  8
LAY-1
  6
CONTINUOUS
 62
     3
100
AcDbLine
 10
785.6
 20
290.60000000003
 30
0.0
 11
785.6
 21
285.1246785390913
 31
0.0
  0
LINE
  5
59C
330
1F
100
AcDbEntity
  8
LAY-1
  6
CONTINUOUS
 62
     3
100
AcDbLine
 10
785.6
 20
266.4897072917099
 30
0.0
 11
785.6
 21
262.60000000003
 31
0.0
  0
LINE
  5
59D
330
1F
100
AcDbEntity
  8
LAY-1
  6
CONTINUOUS
 62
     3
100
AcDbLine
 10
680.1
 20
236.80000000003
 30
0.0
 11
680.1
 21
241.3447617137373
 31
0.0
  0
LINE
  5
59E
330
1F
100
AcDbEntity
  8
LAY-1
  6
EXLTYPE2
 62
     1
100
AcDbLine
 10
704.6000000000001
 20
292.0
 30
0.0
 11
704.6000000000001
 21
302.7
 31
0.0
  0
LINE
  5
59F
330
1F
100
AcDbEntity
  8
LAY-1
  6
CONTINUOUS
 62
     3
100
AcDbLine
 10
799.6000000000001
 20
292.1
 30
0.0
 11
799.6000000000001
 21
286.8359802341942
 31
0.0
  0
LINE
  5
5A0
330
1F
100
AcDbEntity
  8
LAY-1
  6
CONTINUOUS
 62
     3
100
AcDbLine
 10
719.6000000000001
 20
284.156488309883
 30
0.0
 11
719.6000000000001
 21
292.1000000000001
 31
0.0
  0
LINE
  5
5A1
330
1F
100
AcDbEntity
  8
LAY-1
  6
CONTINUOUS
 62
     3
100
AcDbLine
 10
689.6000000000001
 20
292.1
 30
0.0
 11
689.6000000000001
 21
267.9483329025836
 31
0.0
  0
LINE
  5
5A2
330
1F
100
AcDbEntity
  8
LAY-1
  6
CONTINUOUS
 62
     3
100
AcDbLine
 10
680.1
 20
225.6000000000004
 30
0.0
 11
675.5
 21
225.6000000000004
 31
0.0
  0
ARC
  5
5A3
330
1F
100
AcDbEntity
  8
LAY-1
  6
CONTINUOUS
 62
     3
100
AcDbCircle
 10
689.5999999999999
 20
230.6000000000004
 30
0.0
 40
5.0
100
AcDbArc
 50
312.8016043511694
 51
0.0
  0
LINE
  5
5A4
330
1F
100
AcDbEntity
  8
LAY-1
  6
CONTINUOUS
 62
     3
100
AcDbLine
 10
698.1296920088727
 20
213.6542218767366
 30
0.0
 11
707.1459132313612
 21
110.598341730429
 31
0.0
  0
ARC
  5
5A5
330
1F
100
AcDbEntity
  8
LAY-1
  6
CONTINUOUS
 62
     3
100
AcDbCircle
 10
697.5999999999992
 20
216.9019809639818
 30
0.0
 40
3.0
100
AcDbArc
 50
230.1144577663853
 51
254.9999999999988
  0
LINE
  5
5A6
330
1F
100
AcDbEntity
  8
LAY-1
  6
CONTINUOUS
 62
     3
100
AcDbLine
 10
833.5999999999991
 20
226.6000000000004
 30
0.0
 11
817.0999999999991
 21
226.6000000000004
 31
0.0
  0
ARC
  5
5A7
330
1F
100
AcDbEntity
  8
LAY-1
  6
CONTINUOUS
 62
     3
100
AcDbCircle
 10
833.5999999999991
 20
227.6000000000004
 30
0.0
 40
1.0
100
AcDbArc
 50
270.0
 51
0.0
  0
ARC
  5
5A8
330
1F
100
AcDbEntity
  8
LAY-1
  6
CONTINUOUS
 62
     3
100
AcDbCircle
 10
831.6
 20
216.901980963982
 30
0.0
 40
3.0
100
AcDbArc
 50
285.0000000000007
 51
0.0
  0
LINE
  5
5A9
330
1F
100
AcDbEntity
  8
LAY-1
  6
EXLTYPE2
 62
     3
100
AcDbLine
 10
834.6
 20
216.901980963982
 30
0.0
 11
834.6
 21
226.6
 31
0.0
  0
ARC
  5
5AA
330
1F
100
AcDbEntity
  8
LAY-1
  6
CONTINUOUS
 62
     3
100
AcDbCircle
 10
819.0104973174533
 20
208.4449129803562
 30
0.0
 40
1.9104973174542
100
AcDbArc
 50
104.9999999999992
 51
180.0
  0
LINE
  5
5AB
330
1F
100
AcDbEntity
  8
LAY-1
  6
CONTINUOUS
 62
     3
100
AcDbLine
 10
818.5160242260798
 20
210.2903116803414
 30
0.0
 11
832.3764571353075
 21
214.0042034851147
 31
0.0
  0
LINE
  5
5AC
330
1F
100
AcDbEntity
  8
LAY-1
  6
CONTINUOUS
 62
     3
100
AcDbLine
 10
825.6
 20
226.60000000003
 30
0.0
 11
835.1
 21
226.60000000003
 31
0.0
  0
LINE
  5
5AD
330
1F
100
AcDbEntity
  8
LAY-1
  6
CONTINUOUS
 62
     3
100
AcDbLine
 10
845.1
 20
214.60000000003
 30
0.0
 11
833.5237680841522
 21
214.60000000003
 31
0.0
  0
ARC
  5
5AE
330
1F
100
AcDbEntity
  8
LAY-1
  6
CONTINUOUS
 62
     3
100
AcDbCircle
 10
737.1648673392899
 20
95.59999999999968
 30
0.0
 40
30.0
100
AcDbArc
 50
180.0
 51
213.3325235265733
  0
LINE
  5
5AF
330
1F
100
AcDbEntity
  8
LAY-1
  6
CONTINUOUS
 62
     3
100
AcDbLine
 10
834.6
 20
65.5999999999998
 30
0.0
 11
817.1
 21
65.5999999999998
 31
0.0
  0
ARC
  5
5B0
330
1F
100
AcDbEntity
  8
LAY-1
  6
CONTINUOUS
 62
     3
100
AcDbCircle
 10
795.7991994586887
 20
95.5999999999998
 30
0.0
 40
30.0
100
AcDbArc
 50
315.2370865113649
 51
355.0000000000001
  0
LINE
  5
5B1
330
1F
100
AcDbEntity
  8
LAY-1
  6
EXLTYPE2
 62
     1
100
AcDbLine
 10
550.8
 20
56.59999999999991
 30
0.0
 11
586.0
 21
56.59999999999991
 31
0.0
  0
LINE
  5
5B2
330
1F
100
AcDbEntity
  8
LAY-1
  6
EXLTYPE2
 62
     1
100
AcDbLine
 10
744.2
 20
56.59999999999994
 30
0.0
 11
787.0
 21
56.59999999999995
 31
0.0
  0
LINE
  5
5B3
330
1F
100
AcDbEntity
  8
LAY-1
  6
EXLTYPE2
 62
     1
100
AcDbLine
 10
505.7999999999996
 20
33.39999999999998
 30
0.0
 11
505.8000000000006
 21
250.5501871492
 31
0.0
  0
LINE
  5
5B4
330
1F
100
AcDbEntity
  8
LAY-1
  6
CONTINUOUS
 62
     3
100
AcDbLine
 10
825.685040401441
 20
92.98532771757012
 30
0.0
 11
836.0782756097329
 21
211.7805497432511
 31
0.0
  0
LINE
  5
5B5
330
1F
100
AcDbEntity
  8
LAY-1
  6
CONTINUOUS
 62
     3
100
AcDbLine
 10
638.1050000000001
 20
363.5999999999999
 30
0.0
 11
638.1050000000001
 21
373.6
 31
0.0
  0
LINE
  5
5B6
330
1F
100
AcDbEntity
  8
LAY-1
  6
EXLTYPE2
 62
     1
100
AcDbLine
 10
730.6
 20
339.1000000000001
 30
0.0
 11
757.6
 21
339.1000000000001
 31
0.0
  0
LINE
  5
5B7
330
1F
100
AcDbEntity
  8
LAY-1
  6
CONTINUOUS
 62
     3
100
AcDbLine
 10
692.6000310000003
 20
329.1000000000001
 30
0.0
 11
757.6
 21
329.1000000000001
 31
0.0
  0
LINE
  5
5B8
330
1F
100
AcDbEntity
  8
LAY-1
  6
CONTINUOUS
 62
     3
100
AcDbLine
 10
723.6000310000001
 20
379.1000000000001
 30
0.0
 11
757.6
 21
379.1000000000001
 31
0.0
  0
LINE
  5
5B9
330
1F
100
AcDbEntity
  8
LAY-1
  6
CONTINUOUS
 62
     3
100
AcDbLine
 10
701.6000310000001
 20
349.19437
 30
0.0
 11
723.6000310000001
 21
349.19437
 31
0.0
  0
LINE
  5
5BA
330
1F
100
AcDbEntity
  8
LAY-1
  6
CONTINUOUS
 62
     3
100
AcDbLine
 10
723.6000310000001
 20
379.1000000000001
 30
0.0
 11
723.6000310000001
 21
349.19437
 31
0.0
  0
LINE
  5
5BB
330
1F
100
AcDbEntity
  8
LAY-1
  6
CONTINUOUS
 62
     3
100
AcDbLine
 10
757.6
 20
379.1000000000001
 30
0.0
 11
757.6
 21
329.1000000000001
 31
0.0
  0
LINE
  5
5BC
330
1F
100
AcDbEntity
  8
LAY-1
  6
CONTINUOUS
 62
     3
100
AcDbLine
 10
692.6000310000003
 20
363.19437
 30
0.0
 11
692.6000310000003
 21
329.1000000000001
 31
0.0
  0
LINE
  5
5BD
330
1F
100
AcDbEntity
  8
LAY-1
  6
CONTINUOUS
 62
     3
100
AcDbLine
 10
701.6000310000001
 20
363.19437
 30
0.0
 11
701.6000310000001
 21
349.19437
 31
0.0
  0
LINE
  5
5BE
330
1F
100
AcDbEntity
  8
LAY-1
  6
EXLTYPE2
 62
     1
100
AcDbLine
 10
744.6
 20
470.0
 30
0.0
 11
744.6
 21
325.1000000000001
 31
0.0
  0
LINE
  5
5BF
330
1F
100
AcDbEntity
  8
LAY-1
  6
CONTINUOUS
 62
     3
100
AcDbLine
 10
757.6000000000007
 20
394.1
 30
0.0
 11
759.0960024660001
 21
319.2998767
 31
0.0
  0
LINE
  5
5C0
330
1F
100
AcDbEntity
  8
LAY-1
  6
CONTINUOUS
 62
     3
100
AcDbLine
 10
638.1050000000001
 20
373.6
 30
0.0
 11
723.6000310000001
 21
373.6000000000001
 31
0.0
  0
LINE
  5
5C1
330
1F
100
AcDbEntity
  8
LAY-1
  6
CONTINUOUS
 62
     3
100
AcDbLine
 10
638.1050000000001
 20
363.5999999999999
 30
0.0
 11
723.6000310000001
 21
363.6000000000001
 31
0.0
  0
LINE
  5
5C2
330
1F
100
AcDbEntity
  8
LAY-1
  6
CONTINUOUS
 62
     3
100
AcDbLine
 10
731.6000000000003
 20
394.0999999999999
 30
0.0
 11
731.3000000000002
 21
379.1000000000001
 31
0.0
  0
LINE
  5
5C3
330
1F
100
AcDbEntity
  8
LAY-1
  6
CONTINUOUS
 62
     3
100
AcDbLine
 10
730.3000000000002
 20
329.1000000000001
 30
0.0
 11
729.6000000000001
 21
294.1
 31
0.0
  0
LINE
  5
5C4
330
1F
100
AcDbEntity
  8
LAY-1
  6
CONTINUOUS
 62
     3
100
AcDbLine
 10
730.2600000000002
 20
327.1
 30
0.0
 11
692.5999999999999
 21
327.1
 31
0.0
  0
ARC
  5
5C5
330
1F
100
AcDbEntity
  8
LAY-1
  6
CONTINUOUS
 62
     3
100
AcDbCircle
 10
692.5999999999999
 20
326.1
 30
0.0
 40
1.0
100
AcDbArc
 50
90.00000000000001
 51
180.0
  0
LINE
  5
5C6
330
1F
100
AcDbEntity
  8
LAY-1
  6
CONTINUOUS
 62
     3
100
AcDbLine
 10
691.5999999999999
 20
326.1
 30
0.0
 11
691.5999999999999
 21
317.0311192034013
 31
0.0
  0
INSERT
  5
5C7
330
1F
100
AcDbEntity
  8
LAY-1
  6
CONTINUOUS
 62
     0
100
AcDbBlockReference
  2
HBH8
 10
744.6
 20
368.6
 30
0.0
  0
INSERT
  5
5C8
330
1F
100
AcDbEntity
  8
LAY-1
  6
CONTINUOUS
 62
     0
100
AcDbBlockReference
  2
HBH8
 10
744.6
 20
339.1
 30
0.0
  0
LINE
  5
5C9
330
1F
100
AcDbEntity
  8
LAY-1
  6
EXLTYPE2
 62
     1
100
AcDbLine
 10
632.0
 20
368.6000000000001
 30
0.0
 11
757.6
 21
368.6000000000002
 31
0.0
  0
CIRCLE
  5
5CA
330
1F
100
AcDbEntity
  8
LAY-1
  6
CONTINUOUS
 62
     3
100
AcDbCircle
 10
365.7999999999901
 20
624.0
 30
0.0
 40
27.5
  0
LINE
  5
5CB
330
1F
100
AcDbEntity
  8
LAY-1
  6
CONTINUOUS
 62
     3
100
AcDbLine
 10
216.7999999999901
 20
632.0
 30
0.0
 11
339.4893557661443
 21
632.0
 31
0.0
  0
LINE
  5
5CC
330
1F
100
AcDbEntity
  8
LAY-1
  6
CONTINUOUS
 62
     3
100
AcDbLine
 10
216.7999999999901
 20
632.0
 30
0.0
 11
215.7999999999901
 21
631.0
 31
0.0
  0
LINE
  5
5CD
330
1F
100
AcDbEntity
  8
LAY-1
  6
CONTINUOUS
 62
     3
100
AcDbLine
 10
338.2999999999901
 20
624.0
 30
0.0
 11
338.2999999999901
 21
632.0
 31
0.0
  0
LINE
  5
5CE
330
1F
100
AcDbEntity
  8
LAY-1
  6
CONTINUOUS
 62
     3
100
AcDbLine
 10
216.7999999999901
 20
616.0
 30
0.0
 11
339.4893557661443
 21
616.0
 31
0.0
  0
LINE
  5
5CF
330
1F
100
AcDbEntity
  8
LAY-1
  6
CONTINUOUS
 62
     3
100
AcDbLine
 10
216.7999999999901
 20
616.0
 30
0.0
 11
215.7999999999901
 21
617.0
 31
0.0
  0
LINE
  5
5D0
330
1F
100
AcDbEntity
  8
LAY-1
  6
CONTINUOUS
 62
     3
100
AcDbLine
 10
338.2999999999901
 20
624.0
 30
0.0
 11
338.2999999999901
 21
616.0
 31
0.0
  0
LINE
  5
5D1
330
1F
100
AcDbEntity
  8
LAY-1
  6
CONTINUOUS
 62
     3
100
AcDbLine
 10
514.7999999999901
 20
632.0
 30
0.0
 11
392.1106442338358
 21
632.0
 31
0.0
  0
LINE
  5
5D2
330
1F
100
AcDbEntity
  8
LAY-1
  6
CONTINUOUS
 62
     3
100
AcDbLine
 10
515.7999999999901
 20
631.0
 30
0.0
 11
515.7999999999901
 21
624.0
 31
0.0
  0
LINE
  5
5D3
330
1F
100
AcDbEntity
  8
LAY-1
  6
CONTINUOUS
 62
     3
100
AcDbLine
 10
514.7999999999901
 20
632.0
 30
0.0
 11
515.7999999999901
 21
631.0
 31
0.0
  0
LINE
  5
5D4
330
1F
100
AcDbEntity
  8
LAY-1
  6
CONTINUOUS
 62
     3
100
AcDbLine
 10
393.2999999999901
 20
624.0
 30
0.0
 11
393.2999999999901
 21
632.0
 31
0.0
  0
LINE
  5
5D5
330
1F
100
AcDbEntity
  8
LAY-1
  6
CONTINUOUS
 62
     3
100
AcDbLine
 10
514.7999999999901
 20
616.0
 30
0.0
 11
392.1106442338358
 21
616.0
 31
0.0
  0
LINE
  5
5D6
330
1F
100
AcDbEntity
  8
LAY-1
  6
CONTINUOUS
 62
     3
100
AcDbLine
 10
515.7999999999901
 20
617.0
 30
0.0
 11
515.7999999999901
 21
624.0
 31
0.0
  0
LINE
  5
5D7
330
1F
100
AcDbEntity
  8
LAY-1
  6
CONTINUOUS
 62
     3
100
AcDbLine
 10
514.7999999999901
 20
616.0
 30
0.0
 11
515.7999999999901
 21
617.0
 31
0.0
  0
LINE
  5
5D8
330
1F
100
AcDbEntity
  8
LAY-1
  6
CONTINUOUS
 62
     3
100
AcDbLine
 10
393.2999999999901
 20
624.0
 30
0.0
 11
393.2999999999901
 21
616.0
 31
0.0
  0
LINE
  5
5D9
330
1F
100
AcDbEntity
  8
LAY-1
  6
EXLTYPE2
 62
     1
100
AcDbLine
 10
200.7999999999901
 20
624.0
 30
0.0
 11
529.6999999999902
 21
624.0
 31
0.0
  0
LINE
  5
5DA
330
1F
100
AcDbEntity
  8
LAY-1
  6
CONTINUOUS
 62
     3
100
AcDbLine
 10
239.3000000000007
 20
651.694165375
 30
0.0
 11
239.3000000000007
 21
636.1056985
 31
0.0
  0
LINE
  5
5DB
330
1F
100
AcDbEntity
  8
LAY-1
  6
CONTINUOUS
 62
     3
100
AcDbLine
 10
212.3000000000007
 20
636.105800875
 30
0.0
 11
212.3000000000007
 21
651.694165375
 31
0.0
  0
LINE
  5
5DC
330
1F
100
AcDbEntity
  8
LAY-1
  6
CONTINUOUS
 62
     3
100
AcDbLine
 10
225.8000517500006
 20
659.4885523749999
 30
0.0
 11
212.3000000000007
 21
651.694165375
 31
0.0
  0
LINE
  5
5DD
330
1F
100
AcDbEntity
  8
LAY-1
  6
CONTINUOUS
 62
     3
100
AcDbLine
 10
225.8000517500006
 20
659.4885523749999
 30
0.0
 11
239.3000517500006
 21
651.694165375
 31
0.0
  0
LINE
  5
5DE
330
1F
100
AcDbEntity
  8
LAY-1
  6
CONTINUOUS
 62
     3
100
AcDbLine
 10
219.4114046354838
 20
632.0
 30
0.0
 11
212.3000000000007
 21
636.105800875
 31
0.0
  0
ARC
  5
5DF
330
1F
100
AcDbEntity
  8
LAY-1
  6
CONTINUOUS
 62
     3
100
AcDbCircle
 10
225.8000000000007
 20
643.9
 30
0.0
 40
12.9375
100
AcDbArc
 50
293.1021516214573
 51
246.8978483785427
  0
LINE
  5
5E0
330
1F
100
AcDbEntity
  8
LAY-1
  6
CONTINUOUS
 62
     3
100
AcDbLine
 10
239.3000517500006
 20
636.1056985
 30
0.0
 11
232.1887699125357
 21
632.0
 31
0.0
  0
ARC
  5
5E1
330
1F
100
AcDbEntity
  8
LAY-1
  6
CONTINUOUS
 62
     3
100
AcDbCircle
 10
225.8000000000004
 20
643.9
 30
0.0
 40
21.0
100
AcDbArc
 50
325.4818921589389
 51
241.5631098511126
  0
LINE
  5
5E2
330
1F
100
AcDbEntity
  8
LAY-1
  6
CONTINUOUS
 62
     3
100
AcDbLine
 10
216.8000000000004
 20
616.0
 30
0.0
 11
216.8000000000004
 21
559.3999999999999
 31
0.0
  0
LINE
  5
5E3
330
1F
100
AcDbEntity
  8
LAY-1
  6
CONTINUOUS
 62
     3
100
AcDbLine
 10
234.8000000000004
 20
616.0
 30
0.0
 11
234.8000000000004
 21
559.3999999999999
 31
0.0
  0
LINE
  5
5E4
330
1F
100
AcDbEntity
  8
LAY-1
  6
CONTINUOUS
 62
     3
100
AcDbLine
 10
240.8000000000004
 20
616.0
 30
0.0
 11
240.8000000000004
 21
561.3999999999999
 31
0.0
  0
ARC
  5
5E5
330
1F
100
AcDbEntity
  8
LAY-1
  6
CONTINUOUS
 62
     3
100
AcDbCircle
 10
225.8000000000006
 20
643.9
 30
0.0
 40
57.5
100
AcDbArc
 50
348.0559439977013
 51
74.87833468509126
  0
LINE
  5
5E6
330
1F
100
AcDbEntity
  8
LAY-1
  6
CONTINUOUS
 62
     3
100
AcDbLine
 10
306.7999999999198
 20
632.0
 30
0.0
 11
306.7999999999198
 21
705.8999999999997
 31
0.0
  0
LINE
  5
5E7
330
1F
100
AcDbEntity
  8
LAY-1
  6
CONTINUOUS
 62
     3
100
AcDbLine
 10
306.7999999999201
 20
632.0
 30
0.0
 11
306.7999999999201
 21
705.93583453019
 31
0.0
  0
LINE
  5
5E8
330
1F
100
AcDbEntity
  8
LAY-1
  6
CONTINUOUS
 62
     3
100
AcDbLine
 10
307.7999999999606
 20
632.0
 30
0.0
 11
307.7999999999606
 21
637.0
 31
0.0
  0
LINE
  5
5E9
330
1F
100
AcDbEntity
  8
LAY-1
  6
CONTINUOUS
 62
     3
100
AcDbLine
 10
310.7999999999602
 20
667.0
 30
0.0
 11
310.7999999999602
 21
632.0
 31
0.0
  0
LINE
  5
5EA
330
1F
100
AcDbEntity
  8
LAY-1
  6
CONTINUOUS
 62
     3
100
AcDbLine
 10
310.7999999999606
 20
632.0
 30
0.0
 11
310.7999999999606
 21
633.0
 31
0.0
  0
LINE
  5
5EB
330
1F
100
AcDbEntity
  8
LAY-1
  6
CONTINUOUS
 62
     3
100
AcDbLine
 10
315.7999999999603
 20
632.0
 30
0.0
 11
315.7999999999603
 21
637.6900000000002
 31
0.0
  0
LINE
  5
5EC
330
1F
100
AcDbEntity
  8
LAY-1
  6
CONTINUOUS
 62
     3
100
AcDbLine
 10
307.7999999999606
 20
611.0
 30
0.0
 11
307.7999999999606
 21
616.0
 31
0.0
  0
LINE
  5
5ED
330
1F
100
AcDbEntity
  8
LAY-1
  6
CONTINUOUS
 62
     3
100
AcDbLine
 10
310.7999999999602
 20
616.0
 30
0.0
 11
310.7999999999602
 21
581.0
 31
0.0
  0
LINE
  5
5EE
330
1F
100
AcDbEntity
  8
LAY-1
  6
CONTINUOUS
 62
     3
100
AcDbLine
 10
310.7999999999606
 20
600.905989232435
 30
0.0
 11
310.7999999999606
 21
616.0
 31
0.0
  0
LINE
  5
5EF
330
1F
100
AcDbEntity
  8
LAY-1
  6
CONTINUOUS
 62
     3
100
AcDbLine
 10
315.7999999999603
 20
603.0000000000001
 30
0.0
 11
315.7999999999603
 21
616.0
 31
0.0
  0
LINE
  5
5F0
330
1F
100
AcDbEntity
  8
LAY-1
  6
CONTINUOUS
 62
     3
100
AcDbLine
 10
306.7999999999198
 20
581.8999999999997
 30
0.0
 11
306.7999999999198
 21
616.0
 31
0.0
  0
LINE
  5
5F1
330
1F
100
AcDbEntity
  8
LAY-1
  6
CONTINUOUS
 62
     3
100
AcDbLine
 10
306.7999999999201
 20
581.93583453019
 30
0.0
 11
306.7999999999201
 21
616.0
 31
0.0
  0
LINE
  5
5F2
330
1F
100
AcDbEntity
  8
LAY-1
  6
CONTINUOUS
 62
     3
100
AcDbLine
 10
330.7999999999602
 20
632.0
 30
0.0
 11
330.7999999999602
 21
636.69
 31
0.0
  0
LINE
  5
5F3
330
1F
100
AcDbEntity
  8
LAY-1
  6
CONTINUOUS
 62
     3
100
AcDbLine
 10
330.7999999999602
 20
611.31
 30
0.0
 11
330.7999999999602
 21
616.0
 31
0.0
  0
LINE
  5
5F4
330
1F
100
AcDbEntity
  8
LAY-1
  6
CONTINUOUS
 62
     3
100
AcDbLine
 10
345.5417934961762
 20
642.597179066967
 30
0.0
 11
353.4571994059274
 21
668.08108729326
 31
0.0
  0
LINE
  5
5F5
330
1F
100
AcDbEntity
  8
LAY-1
  6
CONTINUOUS
 62
     3
100
AcDbLine
 10
345.5417934961762
 20
605.402820933033
 30
0.0
 11
353.4571994059274
 21
579.91891270674
 31
0.0
  0
LINE
  5
5F6
330
1F
100
AcDbEntity
  8
LAY-1
  6
CONTINUOUS
 62
     3
100
AcDbLine
 10
386.0582065038038
 20
642.5971790669671
 30
0.0
 11
378.1428005940527
 21
668.08108729326
 31
0.0
  0
LINE
  5
5F7
330
1F
100
AcDbEntity
  8
LAY-1
  6
CONTINUOUS
 62
     3
100
AcDbLine
 10
394.6564064605489
 20
615.9999999999982
 30
0.0
 11
542.7550807568477
 21
530.4951905284032
 31
0.0
  0
LINE
  5
5F8
330
1F
100
AcDbEntity
  8
LAY-1
  6
CONTINUOUS
 62
     3
100
AcDbLine
 10
384.9628784747682
 20
604.276052916297
 30
0.0
 11
535.2550807568477
 21
517.5048094716367
 31
0.0
  0
LINE
  5
5F9
330
1F
100
AcDbEntity
  8
LAY-1
  6
CONTINUOUS
 62
     3
100
AcDbLine
 10
400.7999999999603
 20
632.0
 30
0.0
 11
400.7999999999603
 21
636.69
 31
0.0
  0
LINE
  5
5FA
330
1F
100
AcDbEntity
  8
LAY-1
  6
CONTINUOUS
 62
     3
100
AcDbLine
 10
415.7999999999603
 20
632.0
 30
0.0
 11
415.7999999999603
 21
637.6900000000002
 31
0.0
  0
LINE
  5
5FB
330
1F
100
AcDbEntity
  8
LAY-1
  6
CONTINUOUS
 62
     3
100
AcDbLine
 10
420.7999999999602
 20
667.0
 30
0.0
 11
420.7999999999602
 21
632.0
 31
0.0
  0
LINE
  5
5FC
330
1F
100
AcDbEntity
  8
LAY-1
  6
CONTINUOUS
 62
     3
100
AcDbLine
 10
420.79999999996
 20
600.905989232435
 30
0.0
 11
420.79999999996
 21
616.0
 31
0.0
  0
LINE
  5
5FD
330
1F
100
AcDbEntity
  8
LAY-1
  6
CONTINUOUS
 62
     3
100
AcDbLine
 10
420.7999999999602
 20
616.0
 30
0.0
 11
420.7999999999602
 21
600.905989232435
 31
0.0
  0
LINE
  5
5FE
330
1F
100
AcDbEntity
  8
LAY-1
  6
CONTINUOUS
 62
     3
100
AcDbLine
 10
423.79999999996
 20
611.0
 30
0.0
 11
423.79999999996
 21
616.0
 31
0.0
  0
LINE
  5
5FF
330
1F
100
AcDbEntity
  8
LAY-1
  6
CONTINUOUS
 62
     3
100
AcDbLine
 10
423.79999999996
 20
632.0
 30
0.0
 11
423.79999999996
 21
637.0
 31
0.0
  0
LINE
  5
600
330
1F
100
AcDbEntity
  8
LAY-1
  6
CONTINUOUS
 62
     3
100
AcDbLine
 10
424.7999999999202
 20
632.0000000000001
 30
0.0
 11
424.7999999999203
 21
705.93583453019
 31
0.0
  0
LINE
  5
601
330
1F
100
AcDbEntity
  8
LAY-1
  6
CONTINUOUS
 62
     3
100
AcDbLine
 10
424.7999999999203
 20
705.9000000000002
 30
0.0
 11
424.7999999999203
 21
632.0
 31
0.0
  0
LINE
  5
602
330
1F
100
AcDbEntity
  8
LAY-1
  6
CONTINUOUS
 62
     3
100
AcDbLine
 10
424.7999999999201
 20
598.5965881556995
 30
0.0
 11
424.7999999999201
 21
616.0
 31
0.0
  0
LINE
  5
603
330
1F
100
AcDbEntity
  8
LAY-1
  6
CONTINUOUS
 62
     3
100
AcDbLine
 10
424.7999999999203
 20
616.0
 30
0.0
 11
424.7999999999203
 21
598.5965881556995
 31
0.0
  0
ARC
  5
604
330
1F
100
AcDbEntity
  8
LAY-1
  6
CONTINUOUS
 62
     3
100
AcDbCircle
 10
505.7999999999199
 20
643.9
 30
0.0
 40
57.5
100
AcDbArc
 50
105.1216653149087
 51
191.9440560022987
  0
ARC
  5
605
330
1F
100
AcDbEntity
  8
LAY-1
  6
CONTINUOUS
 62
     3
100
AcDbCircle
 10
505.7999999999199
 20
643.9
 30
0.0
 40
57.5
100
AcDbArc
 50
209.0267162756952
 51
254.8783346850913
  0
LINE
  5
606
330
1F
100
AcDbEntity
  8
LAY-1
  6
CONTINUOUS
 62
     3
100
AcDbLine
 10
490.7999999999201
 20
616.0
 30
0.0
 11
490.7999999999201
 21
561.3999999999999
 31
0.0
  0
LINE
  5
607
330
1F
100
AcDbEntity
  8
LAY-1
  6
CONTINUOUS
 62
     3
100
AcDbLine
 10
496.7999999999201
 20
616.0
 30
0.0
 11
496.7999999999201
 21
559.3999999999999
 31
0.0
  0
LINE
  5
608
330
1F
100
AcDbEntity
  8
LAY-1
  6
CONTINUOUS
 62
     3
100
AcDbLine
 10
514.7999999999201
 20
616.0
 30
0.0
 11
514.7999999999201
 21
559.3999999999999
 31
0.0
  0
ARC
  5
609
330
1F
100
AcDbEntity
  8
LAY-1
  6
CONTINUOUS
 62
     3
100
AcDbCircle
 10
505.7999999999201
 20
643.9
 30
0.0
 40
21.0
100
AcDbArc
 50
298.4368901490724
 51
214.5181078410613
  0
LINE
  5
60A
330
1F
100
AcDbEntity
  8
LAY-1
  6
CONTINUOUS
 62
     3
100
AcDbLine
 10
492.29999999992
 20
651.694165375
 30
0.0
 11
492.29999999992
 21
636.1056985
 31
0.0
  0
LINE
  5
60B
330
1F
100
AcDbEntity
  8
LAY-1
  6
CONTINUOUS
 62
     3
100
AcDbLine
 10
519.2999999999199
 20
636.105800875
 30
0.0
 11
519.2999999999199
 21
651.694165375
 31
0.0
  0
LINE
  5
60C
330
1F
100
AcDbEntity
  8
LAY-1
  6
CONTINUOUS
 62
     3
100
AcDbLine
 10
505.79994824992
 20
659.4885523749999
 30
0.0
 11
519.2999999999199
 21
651.694165375
 31
0.0
  0
LINE
  5
60D
330
1F
100
AcDbEntity
  8
LAY-1
  6
CONTINUOUS
 62
     3
100
AcDbLine
 10
505.79994824992
 20
659.4885523749999
 30
0.0
 11
492.29994824992
 21
651.694165375
 31
0.0
  0
LINE
  5
60E
330
1F
100
AcDbEntity
  8
LAY-1
  6
CONTINUOUS
 62
     3
100
AcDbLine
 10
492.29994824992
 20
636.1056985
 30
0.0
 11
499.4112300873849
 21
632.0
 31
0.0
  0
LINE
  5
60F
330
1F
100
AcDbEntity
  8
LAY-1
  6
CONTINUOUS
 62
     3
100
AcDbLine
 10
505.7999372157672
 20
628.311480001292
 30
0.0
 11
505.80005174992
 21
628.311413875
 31
0.0
  0
LINE
  5
610
330
1F
100
AcDbEntity
  8
LAY-1
  6
CONTINUOUS
 62
     3
100
AcDbLine
 10
512.1885953644369
 20
632.0
 30
0.0
 11
519.2999999999199
 21
636.105800875
 31
0.0
  0
ARC
  5
611
330
1F
100
AcDbEntity
  8
LAY-1
  6
CONTINUOUS
 62
     3
100
AcDbCircle
 10
505.79999999992
 20
643.9
 30
0.0
 40
12.9375
100
AcDbArc
 50
293.1021516214573
 51
246.8978483785427
  0
LINE
  5
612
330
1F
100
AcDbEntity
  8
LAY-1
  6
CONTINUOUS
 62
     3
100
AcDbLine
 10
384.79999999993
 20
634.9696551146028
 30
0.0
 11
365.7999999999298
 21
645.9393102292057
 31
0.0
  0
LINE
  5
613
330
1F
100
AcDbEntity
  8
LAY-1
  6
CONTINUOUS
 62
     3
100
AcDbLine
 10
384.79999999993
 20
613.0303448853971
 30
0.0
 11
384.79999999993
 21
634.9696551146028
 31
0.0
  0
LINE
  5
614
330
1F
100
AcDbEntity
  8
LAY-1
  6
CONTINUOUS
 62
     3
100
AcDbLine
 10
365.79999999993
 20
602.0606897707942
 30
0.0
 11
384.79999999993
 21
613.0303448853971
 31
0.0
  0
LINE
  5
615
330
1F
100
AcDbEntity
  8
LAY-1
  6
CONTINUOUS
 62
     3
100
AcDbLine
 10
346.79999999993
 20
613.0303448853971
 30
0.0
 11
346.79999999993
 21
634.9696551146028
 31
0.0
  0
LINE
  5
616
330
1F
100
AcDbEntity
  8
LAY-1
  6
CONTINUOUS
 62
     3
100
AcDbLine
 10
365.79999999993
 20
602.0606897707942
 30
0.0
 11
346.79999999993
 21
613.0303448853971
 31
0.0
  0
LINE
  5
617
330
1F
100
AcDbEntity
  8
LAY-1
  6
CONTINUOUS
 62
     3
100
AcDbLine
 10
346.79999999993
 20
634.9696551146028
 30
0.0
 11
365.79999999993
 21
645.9393102292057
 31
0.0
  0
CIRCLE
  5
618
330
1F
100
AcDbEntity
  8
LAY-1
  6
CONTINUOUS
 62
     3
100
AcDbCircle
 10
365.79999999993
 20
624.0
 30
0.0
 40
13.5
  0
CIRCLE
  5
619
330
1F
100
AcDbEntity
  8
LAY-1
  6
CONTINUOUS
 62
     1
100
AcDbCircle
 10
365.79999999993
 20
624.0
 30
0.0
 40
14.5
  0
CIRCLE
  5
61A
330
1F
100
AcDbEntity
  8
LAY-1
  6
CONTINUOUS
 62
     3
100
AcDbCircle
 10
365.79999999993
 20
624.0
 30
0.0
 40
19.0
  0
LINE
  5
61B
330
1F
100
AcDbEntity
  8
LAY-1
  6
EXLTYPE2
 62
     1
100
AcDbLine
 10
376.7411197426637
 20
642.9505752861137
 30
0.0
 11
365.7999999999282
 21
624.000000000001
 31
0.0
  0
CIRCLE
  5
61C
330
1F
100
AcDbEntity
  8
LAY-1
  6
CONTINUOUS
 62
     3
100
AcDbCircle
 10
365.79999999999
 20
624.0
 30
0.0
 40
10.0
  0
CIRCLE
  5
61D
330
1F
100
AcDbEntity
  8
LAY-1
  6
CONTINUOUS
 62
     3
100
AcDbCircle
 10
365.79999999999
 20
624.0
 30
0.0
 40
7.75
  0
LINE
  5
61E
330
1F
100
AcDbEntity
  8
LAY-1
  6
CONTINUOUS
 62
     3
100
AcDbLine
 10
363.7999999999602
 20
624.0
 30
0.0
 11
363.7999999999602
 21
616.512510434072
 31
0.0
  0
LINE
  5
61F
330
1F
100
AcDbEntity
  8
LAY-1
  6
CONTINUOUS
 62
     3
100
AcDbLine
 10
371.2757955904735
 20
629.4843561746858
 30
0.0
 11
367.7769997816779
 21
623.4242640685428
 31
0.0
  0
LINE
  5
620
330
1F
100
AcDbEntity
  8
LAY-1
  6
CONTINUOUS
 62
     3
100
AcDbLine
 10
367.8116939753349
 20
631.4843561746864
 30
0.0
 11
364.067949192374
 21
625.0000000000273
 31
0.0
  0
ARC
  5
621
330
1F
100
AcDbEntity
  8
LAY-1
  6
CONTINUOUS
 62
     3
100
AcDbCircle
 10
365.79999999999
 20
624.0
 30
0.0
 40
2.0
100
AcDbArc
 50
149.9999999999983
 51
180.0000000000032
  0
LINE
  5
622
330
1F
100
AcDbEntity
  8
LAY-1
  6
CONTINUOUS
 62
     3
100
AcDbLine
 10
367.7999999999604
 20
623.4641016151932
 30
0.0
 11
367.7999999999604
 21
616.512510434072
 31
0.0
  0
LINE
  5
623
330
1F
100
AcDbEntity
  8
LAY-1
  6
CONTINUOUS
 62
     3
100
AcDbLine
 10
341.9497610074768
 20
637.69
 30
0.0
 11
310.7999999999604
 21
637.69
 31
0.0
  0
LINE
  5
624
330
1F
100
AcDbEntity
  8
LAY-1
  6
CONTINUOUS
 62
     3
100
AcDbLine
 10
341.9497610074768
 20
610.3100000000001
 30
0.0
 11
315.7999999999606
 21
610.3099999999998
 31
0.0
  0
LINE
  5
625
330
1F
100
AcDbEntity
  8
LAY-1
  6
CONTINUOUS
 62
     3
100
AcDbLine
 10
389.6502389925033
 20
637.69
 30
0.0
 11
420.7999999999602
 21
637.69
 31
0.0
  0
LINE
  5
626
330
1F
100
AcDbEntity
  8
LAY-1
  6
CONTINUOUS
 62
     3
100
AcDbLine
 10
404.5117755556128
 20
610.31
 30
0.0
 11
415.7999999999599
 21
610.3099999999998
 31
0.0
  0
LINE
  5
627
330
1F
100
AcDbEntity
  8
LAY-1
  6
CONTINUOUS
 62
     3
100
AcDbLine
 10
400.7999999999603
 20
612.4529946162273
 30
0.0
 11
400.7999999999603
 21
616.0
 31
0.0
  0
LINE
  5
628
330
1F
100
AcDbEntity
  8
LAY-1
  6
CONTINUOUS
 62
     3
100
AcDbLine
 10
417.1730669589409
 20
603.0000000000001
 30
0.0
 11
420.79999999996
 21
603.0000000000001
 31
0.0
  0
LINE
  5
629
330
1F
100
AcDbEntity
  8
LAY-1
  6
CONTINUOUS
 62
     3
100
AcDbLine
 10
415.7999999999603
 20
603.792740578383
 30
0.0
 11
415.7999999999603
 21
616.0
 31
0.0
  0
LINE
  5
62A
330
1F
100
AcDbEntity
  8
LAY-1
  6
CONTINUOUS
 62
     3
100
AcDbLine
 10
215.7999999999901
 20
617.0
 30
0.0
 11
215.7999999999901
 21
631.0
 31
0.0
  0
LINE
  5
62B
330
1F
100
AcDbEntity
  8
LAY-1
  6
EXLTYPE2
 62
     1
100
AcDbLine
 10
273.99999999996
 20
693.9358345301903
 30
0.0
 11
316.6
 21
693.9358345301903
 31
0.0
  0
LINE
  5
62C
330
1F
100
AcDbEntity
  8
LAY-1
  6
EXLTYPE2
 62
     1
100
AcDbLine
 10
455.99999999996
 20
693.9358345301903
 30
0.0
 11
414.8
 21
693.9358345301903
 31
0.0
  0
LINE
  5
62D
330
1F
100
AcDbEntity
  8
LAY-1
  6
EXLTYPE2
 62
     1
100
AcDbLine
 10
272.99999999996
 20
593.9358345301899
 30
0.0
 11
316.6
 21
593.9358345301899
 31
0.0
  0
LINE
  5
62E
330
1F
100
AcDbEntity
  8
LAY-1
  6
EXLTYPE2
 62
     1
100
AcDbLine
 10
457.99999999996
 20
593.9358345301899
 30
0.0
 11
428.0
 21
593.9358345301899
 31
0.0
  0
LINE
  5
62F
330
1F
100
AcDbEntity
  8
LAY-1
  6
CONTINUOUS
 62
     3
100
AcDbLine
 10
436.7999999999203
 20
703.9000000000002
 30
0.0
 11
436.7999999999203
 21
676.9000000000002
 31
0.0
  0
LINE
  5
630
330
1F
100
AcDbEntity
  8
LAY-1
  6
CONTINUOUS
 62
     3
100
AcDbLine
 10
436.79999999992
 20
610.9000000000002
 30
0.0
 11
436.79999999992
 21
591.66838492542
 31
0.0
  0
ARC
  5
631
330
1F
100
AcDbEntity
  8
LAY-1
  6
CONTINUOUS
 62
     3
100
AcDbCircle
 10
201.2999999999198
 20
589.6782331531326
 30
0.0
 40
2.0
100
AcDbArc
 50
0.0
 51
65.68426082873741
  0
ARC
  5
632
330
1F
100
AcDbEntity
  8
LAY-1
  6
CONTINUOUS
 62
     3
100
AcDbCircle
 10
225.8000000000006
 20
643.9
 30
0.0
 40
57.5
100
AcDbArc
 50
105.1216653149093
 51
254.8783346850908
  0
LINE
  5
633
330
1F
100
AcDbEntity
  8
LAY-1
  6
CONTINUOUS
 62
     3
100
AcDbLine
 10
203.2999999999198
 20
577.6146320821857
 30
0.0
 11
203.2999999999198
 21
589.6782331531326
 31
0.0
  0
ARC
  5
634
330
1F
100
AcDbEntity
  8
LAY-1
  6
CONTINUOUS
 62
     3
100
AcDbCircle
 10
245.2999999999197
 20
587.6861227097511
 30
0.0
 40
2.0
100
AcDbArc
 50
109.1311197627653
 51
180.0
  0
ARC
  5
635
330
1F
100
AcDbEntity
  8
LAY-1
  6
CONTINUOUS
 62
     3
100
AcDbCircle
 10
225.8000000000006
 20
643.9
 30
0.0
 40
57.5
100
AcDbArc
 50
285.1216653149089
 51
330.9732837243048
  0
LINE
  5
636
330
1F
100
AcDbEntity
  8
LAY-1
  6
CONTINUOUS
 62
     3
100
AcDbLine
 10
243.2999999999197
 20
576.12279144137
 30
0.0
 11
243.2999999999198
 21
587.6861227097511
 31
0.0
  0
ARC
  5
637
330
1F
100
AcDbEntity
  8
LAY-1
  6
CONTINUOUS
 62
     3
100
AcDbCircle
 10
225.79999999992
 20
643.9
 30
0.0
 40
70.0
100
AcDbArc
 50
251.2506591529811
 51
257.6263748838788
  0
ARC
  5
638
330
1F
100
AcDbEntity
  8
LAY-1
  6
CONTINUOUS
 62
     3
100
AcDbCircle
 10
225.79999999992
 20
643.9
 30
0.0
 40
70.0
100
AcDbArc
 50
282.3736251162559
 51
284.4775121859298
  0
ARC
  5
639
330
1F
100
AcDbEntity
  8
LAY-1
  6
CONTINUOUS
 62
     3
100
AcDbCircle
 10
250.3000000000803
 20
698.1217668468673
 30
0.0
 40
2.0
100
AcDbArc
 50
180.0
 51
245.6842608287375
  0
LINE
  5
63A
330
1F
100
AcDbEntity
  8
LAY-1
  6
CONTINUOUS
 62
     3
100
AcDbLine
 10
248.3000000000802
 20
710.1853679178142
 30
0.0
 11
248.3000000000803
 21
698.1217668468673
 31
0.0
  0
ARC
  5
63B
330
1F
100
AcDbEntity
  8
LAY-1
  6
CONTINUOUS
 62
     3
100
AcDbCircle
 10
206.3000000000803
 20
700.1138772902489
 30
0.0
 40
2.0
100
AcDbArc
 50
289.1311197627654
 51
0.0
  0
LINE
  5
63C
330
1F
100
AcDbEntity
  8
LAY-1
  6
CONTINUOUS
 62
     3
100
AcDbLine
 10
208.3000000000803
 20
711.6772085586299
 30
0.0
 11
208.3000000000803
 21
700.1138772902489
 31
0.0
  0
ARC
  5
63D
330
1F
100
AcDbEntity
  8
LAY-1
  6
CONTINUOUS
 62
     3
100
AcDbCircle
 10
225.8000000000801
 20
643.9
 30
0.0
 40
70.0
100
AcDbArc
 50
71.25065915298113
 51
77.62637488387887
  0
ARC
  5
63E
330
1F
100
AcDbEntity
  8
LAY-1
  6
CONTINUOUS
 62
     3
100
AcDbCircle
 10
225.8000000000801
 20
643.9
 30
0.0
 40
70.0
100
AcDbArc
 50
102.3736251162559
 51
104.4775121859298
  0
ARC
  5
63F
330
1F
100
AcDbEntity
  8
LAY-1
  6
CONTINUOUS
 62
     3
100
AcDbCircle
 10
530.3000000000003
 20
698.1217668468673
 30
0.0
 40
2.0
100
AcDbArc
 50
180.0
 51
245.6842608287375
  0
LINE
  5
640
330
1F
100
AcDbEntity
  8
LAY-1
  6
CONTINUOUS
 62
     3
100
AcDbLine
 10
528.3000000000003
 20
710.1853679178142
 30
0.0
 11
528.3000000000003
 21
698.1217668468673
 31
0.0
  0
ARC
  5
641
330
1F
100
AcDbEntity
  8
LAY-1
  6
CONTINUOUS
 62
     3
100
AcDbCircle
 10
486.3000000000004
 20
700.1138772902489
 30
0.0
 40
2.0
100
AcDbArc
 50
289.1311197627654
 51
0.0
  0
LINE
  5
642
330
1F
100
AcDbEntity
  8
LAY-1
  6
CONTINUOUS
 62
     3
100
AcDbLine
 10
488.3000000000004
 20
711.6772085586299
 30
0.0
 11
488.3000000000003
 21
700.1138772902489
 31
0.0
  0
ARC
  5
643
330
1F
100
AcDbEntity
  8
LAY-1
  6
CONTINUOUS
 62
     3
100
AcDbCircle
 10
505.8000000000001
 20
643.9
 30
0.0
 40
70.0
100
AcDbArc
 50
71.25065915298113
 51
77.62637488387887
  0
ARC
  5
644
330
1F
100
AcDbEntity
  8
LAY-1
  6
CONTINUOUS
 62
     3
100
AcDbCircle
 10
505.8000000000001
 20
643.9
 30
0.0
 40
70.0
100
AcDbArc
 50
102.3736251162559
 51
104.4775121859298
  0
ARC
  5
645
330
1F
100
AcDbEntity
  8
LAY-1
  6
CONTINUOUS
 62
     3
100
AcDbCircle
 10
481.2999999998398
 20
589.6782331531326
 30
0.0
 40
2.0
100
AcDbArc
 50
0.0
 51
65.68426082873741
  0
LINE
  5
646
330
1F
100
AcDbEntity
  8
LAY-1
  6
CONTINUOUS
 62
     3
100
AcDbLine
 10
483.2999999998398
 20
577.6146320821857
 30
0.0
 11
483.2999999998398
 21
589.6782331531326
 31
0.0
  0
ARC
  5
647
330
1F
100
AcDbEntity
  8
LAY-1
  6
CONTINUOUS
 62
     3
100
AcDbCircle
 10
525.2999999998398
 20
587.6861227097511
 30
0.0
 40
2.0
100
AcDbArc
 50
109.1311197627653
 51
180.0
  0
LINE
  5
648
330
1F
100
AcDbEntity
  8
LAY-1
  6
CONTINUOUS
 62
     3
100
AcDbLine
 10
523.2999999998398
 20
576.12279144137
 30
0.0
 11
523.2999999998398
 21
587.6861227097511
 31
0.0
  0
ARC
  5
649
330
1F
100
AcDbEntity
  8
LAY-1
  6
CONTINUOUS
 62
     3
100
AcDbCircle
 10
505.79999999984
 20
643.9
 30
0.0
 40
70.0
100
AcDbArc
 50
251.2506591529812
 51
257.6263748838788
  0
ARC
  5
64A
330
1F
100
AcDbEntity
  8
LAY-1
  6
CONTINUOUS
 62
     3
100
AcDbCircle
 10
505.79999999984
 20
643.9
 30
0.0
 40
70.0
100
AcDbArc
 50
282.3736251162559
 51
284.4775121859298
  0
LINE
  5
64B
330
1F
100
AcDbEntity
  8
LAY-1
  6
EXLTYPE2
 62
     1
100
AcDbLine
 10
321.8
 20
369.0999999999998
 30
0.0
 11
297.2
 21
369.0999999999998
 31
0.0
  0
LINE
  5
64C
330
1F
100
AcDbEntity
  8
LAY-1
  6
EXLTYPE2
 62
     1
100
AcDbLine
 10
323.0
 20
339.1000000000001
 30
0.0
 11
297.0
 21
339.1000000000001
 31
0.0
  0
LINE
  5
64D
330
1F
100
AcDbEntity
  8
LAY-1
  6
EXLTYPE2
 62
     1
100
AcDbLine
 10
407.0
 20
339.1000000000001
 30
0.0
 11
434.2
 21
339.1000000000001
 31
0.0
  0
LINE
  5
64E
330
1F
100
AcDbEntity
  8
LAY-1
  6
CONTINUOUS
 62
     3
100
AcDbLine
 10
359.8001219999999
 20
337.0999980016701
 30
0.0
 11
371.8001219999999
 21
337.0999980016701
 31
0.0
  0
LINE
  5
64F
330
1F
100
AcDbEntity
  8
LAY-1
  6
CONTINUOUS
 62
     3
100
AcDbLine
 10
374.8000309999999
 20
337.1
 30
0.0
 11
356.8000309999999
 21
337.1
 31
0.0
  0
LINE
  5
650
330
1F
100
AcDbEntity
  8
LAY-1
  6
CONTINUOUS
 62
     3
100
AcDbLine
 10
356.8000309999999
 20
337.1
 30
0.0
 11
354.8302429999999
 21
335.9627320000001
 31
0.0
  0
ARC
  5
651
330
1F
100
AcDbEntity
  8
LAY-1
  6
CONTINUOUS
 62
     3
100
AcDbCircle
 10
365.8006409999999
 20
323.305231
 30
0.0
 40
13.794775
100
AcDbArc
 50
66.57425692355623
 51
113.4304589304575
  0
ARC
  5
652
330
1F
100
AcDbEntity
  8
LAY-1
  6
CONTINUOUS
 62
     3
100
AcDbCircle
 10
356.714154
 20
330.830133
 30
0.0
 40
6.271714
100
AcDbArc
 50
54.94430230221172
 51
89.21531445172523
  0
LINE
  5
653
330
1F
100
AcDbEntity
  8
LAY-1
  6
CONTINUOUS
 62
     3
100
AcDbLine
 10
374.8000309999999
 20
337.1
 30
0.0
 11
376.7698179999999
 21
335.9627320000001
 31
0.0
  0
ARC
  5
654
330
1F
100
AcDbEntity
  8
LAY-1
  6
CONTINUOUS
 62
     3
100
AcDbCircle
 10
374.8859069999999
 20
330.830133
 30
0.0
 40
6.271714
100
AcDbArc
 50
90.78468554827482
 51
125.0556976977886
  0
LINE
  5
655
330
1F
100
AcDbEntity
  8
LAY-1
  6
CONTINUOUS
 62
     3
100
AcDbLine
 10
354.8303039999999
 20
327.1
 30
0.0
 11
376.7696959999999
 21
327.1
 31
0.0
  0
LINE
  5
656
330
1F
100
AcDbEntity
  8
LAY-1
  6
CONTINUOUS
 62
     3
100
AcDbLine
 10
354.8302729999999
 20
335.9627320000001
 30
0.0
 11
354.8303039999999
 21
327.1
 31
0.0
  0
LINE
  5
657
330
1F
100
AcDbEntity
  8
LAY-1
  6
CONTINUOUS
 62
     3
100
AcDbLine
 10
360.3152589999999
 20
335.9627320000001
 30
0.0
 11
360.3152739999999
 21
327.100061
 31
0.0
  0
LINE
  5
658
330
1F
100
AcDbEntity
  8
LAY-1
  6
CONTINUOUS
 62
     3
100
AcDbLine
 10
371.2847869999999
 20
335.9627320000001
 30
0.0
 11
371.2848019999998
 21
327.100061
 31
0.0
  0
LINE
  5
659
330
1F
100
AcDbEntity
  8
LAY-1
  6
CONTINUOUS
 62
     3
100
AcDbLine
 10
376.7697879999999
 20
335.9627320000001
 30
0.0
 11
376.7698029999999
 21
327.1
 31
0.0
  0
LINE
  5
65A
330
1F
100
AcDbEntity
  8
LAY-1
  6
CONTINUOUS
 62
     3
100
AcDbLine
 10
375.8
 20
336.5226620722485
 30
0.0
 11
375.8
 21
358.6
 31
0.0
  0
LINE
  5
65B
330
1F
100
AcDbEntity
  8
LAY-1
  6
CONTINUOUS
 62
     3
100
AcDbLine
 10
355.8
 20
336.5226265693019
 30
0.0
 11
355.8
 21
358.6
 31
0.0
  0
LINE
  5
65C
330
1F
100
AcDbEntity
  8
LAY-1
  6
CONTINUOUS
 62
     3
100
AcDbLine
 10
371.7998779999999
 20
304.1
 30
0.0
 11
359.7998779999999
 21
304.1
 31
0.0
  0
LINE
  5
65D
330
1F
100
AcDbEntity
  8
LAY-1
  6
CONTINUOUS
 62
     1
100
AcDbLine
 10
370.8028759999999
 20
304.100008
 30
0.0
 11
371.7998779999999
 21
301.475
 31
0.0
  0
LINE
  5
65E
330
1F
100
AcDbEntity
  8
LAY-1
  6
CONTINUOUS
 62
     1
100
AcDbLine
 10
360.7967569999999
 20
304.100008
 30
0.0
 11
359.7997559999999
 21
301.475
 31
0.0
  0
LINE
  5
65F
330
1F
100
AcDbEntity
  8
LAY-1
  6
CONTINUOUS
 62
     3
100
AcDbLine
 10
359.7999309999998
 20
301.475
 30
0.0
 11
359.7999483233702
 21
294.1000164424364
 31
0.0
  0
LINE
  5
660
330
1F
100
AcDbEntity
  8
LAY-1
  6
CONTINUOUS
 62
     3
100
AcDbLine
 10
371.7999309999998
 20
301.475
 30
0.0
 11
371.799948323304
 21
294.1000446296781
 31
0.0
  0
LINE
  5
661
330
1F
100
AcDbEntity
  8
LAY-1
  6
EXLTYPE2
 62
     1
100
AcDbLine
 10
365.8000000000001
 20
292.0
 30
0.0
 11
365.8000000000001
 21
302.7
 31
0.0
  0
LINE
  5
662
330
1F
100
AcDbEntity
  8
LAY-1
  6
CONTINUOUS
 62
     3
100
AcDbLine
 10
359.7999309999998
 20
301.475
 30
0.0
 11
359.7999037678748
 21
313.1000386516946
 31
0.0
  0
LINE
  5
663
330
1F
100
AcDbEntity
  8
LAY-1
  6
CONTINUOUS
 62
     1
100
AcDbLine
 10
360.7967569999999
 20
313.1
 30
0.0
 11
360.7967569999999
 21
304.100008
 31
0.0
  0
LINE
  5
664
330
1F
100
AcDbEntity
  8
LAY-1
  6
CONTINUOUS
 62
     1
100
AcDbLine
 10
370.8028759999999
 20
313.1
 30
0.0
 11
370.8028759999999
 21
304.100008
 31
0.0
  0
LINE
  5
665
330
1F
100
AcDbEntity
  8
LAY-1
  6
CONTINUOUS
 62
     3
100
AcDbLine
 10
371.7999309999998
 20
301.475
 30
0.0
 11
371.7999037680186
 21
313.0999613478017
 31
0.0
  0
LINE
  5
666
330
1F
100
AcDbEntity
  8
LAY-1
  6
CONTINUOUS
 62
     3
100
AcDbLine
 10
415.8
 20
329.1000000000002
 30
0.0
 11
415.8
 21
368.6
 31
0.0
  0
LINE
  5
667
330
1F
100
AcDbEntity
  8
LAY-1
  6
CONTINUOUS
 62
     3
100
AcDbLine
 10
420.8
 20
329.1
 30
0.0
 11
420.8
 21
368.6
 31
0.0
  0
LINE
  5
668
330
1F
100
AcDbEntity
  8
LAY-1
  6
CONTINUOUS
 62
     3
100
AcDbLine
 10
415.8
 20
368.6
 30
0.0
 11
420.8
 21
368.6
 31
0.0
  0
LINE
  5
669
330
1F
100
AcDbEntity
  8
LAY-1
  6
CONTINUOUS
 62
     3
100
AcDbLine
 10
542.7550807568898
 20
363.6000000000001
 30
0.0
 11
420.8
 21
363.6000000000003
 31
0.0
  0
LINE
  5
66A
330
1F
100
AcDbEntity
  8
LAY-1
  6
CONTINUOUS
 62
     3
100
AcDbLine
 10
415.8
 20
363.6000000000003
 30
0.0
 11
385.8
 21
363.6000000000004
 31
0.0
  0
LINE
  5
66B
330
1F
100
AcDbEntity
  8
LAY-1
  6
EXLTYPE2
 62
     1
100
AcDbLine
 10
505.8000000000001
 20
326.0
 30
0.0
 11
505.8
 21
226.60000000003
 31
0.0
  0
LINE
  5
66C
330
1F
100
AcDbEntity
  8
LAY-1
  6
EXLTYPE2
 62
     1
100
AcDbLine
 10
225.8000000000004
 20
32.00000000000001
 30
0.0
 11
225.7999999999989
 21
326.2
 31
0.0
  0
LINE
  5
66D
330
1F
100
AcDbEntity
  8
LAY-1
  6
CONTINUOUS
 62
     3
100
AcDbLine
 10
402.2265288711699
 20
280.0999980016701
 30
0.0
 11
414.2265288711699
 21
280.0999980016701
 31
0.0
  0
ARC
  5
66E
330
1F
100
AcDbEntity
  8
LAY-1
  6
CONTINUOUS
 62
     3
100
AcDbCircle
 10
408.2265898711699
 20
274.66008200167
 30
0.0
 40
9.999918
100
AcDbArc
 50
53.13010858755209
 51
126.870481970337
  0
LINE
  5
66F
330
1F
100
AcDbEntity
  8
LAY-1
  6
CONTINUOUS
 62
     3
100
AcDbLine
 10
402.22640687117
 20
280.0999980016701
 30
0.0
 11
402.22640687117
 21
282.6598422464047
 31
0.0
  0
LINE
  5
670
330
1F
100
AcDbEntity
  8
LAY-1
  6
CONTINUOUS
 62
     1
100
AcDbLine
 10
403.22640687117
 20
283.3201356951085
 30
0.0
 11
403.22640687117
 21
280.0999980016701
 31
0.0
  0
LINE
  5
671
330
1F
100
AcDbEntity
  8
LAY-1
  6
CONTINUOUS
 62
     3
100
AcDbLine
 10
414.2264068711702
 20
280.0999980016701
 30
0.0
 11
414.2264068711702
 21
282.6598422464047
 31
0.0
  0
LINE
  5
672
330
1F
100
AcDbEntity
  8
LAY-1
  6
CONTINUOUS
 62
     1
100
AcDbLine
 10
413.2264068711702
 20
283.3201356951085
 30
0.0
 11
413.2264068711702
 21
280.0999980016701
 31
0.0
  0
LINE
  5
673
330
1F
100
AcDbEntity
  8
LAY-1
  6
CONTINUOUS
 62
     3
100
AcDbLine
 10
399.22637587117
 20
280.1
 30
0.0
 11
417.22637587117
 21
280.1
 31
0.0
  0
LINE
  5
674
330
1F
100
AcDbEntity
  8
LAY-1
  6
CONTINUOUS
 62
     3
100
AcDbLine
 10
417.22637587117
 20
280.1
 30
0.0
 11
419.19616387117
 21
278.9627320000001
 31
0.0
  0
ARC
  5
675
330
1F
100
AcDbEntity
  8
LAY-1
  6
CONTINUOUS
 62
     3
100
AcDbCircle
 10
408.22576587117
 20
266.305231
 30
0.0
 40
13.794775
100
AcDbArc
 50
66.5695410695425
 51
113.4257430764437
  0
ARC
  5
676
330
1F
100
AcDbEntity
  8
LAY-1
  6
CONTINUOUS
 62
     3
100
AcDbCircle
 10
417.31225287117
 20
273.830133
 30
0.0
 40
6.271714
100
AcDbArc
 50
90.78468554827452
 51
125.0556976977885
  0
LINE
  5
677
330
1F
100
AcDbEntity
  8
LAY-1
  6
CONTINUOUS
 62
     3
100
AcDbLine
 10
399.22637587117
 20
280.1
 30
0.0
 11
397.25658887117
 21
278.9627320000001
 31
0.0
  0
ARC
  5
678
330
1F
100
AcDbEntity
  8
LAY-1
  6
CONTINUOUS
 62
     3
100
AcDbCircle
 10
399.1404998711701
 20
273.830133
 30
0.0
 40
6.271714
100
AcDbArc
 50
54.94430230221137
 51
89.21531445172552
  0
LINE
  5
679
330
1F
100
AcDbEntity
  8
LAY-1
  6
CONTINUOUS
 62
     3
100
AcDbLine
 10
419.19610287117
 20
270.1
 30
0.0
 11
397.25671087117
 21
270.1
 31
0.0
  0
LINE
  5
67A
330
1F
100
AcDbEntity
  8
LAY-1
  6
CONTINUOUS
 62
     3
100
AcDbLine
 10
419.19613387117
 20
278.9627320000001
 30
0.0
 11
419.19610287117
 21
270.1
 31
0.0
  0
LINE
  5
67B
330
1F
100
AcDbEntity
  8
LAY-1
  6
CONTINUOUS
 62
     3
100
AcDbLine
 10
413.71114787117
 20
278.9627320000001
 30
0.0
 11
413.71113287117
 21
270.100061
 31
0.0
  0
LINE
  5
67C
330
1F
100
AcDbEntity
  8
LAY-1
  6
CONTINUOUS
 62
     3
100
AcDbLine
 10
402.74161987117
 20
278.9627320000001
 30
0.0
 11
402.74160487117
 21
270.100061
 31
0.0
  0
LINE
  5
67D
330
1F
100
AcDbEntity
  8
LAY-1
  6
CONTINUOUS
 62
     3
100
AcDbLine
 10
397.25661887117
 20
278.9627320000001
 30
0.0
 11
397.25660387117
 21
270.1
 31
0.0
  0
ARC
  5
67E
330
1F
100
AcDbEntity
  8
LAY-1
  6
CONTINUOUS
 62
     3
100
AcDbCircle
 10
402.983558864433
 20
278.1000000000001
 30
0.0
 40
8.0
100
AcDbArc
 50
151.1745508395872
 51
224.2855490073996
  0
ARC
  5
67F
330
1F
100
AcDbEntity
  8
LAY-1
  6
CONTINUOUS
 62
     3
100
AcDbCircle
 10
402.983558864433
 20
278.1000000000001
 30
0.0
 40
8.0
100
AcDbArc
 50
268.2668679236327
 51
270.0
  0
ARC
  5
680
330
1F
100
AcDbEntity
  8
LAY-1
  6
CONTINUOUS
 62
     3
100
AcDbCircle
 10
428.6876313263701
 20
293.4194855067101
 30
0.0
 40
25.0
100
AcDbArc
 50
162.784230670606
 51
201.4928915766581
  0
LINE
  5
681
330
1F
100
AcDbEntity
  8
LAY-1
  6
CONTINUOUS
 62
     3
100
AcDbLine
 10
414.22653980083
 20
282.66001705442
 30
0.0
 11
402.22640687117
 21
282.66001705442
 31
0.0
  0
ARC
  5
682
330
1F
100
AcDbEntity
  8
LAY-1
  6
CONTINUOUS
 62
     3
100
AcDbCircle
 10
312.8
 20
268.1000000000001
 30
0.0
 40
2.0
100
AcDbArc
 50
89.99999999999837
 51
180.0
  0
ARC
  5
683
330
1F
100
AcDbEntity
  8
LAY-1
  6
CONTINUOUS
 62
     3
100
AcDbCircle
 10
312.8
 20
268.1000000000001
 30
0.0
 40
2.0
100
AcDbArc
 50
89.99999999999837
 51
180.0
  0
LINE
  5
684
330
1F
100
AcDbEntity
  8
LAY-1
  6
CONTINUOUS
 62
     3
100
AcDbLine
 10
329.37347112883
 20
280.0999980016701
 30
0.0
 11
317.37347112883
 21
280.0999980016701
 31
0.0
  0
ARC
  5
685
330
1F
100
AcDbEntity
  8
LAY-1
  6
CONTINUOUS
 62
     3
100
AcDbCircle
 10
323.37341012883
 20
274.66008200167
 30
0.0
 40
9.999918
100
AcDbArc
 50
53.12951802966296
 51
126.869891412448
  0
LINE
  5
686
330
1F
100
AcDbEntity
  8
LAY-1
  6
CONTINUOUS
 62
     3
100
AcDbLine
 10
329.37359312883
 20
280.0999980016701
 30
0.0
 11
329.37359312883
 21
282.6598422464047
 31
0.0
  0
LINE
  5
687
330
1F
100
AcDbEntity
  8
LAY-1
  6
CONTINUOUS
 62
     1
100
AcDbLine
 10
328.3735931288299
 20
283.3201356951085
 30
0.0
 11
328.3735931288299
 21
280.0999980016701
 31
0.0
  0
LINE
  5
688
330
1F
100
AcDbEntity
  8
LAY-1
  6
CONTINUOUS
 62
     3
100
AcDbLine
 10
317.3735931288297
 20
280.0999980016701
 30
0.0
 11
317.3735931288297
 21
282.6598422464047
 31
0.0
  0
LINE
  5
689
330
1F
100
AcDbEntity
  8
LAY-1
  6
CONTINUOUS
 62
     1
100
AcDbLine
 10
318.3735931288297
 20
283.3201356951085
 30
0.0
 11
318.3735931288297
 21
280.0999980016701
 31
0.0
  0
LINE
  5
68A
330
1F
100
AcDbEntity
  8
LAY-1
  6
CONTINUOUS
 62
     3
100
AcDbLine
 10
332.3736241288299
 20
280.1
 30
0.0
 11
314.3736241288299
 21
280.1
 31
0.0
  0
LINE
  5
68B
330
1F
100
AcDbEntity
  8
LAY-1
  6
CONTINUOUS
 62
     3
100
AcDbLine
 10
314.3736241288299
 20
280.1
 30
0.0
 11
312.4038361288299
 21
278.9627320000001
 31
0.0
  0
ARC
  5
68C
330
1F
100
AcDbEntity
  8
LAY-1
  6
CONTINUOUS
 62
     3
100
AcDbCircle
 10
323.3742341288299
 20
266.305231
 30
0.0
 40
13.794775
100
AcDbArc
 50
66.57425692355646
 51
113.4304589304575
  0
ARC
  5
68D
330
1F
100
AcDbEntity
  8
LAY-1
  6
CONTINUOUS
 62
     3
100
AcDbCircle
 10
314.2877471288299
 20
273.830133
 30
0.0
 40
6.271714
100
AcDbArc
 50
54.94430230221172
 51
89.21531445172569
  0
LINE
  5
68E
330
1F
100
AcDbEntity
  8
LAY-1
  6
CONTINUOUS
 62
     3
100
AcDbLine
 10
332.3736241288299
 20
280.1
 30
0.0
 11
334.3434111288299
 21
278.9627320000001
 31
0.0
  0
ARC
  5
68F
330
1F
100
AcDbEntity
  8
LAY-1
  6
CONTINUOUS
 62
     3
100
AcDbCircle
 10
332.4595001288299
 20
273.830133
 30
0.0
 40
6.271714
100
AcDbArc
 50
90.78468554827431
 51
125.0556976977886
  0
LINE
  5
690
330
1F
100
AcDbEntity
  8
LAY-1
  6
CONTINUOUS
 62
     3
100
AcDbLine
 10
312.40389712883
 20
270.1
 30
0.0
 11
334.3432891288299
 21
270.1
 31
0.0
  0
LINE
  5
691
330
1F
100
AcDbEntity
  8
LAY-1
  6
CONTINUOUS
 62
     3
100
AcDbLine
 10
312.4038661288299
 20
278.9627320000001
 30
0.0
 11
312.40389712883
 21
270.1
 31
0.0
  0
LINE
  5
692
330
1F
100
AcDbEntity
  8
LAY-1
  6
CONTINUOUS
 62
     3
100
AcDbLine
 10
317.8888521288299
 20
278.9627320000001
 30
0.0
 11
317.8888671288299
 21
270.100061
 31
0.0
  0
LINE
  5
693
330
1F
100
AcDbEntity
  8
LAY-1
  6
CONTINUOUS
 62
     3
100
AcDbLine
 10
328.8583801288299
 20
278.9627320000001
 30
0.0
 11
328.8583951288299
 21
270.100061
 31
0.0
  0
LINE
  5
694
330
1F
100
AcDbEntity
  8
LAY-1
  6
CONTINUOUS
 62
     3
100
AcDbLine
 10
334.3433811288299
 20
278.9627320000001
 30
0.0
 11
334.3433961288299
 21
270.1
 31
0.0
  0
ARC
  5
695
330
1F
100
AcDbEntity
  8
LAY-1
  6
CONTINUOUS
 62
     3
100
AcDbCircle
 10
328.6164411355669
 20
278.1000000000001
 30
0.0
 40
8.0
100
AcDbArc
 50
270.0
 51
271.7331320763674
  0
LINE
  5
696
330
1F
100
AcDbEntity
  8
LAY-1
  6
CONTINUOUS
 62
     3
100
AcDbLine
 10
317.3734601991699
 20
282.66001705442
 30
0.0
 11
329.3735931288299
 21
282.66001705442
 31
0.0
  0
LINE
  5
697
330
1F
100
AcDbEntity
  8
LAY-1
  6
EXLTYPE2
 62
     1
100
AcDbLine
 10
408.22640687117
 20
287.0
 30
0.0
 11
408.2264068711701
 21
260.4556088553791
 31
0.0
  0
LINE
  5
698
330
1F
100
AcDbEntity
  8
LAY-1
  6
EXLTYPE2
 62
     1
100
AcDbLine
 10
323.3735931288299
 20
287.0
 30
0.0
 11
323.3735931288298
 21
260.4556088553791
 31
0.0
  0
ARC
  5
699
330
1F
100
AcDbEntity
  8
LAY-1
  6
CONTINUOUS
 62
     3
100
AcDbCircle
 10
302.91236867363
 20
293.41948550671
 30
0.0
 40
25.0
100
AcDbArc
 50
338.5071084233418
 51
17.21576932939409
  0
ARC
  5
69A
330
1F
100
AcDbEntity
  8
LAY-1
  6
CONTINUOUS
 62
     3
100
AcDbCircle
 10
402.9835588644328
 20
278.1
 30
0.0
 40
8.0
100
AcDbArc
 50
151.174550839587
 51
270.0
  0
ARC
  5
69B
330
1F
100
AcDbEntity
  8
LAY-1
  6
CONTINUOUS
 62
     3
100
AcDbCircle
 10
402.9835588644328
 20
278.1
 30
0.0
 40
8.0
100
AcDbArc
 50
151.174550839587
 51
270.0
  0
ARC
  5
69C
330
1F
100
AcDbEntity
  8
LAY-1
  6
CONTINUOUS
 62
     3
100
AcDbCircle
 10
328.6164411355671
 20
278.1
 30
0.0
 40
8.0
100
AcDbArc
 50
270.0
 51
271.7331320763657
  0
ARC
  5
69D
330
1F
100
AcDbEntity
  8
LAY-1
  6
CONTINUOUS
 62
     3
100
AcDbCircle
 10
328.6164411355671
 20
278.1
 30
0.0
 40
8.0
100
AcDbArc
 50
315.7144509925981
 51
28.82544916041283
  0
LINE
  5
69E
330
1F
100
AcDbEntity
  8
LAY-1
  6
CONTINUOUS
 62
     3
100
AcDbLine
 10
778.6001219999999
 20
337.0999980016701
 30
0.0
 11
790.6001219999999
 21
337.0999980016701
 31
0.0
  0
ARC
  5
69F
330
1F
100
AcDbEntity
  8
LAY-1
  6
CONTINUOUS
 62
     3
100
AcDbCircle
 10
784.6001829999999
 20
331.66008200167
 30
0.0
 40
9.999918
100
AcDbArc
 50
53.13010858755209
 51
126.870481970337
  0
LINE
  5
6A0
330
1F
100
AcDbEntity
  8
LAY-1
  6
CONTINUOUS
 62
     3
100
AcDbLine
 10
778.5999999999999
 20
337.0999980016701
 30
0.0
 11
778.5999999999999
 21
339.6598422464047
 31
0.0
  0
LINE
  5
6A1
330
1F
100
AcDbEntity
  8
LAY-1
  6
CONTINUOUS
 62
     1
100
AcDbLine
 10
779.6
 20
340.3201356951085
 30
0.0
 11
779.6
 21
337.0999980016701
 31
0.0
  0
LINE
  5
6A2
330
1F
100
AcDbEntity
  8
LAY-1
  6
CONTINUOUS
 62
     3
100
AcDbLine
 10
790.6000000000003
 20
337.0999980016701
 30
0.0
 11
790.6000000000003
 21
339.6598422464047
 31
0.0
  0
LINE
  5
6A3
330
1F
100
AcDbEntity
  8
LAY-1
  6
CONTINUOUS
 62
     1
100
AcDbLine
 10
789.6000000000001
 20
340.3201356951085
 30
0.0
 11
789.6000000000001
 21
337.0999980016701
 31
0.0
  0
LINE
  5
6A4
330
1F
100
AcDbEntity
  8
LAY-1
  6
CONTINUOUS
 62
     3
100
AcDbLine
 10
790.60013292966
 20
339.66001705442
 30
0.0
 11
778.6
 21
339.66001705442
 31
0.0
  0
LINE
  5
6A5
330
1F
100
AcDbEntity
  8
LAY-1
  6
EXLTYPE0
 62
     1
100
AcDbLine
 10
784.5999999999999
 20
308.1
 30
0.0
 11
784.5999999999999
 21
343.0
 31
0.0
  0
LINE
  5
6A6
330
1F
100
AcDbEntity
  8
LAY-1
  6
CONTINUOUS
 62
     3
100
AcDbLine
 10
767.1000000000001
 20
388.1
 30
0.0
 11
767.1000000000001
 21
394.1
 31
0.0
  0
LINE
  5
6A7
330
1F
100
AcDbEntity
  8
LAY-1
  6
CONTINUOUS
 62
     3
100
AcDbLine
 10
722.0999999999999
 20
394.1
 30
0.0
 11
722.0999999999999
 21
388.1
 31
0.0
  0
LINE
  5
6A8
330
1F
100
AcDbEntity
  8
LAY-1
  6
CONTINUOUS
 62
     3
100
AcDbLine
 10
726.675
 20
394.1
 30
0.0
 11
722.0999999999999
 21
394.1
 31
0.0
  0
LINE
  5
6A9
330
1F
100
AcDbEntity
  8
LAY-1
  6
CONTINUOUS
 62
     3
100
AcDbLine
 10
744.5999999999999
 20
394.1
 30
0.0
 11
767.0999999999999
 21
394.1
 31
0.0
  0
LINE
  5
6AA
330
1F
100
AcDbEntity
  8
LAY-1
  6
CONTINUOUS
 62
     3
100
AcDbLine
 10
731.4800000000002
 20
388.1
 30
0.0
 11
722.0999999999999
 21
388.1
 31
0.0
  0
LINE
  5
6AB
330
1F
100
AcDbEntity
  8
LAY-1
  6
CONTINUOUS
 62
     3
100
AcDbLine
 10
767.0999999999999
 20
388.1
 30
0.0
 11
757.7200000000007
 21
388.1
 31
0.0
  0
LINE
  5
6AC
330
1F
100
AcDbEntity
  8
LAY-1
  6
EXLTYPE2
 62
     1
100
AcDbLine
 10
704.8
 20
432.4
 30
0.0
 11
780.4
 21
432.4
 31
0.0
  0
LINE
  5
6AD
330
1F
100
AcDbEntity
  8
LAY-1
  6
CONTINUOUS
 62
     3
100
AcDbLine
 10
849.1
 20
225.6000000000004
 30
0.0
 11
853.4999999999998
 21
225.6000000000004
 31
0.0
  0
LINE
  5
6AE
330
1F
100
AcDbEntity
  8
LAY-1
  6
CONTINUOUS
 62
     3
100
AcDbLine
 10
834.6
 20
227.6000000000004
 30
0.0
 11
834.6
 21
236.6
 31
0.0
  0
LINE
  5
6AF
330
1F
100
AcDbEntity
  8
LAY-1
  6
CONTINUOUS
 62
     3
100
AcDbLine
 10
694.5999999999999
 20
236.6
 30
0.0
 11
694.5999999999999
 21
230.6000000000004
 31
0.0
  0
LINE
  5
6B0
330
1F
100
AcDbEntity
  8
LAY-1
  6
CONTINUOUS
 62
     3
100
AcDbLine
 10
694.5999999999992
 20
227.6
 30
0.0
 11
694.5999999999991
 21
236.5999999999998
 31
0.0
  0
LINE
  5
6B1
330
1F
100
AcDbEntity
  8
LAY-1
  6
EXLTYPE2
 62
     1
100
AcDbLine
 10
225.8000000000002
 20
739.6
 30
0.0
 11
225.8000000000002
 21
547.4
 31
0.0
  0
LINE
  5
6B2
330
1F
100
AcDbEntity
  8
LAY-1
  6
EXLTYPE2
 62
     1
100
AcDbLine
 10
484.0999999999201
 20
568.9
 30
0.0
 11
529.6
 21
568.9000000000002
 31
0.0
  0
LINE
  5
6B3
330
1F
100
AcDbEntity
  8
LAY-1
  6
EXLTYPE2
 62
     1
100
AcDbLine
 10
481.6999999999201
 20
718.9000000000002
 30
0.0
 11
528.6
 21
718.9000000000002
 31
0.0
  0
LINE
  5
6B4
330
1F
100
AcDbEntity
  8
LAY-1
  6
EXLTYPE0
 62
     1
100
AcDbLine
 10
704.5999999999999
 20
307.1
 30
0.0
 11
704.5999999999999
 21
332.8
 31
0.0
  0
LINE
  5
6B5
330
1F
100
AcDbEntity
  8
LAY-1
  6
EXLTYPE2
 62
     1
100
AcDbLine
 10
764.6
 20
325.0
 30
0.0
 11
764.6
 21
33.0
 31
0.0
  0
INSERT
  5
6B6
330
1F
100
AcDbEntity
  8
LAY-1
  6
CONTINUOUS
 62
     0
100
AcDbBlockReference
  2
矢印1
 10
422.32602170282
 20
591.36468615365
 30
0.0
 41
3.0
 42
3.0
 50
330.0
  0
TEXT
  5
6B7
330
1F
100
AcDbEntity
  8
LAY-1
  6
CONTINUOUS
 62
     3
100
AcDbText
 10
76.99999999999999
 20
761.6875
 30
0.0
 40
8.203189124487004
  1
口径  : ４０Ａ
 41
1.0
  7
EXCADTTF1
 72
     5
 11
161.0
 21
761.6875
 31
0.0
100
AcDbText
  0
CIRCLE
  5
6B8
330
1F
100
AcDbEntity
  8
LAY-1
  6
CONTINUOUS
 62
     3
100
AcDbCircle
 10
365.8
 20
195.6
 30
0.0
 40
70.0
  0
CIRCLE
  5
6B9
330
1F
100
AcDbEntity
  8
LAY-1
  6
EXLTYPE2
 62
     1
100
AcDbCircle
 10
365.8
 20
195.6
 30
0.0
 40
52.5
  0
CIRCLE
  5
6BA
330
1F
100
AcDbEntity
  8
LAY-1
  6
CONTINUOUS
 62
     3
100
AcDbCircle
 10
365.8
 20
195.6
 30
0.0
 40
40.5
  0
CIRCLE
  5
6BB
330
1F
100
AcDbEntity
  8
LAY-1
  6
CONTINUOUS
 62
     3
100
AcDbCircle
 10
328.6768939876999
 20
232.72310601229
 30
0.0
 40
9.5
  0
CIRCLE
  5
6BC
330
1F
100
AcDbEntity
  8
LAY-1
  6
CONTINUOUS
 62
     3
100
AcDbCircle
 10
402.9231060123
 20
232.72310601229
 30
0.0
 40
9.5
  0
CIRCLE
  5
6BD
330
1F
100
AcDbEntity
  8
LAY-1
  6
CONTINUOUS
 62
     3
100
AcDbCircle
 10
402.9231060123
 20
158.4768939877103
 30
0.0
 40
9.5
  0
CIRCLE
  5
6BE
330
1F
100
AcDbEntity
  8
LAY-1
  6
CONTINUOUS
 62
     3
100
AcDbCircle
 10
328.6768939876999
 20
158.4768939877103
 30
0.0
 40
9.5
  0
LINE
  5
6BF
330
1F
100
AcDbEntity
  8
LAY-1
  6
EXLTYPE2
 62
     1
100
AcDbLine
 10
415.2974746830616
 20
245.0974746830584
 30
0.0
 11
394.4378246380568
 21
224.2378246380536
 31
0.0
  0
LINE
  5
6C0
330
1F
100
AcDbEntity
  8
LAY-1
  6
EXLTYPE2
 62
     1
100
AcDbLine
 10
316.3025253169384
 20
245.0974746830584
 30
0.0
 11
337.1621753619432
 21
224.2378246380536
 31
0.0
  0
LINE
  5
6C1
330
1F
100
AcDbEntity
  8
LAY-1
  6
EXLTYPE2
 62
     1
100
AcDbLine
 10
316.3025253169399
 20
146.1025253169435
 30
0.0
 11
337.162175361943
 21
166.9621753619466
 31
0.0
  0
LINE
  5
6C2
330
1F
100
AcDbEntity
  8
LAY-1
  6
EXLTYPE2
 62
     1
100
AcDbLine
 10
415.29747468306
 20
146.1025253169434
 30
0.0
 11
394.4378246380569
 21
166.9621753619465
 31
0.0
  0
ARC
  5
6C3
330
1F
100
AcDbEntity
  8
LAY-1
  6
CONTINUOUS
 62
     3
100
AcDbCircle
 10
860.5999999999998
 20
235.4482249603996
 30
0.0
 40
8.0
100
AcDbArc
 50
283.1340223063964
 51
0.0
  0
LINE
  5
6C4
330
1F
100
AcDbEntity
  8
LAY-1
  6
CONTINUOUS
 62
     3
100
AcDbLine
 10
853.5999999999998
 20
165.5999999999999
 30
0.0
 11
862.417836924851
 21
163.5425047175347
 31
0.0
  0
ARC
  5
6C5
330
1F
100
AcDbEntity
  8
LAY-1
  6
CONTINUOUS
 62
     3
100
AcDbCircle
 10
860.5999999999998
 20
155.7517750396003
 30
0.0
 40
8.0
100
AcDbArc
 50
0.0
 51
76.86597769360365
  0
LINE
  5
6C6
330
1F
100
AcDbEntity
  8
LAY-1
  6
CONTINUOUS
 62
     3
100
AcDbLine
 10
853.5999999999998
 20
225.5999999999999
 30
0.0
 11
862.417836924851
 21
227.6574952824653
 31
0.0
  0
LINE
  5
6C7
330
1F
100
AcDbEntity
  8
LAY-1
  6
CONTINUOUS
 62
     3
100
AcDbLine
 10
884.5999999999998
 20
236.1000000000001
 30
0.0
 11
882.6000000000003
 21
236.1000000000001
 31
0.0
  0
LINE
  5
6C8
330
1F
100
AcDbEntity
  8
LAY-1
  6
CONTINUOUS
 62
     3
100
AcDbLine
 10
870.5999999999998
 20
265.6000000000001
 30
0.0
 11
882.5999999999998
 21
265.6000000000001
 31
0.0
  0
ARC
  5
6C9
330
1F
100
AcDbEntity
  8
LAY-1
  6
CONTINUOUS
 62
     3
100
AcDbCircle
 10
870.5999999999998
 20
263.6000000000001
 30
0.0
 40
2.0
100
AcDbArc
 50
90.00000000000001
 51
180.0
  0
LINE
  5
6CA
330
1F
100
AcDbEntity
  8
LAY-1
  6
EXLTYPE2
 62
     1
100
AcDbLine
 10
893.6999999999997
 20
248.1000000000001
 30
0.0
 11
856.6999999999997
 21
248.1000000000001
 31
0.0
  0
LINE
  5
6CB
330
1F
100
AcDbEntity
  8
LAY-1
  6
CONTINUOUS
 62
     3
100
AcDbLine
 10
884.5999999999998
 20
155.0999999999999
 30
0.0
 11
882.6000000000003
 21
155.0999999999999
 31
0.0
  0
LINE
  5
6CC
330
1F
100
AcDbEntity
  8
LAY-1
  6
CONTINUOUS
 62
     3
100
AcDbLine
 10
870.5999999999998
 20
125.5999999999999
 30
0.0
 11
882.5999999999998
 21
125.5999999999999
 31
0.0
  0
ARC
  5
6CD
330
1F
100
AcDbEntity
  8
LAY-1
  6
CONTINUOUS
 62
     3
100
AcDbCircle
 10
870.5999999999998
 20
127.5999999999999
 30
0.0
 40
2.0
100
AcDbArc
 50
180.0
 51
270.0
  0
LINE
  5
6CE
330
1F
100
AcDbEntity
  8
LAY-1
  6
EXLTYPE2
 62
     1
100
AcDbLine
 10
893.6999999999997
 20
143.0999999999999
 30
0.0
 11
856.6999999999997
 21
143.0999999999999
 31
0.0
  0
LINE
  5
6CF
330
1F
100
AcDbEntity
  8
LAY-1
  6
CONTINUOUS
 62
     3
100
AcDbLine
 10
882.5999999999998
 20
195.6000000000002
 30
0.0
 11
882.5999999999998
 21
265.6000000000001
 31
0.0
  0
LINE
  5
6D0
330
1F
100
AcDbEntity
  8
LAY-1
  6
CONTINUOUS
 62
     3
100
AcDbLine
 10
868.5999999999998
 20
195.6000000000001
 30
0.0
 11
868.5999999999998
 21
263.6000000000001
 31
0.0
  0
LINE
  5
6D1
330
1F
100
AcDbEntity
  8
LAY-1
  6
CONTINUOUS
 62
     3
100
AcDbLine
 10
884.5999999999998
 20
195.5999999999999
 30
0.0
 11
884.5999999999998
 21
236.1000000000001
 31
0.0
  0
LINE
  5
6D2
330
1F
100
AcDbEntity
  8
LAY-1
  6
CONTINUOUS
 62
     3
100
AcDbLine
 10
868.5999999999998
 20
195.6
 30
0.0
 11
868.5999999999998
 21
127.5999999999999
 31
0.0
  0
LINE
  5
6D3
330
1F
100
AcDbEntity
  8
LAY-1
  6
CONTINUOUS
 62
     3
100
AcDbLine
 10
882.5999999999998
 20
195.6
 30
0.0
 11
882.5999999999998
 21
125.5999999999999
 31
0.0
  0
LINE
  5
6D4
330
1F
100
AcDbEntity
  8
LAY-1
  6
CONTINUOUS
 62
     3
100
AcDbLine
 10
884.5999999999998
 20
195.5999999999999
 30
0.0
 11
884.5999999999998
 21
155.0999999999999
 31
0.0
  0
ARC
  5
6D5
330
1F
100
AcDbEntity
  8
LAY-1
  6
CONTINUOUS
 62
     3
100
AcDbCircle
 10
668.6000000000003
 20
235.4482249603996
 30
0.0
 40
8.0
100
AcDbArc
 50
180.0
 51
256.8659776936037
  0
LINE
  5
6D6
330
1F
100
AcDbEntity
  8
LAY-1
  6
CONTINUOUS
 62
     3
100
AcDbLine
 10
675.6000000000003
 20
165.5999999999999
 30
0.0
 11
666.782163075149
 21
163.5425047175347
 31
0.0
  0
ARC
  5
6D7
330
1F
100
AcDbEntity
  8
LAY-1
  6
CONTINUOUS
 62
     3
100
AcDbCircle
 10
668.6000000000003
 20
155.7517750396003
 30
0.0
 40
8.0
100
AcDbArc
 50
103.1340223063964
 51
180.0
  0
LINE
  5
6D8
330
1F
100
AcDbEntity
  8
LAY-1
  6
CONTINUOUS
 62
     3
100
AcDbLine
 10
675.6000000000003
 20
225.5999999999999
 30
0.0
 11
666.782163075149
 21
227.6574952824654
 31
0.0
  0
LINE
  5
6D9
330
1F
100
AcDbEntity
  8
LAY-1
  6
CONTINUOUS
 62
     3
100
AcDbLine
 10
644.6000000000003
 20
236.1000000000002
 30
0.0
 11
646.5999999999998
 21
236.1000000000002
 31
0.0
  0
LINE
  5
6DA
330
1F
100
AcDbEntity
  8
LAY-1
  6
CONTINUOUS
 62
     3
100
AcDbLine
 10
658.6000000000003
 20
265.6000000000001
 30
0.0
 11
646.6000000000003
 21
265.6000000000001
 31
0.0
  0
ARC
  5
6DB
330
1F
100
AcDbEntity
  8
LAY-1
  6
CONTINUOUS
 62
     3
100
AcDbCircle
 10
658.6000000000003
 20
263.6000000000001
 30
0.0
 40
2.0
100
AcDbArc
 50
0.0
 51
90.00000000000001
  0
LINE
  5
6DC
330
1F
100
AcDbEntity
  8
LAY-1
  6
EXLTYPE2
 62
     1
100
AcDbLine
 10
635.5000000000003
 20
248.1000000000002
 30
0.0
 11
672.5000000000003
 21
248.1000000000002
 31
0.0
  0
LINE
  5
6DD
330
1F
100
AcDbEntity
  8
LAY-1
  6
CONTINUOUS
 62
     3
100
AcDbLine
 10
644.6000000000003
 20
155.0999999999999
 30
0.0
 11
646.5999999999998
 21
155.0999999999999
 31
0.0
  0
LINE
  5
6DE
330
1F
100
AcDbEntity
  8
LAY-1
  6
CONTINUOUS
 62
     3
100
AcDbLine
 10
658.6000000000003
 20
125.5999999999999
 30
0.0
 11
646.6000000000003
 21
125.5999999999999
 31
0.0
  0
ARC
  5
6DF
330
1F
100
AcDbEntity
  8
LAY-1
  6
CONTINUOUS
 62
     3
100
AcDbCircle
 10
658.6000000000003
 20
127.5999999999999
 30
0.0
 40
2.0
100
AcDbArc
 50
270.0
 51
0.0
  0
LINE
  5
6E0
330
1F
100
AcDbEntity
  8
LAY-1
  6
EXLTYPE2
 62
     1
100
AcDbLine
 10
635.5000000000002
 20
143.0999999999999
 30
0.0
 11
672.5000000000003
 21
143.0999999999999
 31
0.0
  0
LINE
  5
6E1
330
1F
100
AcDbEntity
  8
LAY-1
  6
CONTINUOUS
 62
     3
100
AcDbLine
 10
646.6000000000003
 20
195.6000000000002
 30
0.0
 11
646.6000000000003
 21
265.6000000000001
 31
0.0
  0
LINE
  5
6E2
330
1F
100
AcDbEntity
  8
LAY-1
  6
CONTINUOUS
 62
     3
100
AcDbLine
 10
660.6000000000003
 20
195.6000000000002
 30
0.0
 11
660.6000000000003
 21
263.6000000000001
 31
0.0
  0
LINE
  5
6E3
330
1F
100
AcDbEntity
  8
LAY-1
  6
CONTINUOUS
 62
     3
100
AcDbLine
 10
644.6000000000003
 20
195.5999999999999
 30
0.0
 11
644.6000000000003
 21
236.1000000000002
 31
0.0
  0
LINE
  5
6E4
330
1F
100
AcDbEntity
  8
LAY-1
  6
CONTINUOUS
 62
     3
100
AcDbLine
 10
660.6000000000003
 20
195.6
 30
0.0
 11
660.6000000000003
 21
127.5999999999999
 31
0.0
  0
LINE
  5
6E5
330
1F
100
AcDbEntity
  8
LAY-1
  6
CONTINUOUS
 62
     3
100
AcDbLine
 10
646.6000000000003
 20
195.6
 30
0.0
 11
646.6000000000003
 21
125.5999999999999
 31
0.0
  0
LINE
  5
6E6
330
1F
100
AcDbEntity
  8
LAY-1
  6
CONTINUOUS
 62
     3
100
AcDbLine
 10
644.6000000000003
 20
195.5999999999999
 30
0.0
 11
644.6000000000003
 21
155.0999999999999
 31
0.0
  0
LINE
  5
6E7
330
1F
100
AcDbEntity
  8
LAY-1
  6
CONTINUOUS
 62
     3
100
AcDbLine
 10
335.7999999999597
 20
728.4
 30
0.0
 11
335.7999999999597
 21
732.7999999999997
 31
0.0
  0
ARC
  5
6E8
330
1F
100
AcDbEntity
  8
LAY-1
  6
CONTINUOUS
 62
     3
100
AcDbCircle
 10
325.9517750395605
 20
739.8999999999997
 30
0.0
 40
8.0
100
AcDbArc
 50
13.13402230639642
 51
90.00000000000001
  0
LINE
  5
6E9
330
1F
100
AcDbEntity
  8
LAY-1
  6
CONTINUOUS
 62
     3
100
AcDbLine
 10
395.7999999999602
 20
732.8999999999997
 30
0.0
 11
397.8574952824254
 21
741.717836924851
 31
0.0
  0
ARC
  5
6EA
330
1F
100
AcDbEntity
  8
LAY-1
  6
CONTINUOUS
 62
     3
100
AcDbCircle
 10
405.6482249603598
 20
739.8999999999997
 30
0.0
 40
8.0
100
AcDbArc
 50
90.00000000000001
 51
166.8659776936037
  0
LINE
  5
6EB
330
1F
100
AcDbEntity
  8
LAY-1
  6
CONTINUOUS
 62
     3
100
AcDbLine
 10
335.7999999999602
 20
732.8999999999997
 30
0.0
 11
333.7425047174947
 21
741.717836924851
 31
0.0
  0
LINE
  5
6EC
330
1F
100
AcDbEntity
  8
LAY-1
  6
CONTINUOUS
 62
     3
100
AcDbLine
 10
325.2999999999599
 20
763.8999999999997
 30
0.0
 11
325.2999999999599
 21
761.9000000000002
 31
0.0
  0
LINE
  5
6ED
330
1F
100
AcDbEntity
  8
LAY-1
  6
CONTINUOUS
 62
     3
100
AcDbLine
 10
295.7999999999599
 20
749.8999999999997
 30
0.0
 11
295.79999999996
 21
761.8999999999997
 31
0.0
  0
ARC
  5
6EE
330
1F
100
AcDbEntity
  8
LAY-1
  6
CONTINUOUS
 62
     3
100
AcDbCircle
 10
297.7999999999599
 20
749.8999999999997
 30
0.0
 40
2.0
100
AcDbArc
 50
180.0
 51
270.0
  0
LINE
  5
6EF
330
1F
100
AcDbEntity
  8
LAY-1
  6
EXLTYPE2
 62
     1
100
AcDbLine
 10
313.2999999999599
 20
772.9999999999997
 30
0.0
 11
313.2999999999599
 21
735.9999999999997
 31
0.0
  0
LINE
  5
6F0
330
1F
100
AcDbEntity
  8
LAY-1
  6
CONTINUOUS
 62
     3
100
AcDbLine
 10
406.2999999999602
 20
763.8999999999997
 30
0.0
 11
406.2999999999602
 21
761.9000000000002
 31
0.0
  0
LINE
  5
6F1
330
1F
100
AcDbEntity
  8
LAY-1
  6
CONTINUOUS
 62
     3
100
AcDbLine
 10
435.7999999999602
 20
749.8999999999997
 30
0.0
 11
435.7999999999602
 21
761.8999999999997
 31
0.0
  0
ARC
  5
6F2
330
1F
100
AcDbEntity
  8
LAY-1
  6
CONTINUOUS
 62
     3
100
AcDbCircle
 10
433.7999999999602
 20
749.8999999999997
 30
0.0
 40
2.0
100
AcDbArc
 50
270.0
 51
0.0
  0
LINE
  5
6F3
330
1F
100
AcDbEntity
  8
LAY-1
  6
EXLTYPE2
 62
     1
100
AcDbLine
 10
418.2999999999602
 20
772.9999999999997
 30
0.0
 11
418.2999999999602
 21
735.9999999999997
 31
0.0
  0
LINE
  5
6F4
330
1F
100
AcDbEntity
  8
LAY-1
  6
CONTINUOUS
 62
     3
100
AcDbLine
 10
365.7999999999599
 20
761.8999999999997
 30
0.0
 11
295.79999999996
 21
761.8999999999997
 31
0.0
  0
LINE
  5
6F5
330
1F
100
AcDbEntity
  8
LAY-1
  6
CONTINUOUS
 62
     3
100
AcDbLine
 10
365.7999999999599
 20
747.8999999999997
 30
0.0
 11
297.7999999999599
 21
747.8999999999997
 31
0.0
  0
LINE
  5
6F6
330
1F
100
AcDbEntity
  8
LAY-1
  6
CONTINUOUS
 62
     3
100
AcDbLine
 10
365.7999999999602
 20
763.8999999999997
 30
0.0
 11
325.2999999999599
 21
763.8999999999997
 31
0.0
  0
LINE
  5
6F7
330
1F
100
AcDbEntity
  8
LAY-1
  6
CONTINUOUS
 62
     3
100
AcDbLine
 10
365.7999999999601
 20
747.8999999999997
 30
0.0
 11
433.7999999999602
 21
747.8999999999997
 31
0.0
  0
LINE
  5
6F8
330
1F
100
AcDbEntity
  8
LAY-1
  6
CONTINUOUS
 62
     3
100
AcDbLine
 10
365.7999999999601
 20
761.8999999999997
 30
0.0
 11
435.7999999999602
 21
761.8999999999997
 31
0.0
  0
LINE
  5
6F9
330
1F
100
AcDbEntity
  8
LAY-1
  6
CONTINUOUS
 62
     3
100
AcDbLine
 10
365.7999999999602
 20
763.8999999999997
 30
0.0
 11
406.2999999999602
 21
763.8999999999997
 31
0.0
  0
LINE
  5
6FA
330
1F
100
AcDbEntity
  8
LAY-1
  6
CONTINUOUS
 62
     3
100
AcDbLine
 10
335.7999999999203
 20
554.8999999999997
 30
0.0
 11
333.7425047174549
 21
546.0821630751485
 31
0.0
  0
LINE
  5
6FB
330
1F
100
AcDbEntity
  8
LAY-1
  6
CONTINUOUS
 62
     3
100
AcDbLine
 10
395.7999999999203
 20
554.8999999999999
 30
0.0
 11
397.8574952823855
 21
546.0821630751486
 31
0.0
  0
ARC
  5
6FC
330
1F
100
AcDbEntity
  8
LAY-1
  6
CONTINUOUS
 62
     3
100
AcDbCircle
 10
325.9517750395607
 20
547.9
 30
0.0
 40
8.0
100
AcDbArc
 50
270.0
 51
346.8659776936038
  0
LINE
  5
6FD
330
1F
100
AcDbEntity
  8
LAY-1
  6
CONTINUOUS
 62
     3
100
AcDbLine
 10
395.7999999999603
 20
554.9000000000001
 30
0.0
 11
397.8574952824255
 21
546.0821630751489
 31
0.0
  0
ARC
  5
6FE
330
1F
100
AcDbEntity
  8
LAY-1
  6
CONTINUOUS
 62
     3
100
AcDbCircle
 10
405.64822496036
 20
547.9000000000001
 30
0.0
 40
8.0
100
AcDbArc
 50
193.1340223063964
 51
270.0
  0
LINE
  5
6FF
330
1F
100
AcDbEntity
  8
LAY-1
  6
CONTINUOUS
 62
     3
100
AcDbLine
 10
335.7999999999603
 20
554.9
 30
0.0
 11
333.7425047174949
 21
546.0821630751487
 31
0.0
  0
LINE
  5
700
330
1F
100
AcDbEntity
  8
LAY-1
  6
CONTINUOUS
 62
     3
100
AcDbLine
 10
325.2999999999601
 20
523.9
 30
0.0
 11
325.2999999999601
 21
525.8999999999995
 31
0.0
  0
LINE
  5
701
330
1F
100
AcDbEntity
  8
LAY-1
  6
CONTINUOUS
 62
     3
100
AcDbLine
 10
295.7999999999601
 20
537.9
 30
0.0
 11
295.7999999999602
 21
525.9
 31
0.0
  0
ARC
  5
702
330
1F
100
AcDbEntity
  8
LAY-1
  6
CONTINUOUS
 62
     3
100
AcDbCircle
 10
297.7999999999601
 20
537.9
 30
0.0
 40
2.0
100
AcDbArc
 50
90.00000000000001
 51
180.0
  0
LINE
  5
703
330
1F
100
AcDbEntity
  8
LAY-1
  6
EXLTYPE2
 62
     1
100
AcDbLine
 10
313.2999999999602
 20
514.8000000000001
 30
0.0
 11
313.2999999999601
 21
551.8000000000001
 31
0.0
  0
LINE
  5
704
330
1F
100
AcDbEntity
  8
LAY-1
  6
CONTINUOUS
 62
     3
100
AcDbLine
 10
406.2999999999604
 20
523.9000000000001
 30
0.0
 11
406.2999999999604
 21
525.8999999999996
 31
0.0
  0
LINE
  5
705
330
1F
100
AcDbEntity
  8
LAY-1
  6
CONTINUOUS
 62
     3
100
AcDbLine
 10
435.7999999999603
 20
537.9000000000002
 30
0.0
 11
435.7999999999604
 21
525.9000000000002
 31
0.0
  0
ARC
  5
706
330
1F
100
AcDbEntity
  8
LAY-1
  6
CONTINUOUS
 62
     3
100
AcDbCircle
 10
433.7999999999603
 20
537.9000000000002
 30
0.0
 40
2.0
100
AcDbArc
 50
0.0
 51
90.00000000000001
  0
LINE
  5
707
330
1F
100
AcDbEntity
  8
LAY-1
  6
EXLTYPE2
 62
     1
100
AcDbLine
 10
418.2999999999604
 20
514.8000000000002
 30
0.0
 11
418.2999999999603
 21
551.8000000000002
 31
0.0
  0
LINE
  5
708
330
1F
100
AcDbEntity
  8
LAY-1
  6
CONTINUOUS
 62
     3
100
AcDbLine
 10
365.7999999999601
 20
525.9000000000001
 30
0.0
 11
295.7999999999602
 21
525.9
 31
0.0
  0
LINE
  5
709
330
1F
100
AcDbEntity
  8
LAY-1
  6
CONTINUOUS
 62
     3
100
AcDbLine
 10
365.7999999999601
 20
539.9000000000001
 30
0.0
 11
297.7999999999601
 21
539.9
 31
0.0
  0
LINE
  5
70A
330
1F
100
AcDbEntity
  8
LAY-1
  6
CONTINUOUS
 62
     3
100
AcDbLine
 10
365.7999999999604
 20
523.9000000000001
 30
0.0
 11
325.2999999999601
 21
523.9
 31
0.0
  0
LINE
  5
70B
330
1F
100
AcDbEntity
  8
LAY-1
  6
CONTINUOUS
 62
     3
100
AcDbLine
 10
365.7999999999602
 20
539.9000000000001
 30
0.0
 11
433.7999999999603
 21
539.9000000000002
 31
0.0
  0
LINE
  5
70C
330
1F
100
AcDbEntity
  8
LAY-1
  6
CONTINUOUS
 62
     3
100
AcDbLine
 10
365.7999999999603
 20
525.9000000000001
 30
0.0
 11
435.7999999999604
 21
525.9000000000002
 31
0.0
  0
LINE
  5
70D
330
1F
100
AcDbEntity
  8
LAY-1
  6
CONTINUOUS
 62
     3
100
AcDbLine
 10
365.7999999999604
 20
523.9000000000001
 30
0.0
 11
406.2999999999604
 21
523.9000000000001
 31
0.0
  0
LINE
  5
70E
330
1F
100
AcDbEntity
  8
LAY-1
  6
EXLTYPE2
 62
     1
100
AcDbLine
 10
365.7999999999602
 20
521.0
 30
0.0
 11
365.7999999999602
 21
768.4
 31
0.0
  0
LINE
  5
70F
330
1F
100
AcDbEntity
  8
LAY-1
  6
CONTINUOUS
 62
     3
100
AcDbLine
 10
365.8
 20
270.1
 30
0.0
 11
312.8
 21
270.1
 31
0.0
  0
LINE
  5
710
330
1F
100
AcDbEntity
  8
LAY-1
  6
CONTINUOUS
 62
     3
100
AcDbLine
 10
365.8
 20
270.1
 30
0.0
 11
418.8
 21
270.1000000000001
 31
0.0
  0
LINE
  5
711
330
1F
100
AcDbEntity
  8
LAY-1
  6
CONTINUOUS
 62
     3
100
AcDbLine
 10
330.5899162170836
 20
256.1
 30
0.0
 11
310.8
 21
256.1
 31
0.0
  0
LINE
  5
712
330
1F
100
AcDbEntity
  8
LAY-1
  6
CONTINUOUS
 62
     3
100
AcDbLine
 10
401.0100837829165
 20
256.1
 30
0.0
 11
420.8
 21
256.1
 31
0.0
  0
LINE
  5
713
330
1F
100
AcDbEntity
  8
LAY-1
  6
CONTINUOUS
 62
     3
100
AcDbLine
 10
310.8
 20
238.9012701892219
 30
0.0
 11
310.8
 21
260.6
 31
0.0
  0
LINE
  5
714
330
1F
100
AcDbEntity
  8
LAY-1
  6
CONTINUOUS
 62
     3
100
AcDbLine
 10
420.8
 20
238.901270189222
 30
0.0
 11
420.8
 21
260.6
 31
0.0
  0
LINE
  5
715
330
1F
100
AcDbEntity
  8
LAY-1
  6
CONTINUOUS
 62
     3
100
AcDbLine
 10
294.8000000000699
 20
225.60000000003
 30
0.0
 11
294.8000000000699
 21
164.53152723403
 31
0.0
  0
LINE
  5
716
330
1F
100
AcDbEntity
  8
LAY-1
  6
CONTINUOUS
 62
     3
100
AcDbLine
 10
302.5544467966471
 20
225.6000000000309
 30
0.0
 11
279.2999999999984
 21
225.6000000000305
 31
0.0
  0
LINE
  5
717
330
1F
100
AcDbEntity
  8
LAY-1
  6
CONTINUOUS
 62
     3
100
AcDbLine
 10
285.9372680000699
 20
224.56978800003
 30
0.0
 11
294.8000000000699
 21
224.56980300003
 31
0.0
  0
LINE
  5
718
330
1F
100
AcDbEntity
  8
LAY-1
  6
CONTINUOUS
 62
     3
100
AcDbLine
 10
285.9372680000699
 20
219.08478700003
 30
0.0
 11
294.8000000000699
 21
219.0848020001332
 31
0.0
  0
LINE
  5
719
330
1F
100
AcDbEntity
  8
LAY-1
  6
EXLTYPE2
 62
     1
100
AcDbLine
 10
298.1538618988578
 20
213.6000000000334
 30
0.0
 11
278.3000000000002
 21
213.6000000000334
 31
0.0
  0
LINE
  5
71A
330
1F
100
AcDbEntity
  8
LAY-1
  6
CONTINUOUS
 62
     3
100
AcDbLine
 10
285.9372680000699
 20
208.11525900003
 30
0.0
 11
294.8000000000699
 21
208.1152740001332
 31
0.0
  0
LINE
  5
71B
330
1F
100
AcDbEntity
  8
LAY-1
  6
CONTINUOUS
 62
     3
100
AcDbLine
 10
285.9372680000699
 20
202.63027300003
 30
0.0
 11
294.8000000000699
 21
202.63030400003
 31
0.0
  0
LINE
  5
71C
330
1F
100
AcDbEntity
  8
LAY-1
  6
CONTINUOUS
 62
     3
100
AcDbLine
 10
285.9372680000699
 20
181.56978800003
 30
0.0
 11
294.8000000000699
 21
181.56980300003
 31
0.0
  0
LINE
  5
71D
330
1F
100
AcDbEntity
  8
LAY-1
  6
CONTINUOUS
 62
     3
100
AcDbLine
 10
285.9372680000699
 20
176.08478700003
 30
0.0
 11
294.8000000000699
 21
176.0848020001332
 31
0.0
  0
LINE
  5
71E
330
1F
100
AcDbEntity
  8
LAY-1
  6
EXLTYPE2
 62
     1
100
AcDbLine
 10
300.4165158468771
 20
170.6000000000334
 30
0.0
 11
278.3000000000002
 21
170.6000000000334
 31
0.0
  0
LINE
  5
71F
330
1F
100
AcDbEntity
  8
LAY-1
  6
CONTINUOUS
 62
     3
100
AcDbLine
 10
306.7999999999979
 20
157.9303835963285
 30
0.0
 11
306.7999999999995
 21
110.6000000000307
 31
0.0
  0
LINE
  5
720
330
1F
100
AcDbEntity
  8
LAY-1
  6
CONTINUOUS
 62
     3
100
AcDbLine
 10
308.3
 20
110.6000000000499
 30
0.0
 11
308.3
 21
155.6782014433218
 31
0.0
  0
LINE
  5
721
330
1F
100
AcDbEntity
  8
LAY-1
  6
CONTINUOUS
 62
     3
100
AcDbLine
 10
294.8000000000833
 20
164.53152723403
 30
0.0
 11
294.80000000008
 21
110.60000000003
 31
0.0
  0
LINE
  5
722
330
1F
100
AcDbEntity
  8
LAY-1
  6
CONTINUOUS
 62
     3
100
AcDbLine
 10
285.9372680000699
 20
165.11525900003
 30
0.0
 11
294.8000000000699
 21
165.1152740001332
 31
0.0
  0
LINE
  5
723
330
1F
100
AcDbEntity
  8
LAY-1
  6
CONTINUOUS
 62
     3
100
AcDbLine
 10
436.7999999999177
 20
225.6000000000307
 30
0.0
 11
436.7999999999199
 21
110.60000000003
 31
0.0
  0
LINE
  5
724
330
1F
100
AcDbEntity
  8
LAY-1
  6
CONTINUOUS
 62
     3
100
AcDbLine
 10
429.0455532033524
 20
225.600000000032
 30
0.0
 11
452.3000000000015
 21
225.6000000000305
 31
0.0
  0
LINE
  5
725
330
1F
100
AcDbEntity
  8
LAY-1
  6
CONTINUOUS
 62
     3
100
AcDbLine
 10
445.66273199993
 20
224.56978800003
 30
0.0
 11
436.7999999999177
 21
224.5698030000299
 31
0.0
  0
LINE
  5
726
330
1F
100
AcDbEntity
  8
LAY-1
  6
EXLTYPE2
 62
     1
100
AcDbLine
 10
452.2470819999299
 20
213.6000000000334
 30
0.0
 11
433.4461381011422
 21
213.6000000000334
 31
0.0
  0
LINE
  5
727
330
1F
100
AcDbEntity
  8
LAY-1
  6
CONTINUOUS
 62
     3
100
AcDbLine
 10
445.66273199993
 20
219.08478700003
 30
0.0
 11
436.7999999999178
 21
219.0848020001332
 31
0.0
  0
LINE
  5
728
330
1F
100
AcDbEntity
  8
LAY-1
  6
CONTINUOUS
 62
     3
100
AcDbLine
 10
445.66273199993
 20
208.11525900003
 30
0.0
 11
436.799999999918
 21
208.1152740001332
 31
0.0
  0
LINE
  5
729
330
1F
100
AcDbEntity
  8
LAY-1
  6
CONTINUOUS
 62
     3
100
AcDbLine
 10
445.66273199993
 20
202.63027300003
 30
0.0
 11
436.7999999999182
 21
202.63030400003
 31
0.0
  0
LINE
  5
72A
330
1F
100
AcDbEntity
  8
LAY-1
  6
CONTINUOUS
 62
     3
100
AcDbLine
 10
445.66273199993
 20
181.56978800003
 30
0.0
 11
436.7999999999186
 21
181.56980300003
 31
0.0
  0
LINE
  5
72B
330
1F
100
AcDbEntity
  8
LAY-1
  6
CONTINUOUS
 62
     3
100
AcDbLine
 10
445.66273199993
 20
176.08478700003
 30
0.0
 11
436.7999999999187
 21
176.0848020001332
 31
0.0
  0
LINE
  5
72C
330
1F
100
AcDbEntity
  8
LAY-1
  6
EXLTYPE2
 62
     1
100
AcDbLine
 10
453.2999999999299
 20
170.6000000000334
 30
0.0
 11
431.1834841531229
 21
170.6000000000334
 31
0.0
  0
LINE
  5
72D
330
1F
100
AcDbEntity
  8
LAY-1
  6
CONTINUOUS
 62
     3
100
AcDbLine
 10
424.8
 20
110.60000000005
 30
0.0
 11
424.8
 21
157.9303835963252
 31
0.0
  0
LINE
  5
72E
330
1F
100
AcDbEntity
  8
LAY-1
  6
CONTINUOUS
 62
     3
100
AcDbLine
 10
423.3
 20
110.6000000000499
 30
0.0
 11
423.3
 21
155.6782014433216
 31
0.0
  0
LINE
  5
72F
330
1F
100
AcDbEntity
  8
LAY-1
  6
CONTINUOUS
 62
     3
100
AcDbLine
 10
405.6561896853876
 20
138.0545037056602
 30
0.0
 11
403.2540867686234
 21
110.5983417304294
 31
0.0
  0
LINE
  5
730
330
1F
100
AcDbEntity
  8
LAY-1
  6
CONTINUOUS
 62
     3
100
AcDbLine
 10
325.9438103146128
 20
138.0545037056553
 30
0.0
 11
328.3459132313765
 21
110.5983417304294
 31
0.0
  0
LINE
  5
731
330
1F
100
AcDbEntity
  8
LAY-1
  6
EXLTYPE2
 62
     1
100
AcDbLine
 10
317.0
 20
122.6000000000334
 30
0.0
 11
280.3000000000699
 21
122.6000000000333
 31
0.0
  0
LINE
  5
732
330
1F
100
AcDbEntity
  8
LAY-1
  6
EXLTYPE2
 62
     1
100
AcDbLine
 10
452.2470819999299
 20
122.6000000000334
 30
0.0
 11
417.0
 21
122.6000000000334
 31
0.0
  0
LINE
  5
733
330
1F
100
AcDbEntity
  8
LAY-1
  6
CONTINUOUS
 62
     3
100
AcDbLine
 10
359.800763
 20
337.1000039867801
 30
0.0
 11
371.800763
 21
337.1000039867801
 31
0.0
  0
ARC
  5
734
330
1F
100
AcDbEntity
  8
LAY-1
  6
CONTINUOUS
 62
     3
100
AcDbCircle
 10
365.8008239999999
 20
331.66008798678
 30
0.0
 40
9.999918
100
AcDbArc
 50
53.13010858755209
 51
126.870481970337
  0
LINE
  5
735
330
1F
100
AcDbEntity
  8
LAY-1
  6
CONTINUOUS
 62
     3
100
AcDbLine
 10
359.800641
 20
337.1000039867801
 30
0.0
 11
359.800641
 21
339.6598482315146
 31
0.0
  0
LINE
  5
736
330
1F
100
AcDbEntity
  8
LAY-1
  6
CONTINUOUS
 62
     1
100
AcDbLine
 10
360.800641
 20
340.3201416802185
 30
0.0
 11
360.800641
 21
337.1000039867801
 31
0.0
  0
LINE
  5
737
330
1F
100
AcDbEntity
  8
LAY-1
  6
CONTINUOUS
 62
     3
100
AcDbLine
 10
371.8006410000003
 20
337.1000039867801
 30
0.0
 11
371.8006410000003
 21
339.6598482315146
 31
0.0
  0
LINE
  5
738
330
1F
100
AcDbEntity
  8
LAY-1
  6
CONTINUOUS
 62
     1
100
AcDbLine
 10
370.8006410000002
 20
340.3201416802185
 30
0.0
 11
370.8006410000002
 21
337.1000039867801
 31
0.0
  0
LINE
  5
739
330
1F
100
AcDbEntity
  8
LAY-1
  6
CONTINUOUS
 62
     3
100
AcDbLine
 10
356.8006100000001
 20
337.10000598511
 30
0.0
 11
374.8006100000001
 21
337.10000598511
 31
0.0
  0
ARC
  5
73A
330
1F
100
AcDbEntity
  8
LAY-1
  6
CONTINUOUS
 62
     3
100
AcDbCircle
 10
374.886487
 20
330.83013898511
 30
0.0
 40
6.271714
100
AcDbArc
 50
90.78468554827452
 51
125.0556976977885
  0
ARC
  5
73B
330
1F
100
AcDbEntity
  8
LAY-1
  6
CONTINUOUS
 62
     3
100
AcDbCircle
 10
356.7147340000001
 20
330.83013898511
 30
0.0
 40
6.271714
100
AcDbArc
 50
54.94430230221137
 51
89.21531445172552
  0
LINE
  5
73C
330
1F
100
AcDbEntity
  8
LAY-1
  6
CONTINUOUS
 62
     3
100
AcDbLine
 10
371.80077392966
 20
339.66002303953
 30
0.0
 11
359.800641
 21
339.66002303953
 31
0.0
  0
ENDSEC
  0
SECTION
  2
OBJECTS
  0
DICTIONARY
  5
C
330
0
100
AcDbDictionary
  3
ACAD_GROUP
350
D
  3
ACAD_LAYOUT
350
1A
  3
ACAD_MATERIAL
350
43
  3
ACAD_MLEADERSTYLE
350
6B
  3
ACAD_MLINESTYLE
350
17
  3
ACAD_PLOTSETTINGS
350
19
  3
ACAD_SCALELIST
350
47
  3
ACAD_VISUALSTYLE
350
2A
  3
ACDBHEADERROUNDTRIPXREC
350
73D
  3
ACDBVARIABLEDICTIONARY
350
75E
  0
DICTIONARY
  5
769
330
8
100
AcDbDictionary
280
     1
  3
ACAD_XREC_ROUNDTRIP
360
76A
  0
DICTIONARY
  5
D
102
{ACAD_REACTORS
330
C
102
}
330
C
100
AcDbDictionary
  0
DICTIONARY
  5
1A
102
{ACAD_REACTORS
330
C
102
}
330
C
100
AcDbDictionary
  0
DICTIONARY
  5
43
102
{ACAD_REACTORS
330
C
102
}
330
C
100
AcDbDictionary
  3
BYBLOCK
350
45
  3
BYLAYER
350
44
  3
GLOBAL
350
46
  0
DICTIONARY
  5
6B
102
{ACAD_REACTORS
330
C
102
}
330
C
100
AcDbDictionary
  3
STANDARD
350
6C
  0
DICTIONARY
  5
17
102
{ACAD_REACTORS
330
C
102
}
330
C
100
AcDbDictionary
  3
STANDARD
350
18
  0
DICTIONARY
  5
19
102
{ACAD_REACTORS
330
C
102
}
330
C
100
AcDbDictionary
  0
DICTIONARY
  5
47
102
{ACAD_REACTORS
330
C
102
}
330
C
100
AcDbDictionary
  3
A0
350
48
  3
A1
350
49
  3
A2
350
4A
  3
A3
350
4B
  3
A4
350
4C
  3
A5
350
4D
  3
A6
350
4E
  3
A7
350
4F
  3
A8
350
50
  3
A9
350
51
  3
B0
350
52
  3
B1
350
53
  3
B2
350
54
  3
B3
350
55
  3
B4
350
56
  3
B5
350
57
  3
B6
350
58
  3
B7
350
59
  3
B8
350
5A
  3
B9
350
5B
  3
C0
350
5C
  3
C1
350
5D
  3
C2
350
5E
  3
C3
350
5F
  3
C4
350
60
  3
C5
350
61
  3
C6
350
62
  3
C7
350
63
  3
C8
350
64
  3
C9
350
65
  3
D0
350
66
  3
D1
350
67
  3
D2
350
68
  0
DICTIONARY
  5
2A
102
{ACAD_REACTORS
330
C
102
}
330
C
100
AcDbDictionary
  3
2DWIREFRAME
350
2F
  3
BASIC
350
32
  3
BRIGHTEN
350
36
  3
COLORCHANGE
350
3A
  3
CONCEPTUAL
350
34
  3
DIM
350
35
  3
EDGECOLOROFF
350
3D
  3
FACEPATTERN
350
39
  3
FLAT
350
2B
  3
FLATWITHEDGES
350
2C
  3
GOURAUD
350
2D
  3
GOURAUDWITHEDGES
350
2E
  3
HIDDEN
350
31
  3
JITTEROFF
350
3B
  3
LINEPATTERN
350
38
  3
OVERHANGOFF
350
3C
  3
REALISTIC
350
33
  3
SHADED
350
42
  3
SHADED_WITH_EDGES
350
41
  3
SHADES_OF_GRAY
350
3E
  3
SKETCHY
350
3F
  3
THICKEN
350
37
  3
WIREFRAME
350
30
  3
X-RAY
350
40
  0
DICTIONARY
  5
73D
102
{ACAD_REACTORS
330
C
102
}
330
C
100
AcDbDictionary
  3
CEPSNID
350
747
  3
CEPSNTYPE
350
746
  3
DIMSTYLEDATA
350
75D
  3
FINGERPRINTGUID
350
748
  3
HYPERLINKBASE
350
740
  3
INSUNITS
350
745
  3
LAYOUTDICT
350
742
  3
LWETCUNION
350
744
  3
PLOTSETDICT
350
743
  3
PSVPSCALE
350
74A
  3
PUCSBASE
350
74D
  3
PUCSORGBACK
350
753
  3
PUCSORGBOTTOM
350
74F
  3
PUCSORGFRONT
350
752
  3
PUCSORGLEFT
350
750
  3
PUCSORGRIGHT
350
751
  3
PUCSORGTOP
350
74E
  3
PUCSORTHOREF
350
74B
  3
PUCSORTHOVIEW
350
74C
  3
STYLESHEET
350
741
  3
TSTACKALIGN
350
73E
  3
TSTACKSIZE
350
73F
  3
UCSBASE
350
756
  3
UCSORGBACK
350
75C
  3
UCSORGBOTTOM
350
758
  3
UCSORGFRONT
350
75B
  3
UCSORGLEFT
350
759
  3
UCSORGRIGHT
350
75A
  3
UCSORGTOP
350
757
  3
UCSORTHOREF
350
754
  3
UCSORTHOVIEW
350
755
  3
VERSIONGUID
350
749
  0
DICTIONARY
  5
75E
102
{ACAD_REACTORS
330
C
102
}
330
C
100
AcDbDictionary
  3
CANNOSCALE
350
76B
  3
CENTEREXE
350
765
  3
CENTERLTYPEFILE
350
766
  3
CMLEADERSTYLE
350
760
  3
CTABLESTYLE
350
75F
  3
DIMASSOC
350
767
  3
HIDETEXT
350
768
  3
MSLTSCALE
350
76C
  3
PSOLHEIGHT
350
762
  3
PSOLWIDTH
350
761
  0
XRECORD
  5
76A
102
{ACAD_REACTORS
330
769
102
}
330
769
100
AcDbXrecord
102
VTR_0.000_0.000_1.000_1.000_VISUALSTYLE
340
2F
102
VTR_0.000_0.000_1.000_1.000_GRIDDISPLAY
 70
     3
102
VTR_0.000_0.000_1.000_1.000_GRIDMAJOR
 70
     5
102
VTR_0.000_0.000_1.000_1.000_DEFAULTLIGHTING
280
     1
102
VTR_0.000_0.000_1.000_1.000_DEFAULTLIGHTINGTYPE
 70
     1
102
VTR_0.000_0.000_1.000_1.000_BRIGHTNESS
141
0.0
102
VTR_0.000_0.000_1.000_1.000_CONTRAST
142
0.0
  0
MATERIAL
  5
45
102
{ACAD_REACTORS
330
43
102
}
102
{ACAD_XDICTIONARY
360
76F
102
}
330
43
100
AcDbMaterial
  1
BYBLOCK
  0
MATERIAL
  5
44
102
{ACAD_REACTORS
330
43
102
}
102
{ACAD_XDICTIONARY
360
76D
102
}
330
43
100
AcDbMaterial
  1
BYLAYER
  0
MATERIAL
  5
46
102
{ACAD_REACTORS
330
43
102
}
102
{ACAD_XDICTIONARY
360
771
102
}
330
43
100
AcDbMaterial
  1
GLOBAL
  0
ACAD_PROXY_OBJECT
  5
6C
102
{ACAD_REACTORS
330
6B
102
}
330
6B
100
AcDbProxyObject
 90
      499
 91
      505
 93
      610
310
40901902A4063FBFFFFFE0000000000000020400000000000020404214DD185B99185C990000000000000104090141901A00000000000004100000000000000041025764000000000000039000
340
14
340
0
340
11
340
0
 94
        0
1001
ACAD_MLEADERVER
1070
     2
  0
MLINESTYLE
  5
18
102
{ACAD_REACTORS
330
17
102
}
330
17
100
AcDbMlineStyle
  2
Standard
 70
     0
  3

 62
   256
 51
90.0
 52
90.0
 71
     2
 49
0.5
 62
   256
  6
BYLAYER
 49
-0.5
 62
   256
  6
BYLAYER
  0
ACAD_PROXY_OBJECT
  5
48
102
{ACAD_REACTORS
330
47
102
}
330
47
100
AcDbProxyObject
 90
      499
 91
      503
 93
       41
310
903313A31580
  0
ACAD_PROXY_OBJECT
  5
49
102
{ACAD_REACTORS
330
47
102
}
330
47
100
AcDbProxyObject
 90
      499
 91
      503
 93
      105
310
903313A324000000000000004000
  0
ACAD_PROXY_OBJECT
  5
4A
102
{ACAD_REACTORS
330
47
102
}
330
47
100
AcDbProxyObject
 90
      499
 91
      503
 93
      105
310
903313A344000000000000104000
  0
ACAD_PROXY_OBJECT
  5
4B
102
{ACAD_REACTORS
330
47
102
}
330
47
100
AcDbProxyObject
 90
      499
 91
      503
 93
      105
310
903313A354000000000000144000
  0
ACAD_PROXY_OBJECT
  5
4C
102
{ACAD_REACTORS
330
47
102
}
330
47
100
AcDbProxyObject
 90
      499
 91
      503
 93
      105
310
903313A384000000000000204000
  0
ACAD_PROXY_OBJECT
  5
4D
102
{ACAD_REACTORS
330
47
102
}
330
47
100
AcDbProxyObject
 90
      499
 91
      503
 93
      113
310
904313A31304000000000000244000
  0
ACAD_PROXY_OBJECT
  5
4E
102
{ACAD_REACTORS
330
47
102
}
330
47
100
AcDbProxyObject
 90
      499
 91
      503
 93
      113
310
904313A31364000000000000304000
  0
ACAD_PROXY_OBJECT
  5
4F
102
{ACAD_REACTORS
330
47
102
}
330
47
100
AcDbProxyObject
 90
      499
 91
      503
 93
      113
310
904313A32304000000000000344000
  0
ACAD_PROXY_OBJECT
  5
50
102
{ACAD_REACTORS
330
47
102
}
330
47
100
AcDbProxyObject
 90
      499
 91
      503
 93
      113
310
904313A333040000000000003E4000
  0
ACAD_PROXY_OBJECT
  5
51
102
{ACAD_REACTORS
330
47
102
}
330
47
100
AcDbProxyObject
 90
      499
 91
      503
 93
      113
310
904313A34304000000000000444000
  0
ACAD_PROXY_OBJECT
  5
52
102
{ACAD_REACTORS
330
47
102
}
330
47
100
AcDbProxyObject
 90
      499
 91
      503
 93
      113
310
904313A35304000000000000494000
  0
ACAD_PROXY_OBJECT
  5
53
102
{ACAD_REACTORS
330
47
102
}
330
47
100
AcDbProxyObject
 90
      499
 91
      503
 93
      121
310
905313A3130304000000000000594000
  0
ACAD_PROXY_OBJECT
  5
54
102
{ACAD_REACTORS
330
47
102
}
330
47
100
AcDbProxyObject
 90
      499
 91
      503
 93
      105
310
903323A310000000000000010100
  0
ACAD_PROXY_OBJECT
  5
55
102
{ACAD_REACTORS
330
47
102
}
330
47
100
AcDbProxyObject
 90
      499
 91
      503
 93
      105
310
903343A310000000000000410100
  0
ACAD_PROXY_OBJECT
  5
56
102
{ACAD_REACTORS
330
47
102
}
330
47
100
AcDbProxyObject
 90
      499
 91
      503
 93
      105
310
903383A310000000000000810100
  0
ACAD_PROXY_OBJECT
  5
57
102
{ACAD_REACTORS
330
47
102
}
330
47
100
AcDbProxyObject
 90
      499
 91
      503
 93
      113
310
90431303A310000000000000910100
  0
ACAD_PROXY_OBJECT
  5
58
102
{ACAD_REACTORS
330
47
102
}
330
47
100
AcDbProxyObject
 90
      499
 91
      503
 93
      121
310
9053130303A310000000000001650100
  0
ACAD_PROXY_OBJECT
  5
59
102
{ACAD_REACTORS
330
47
102
}
330
47
100
AcDbProxyObject
 90
      499
 91
      503
 93
      257
310
90E312F31323822203D2031272D3022000000000000200FC000000000000284000
  0
ACAD_PROXY_OBJECT
  5
5A
102
{ACAD_REACTORS
330
47
102
}
330
47
100
AcDbProxyObject
 90
      499
 91
      503
 93
      249
310
90D312F363422203D2031272D3022000000000000240FC000000000000284000
  0
ACAD_PROXY_OBJECT
  5
5B
102
{ACAD_REACTORS
330
47
102
}
330
47
100
AcDbProxyObject
 90
      499
 91
      503
 93
      249
310
90D312F333222203D2031272D3022000000000000280FC000000000000284000
  0
ACAD_PROXY_OBJECT
  5
5C
102
{ACAD_REACTORS
330
47
102
}
330
47
100
AcDbProxyObject
 90
      499
 91
      503
 93
      249
310
90D312F313622203D2031272D30220000000000002C0FC000000000000284000
  0
ACAD_PROXY_OBJECT
  5
5D
102
{ACAD_REACTORS
330
47
102
}
330
47
100
AcDbProxyObject
 90
      499
 91
      503
 93
      249
310
90D332F333222203D2031272D30220000000000002E0FC000000000000284000
  0
ACAD_PROXY_OBJECT
  5
5E
102
{ACAD_REACTORS
330
47
102
}
330
47
100
AcDbProxyObject
 90
      499
 91
      503
 93
      241
310
90C312F3822203D2031272D3022000000000000300FC000000000000284000
  0
ACAD_PROXY_OBJECT
  5
5F
102
{ACAD_REACTORS
330
47
102
}
330
47
100
AcDbProxyObject
 90
      499
 91
      503
 93
      249
310
90D332F313622203D2031272D3022000000000000320FC000000000000284000
  0
ACAD_PROXY_OBJECT
  5
60
102
{ACAD_REACTORS
330
47
102
}
330
47
100
AcDbProxyObject
 90
      499
 91
      503
 93
      241
310
90C312F3422203D2031272D3022000000000000340FC000000000000284000
  0
ACAD_PROXY_OBJECT
  5
61
102
{ACAD_REACTORS
330
47
102
}
330
47
100
AcDbProxyObject
 90
      499
 91
      503
 93
      241
310
90C332F3822203D2031272D3022000000000000360FC000000000000284000
  0
ACAD_PROXY_OBJECT
  5
62
102
{ACAD_REACTORS
330
47
102
}
330
47
100
AcDbProxyObject
 90
      499
 91
      503
 93
      241
310
90C312F3222203D2031272D3022000000000000380FC000000000000284000
  0
ACAD_PROXY_OBJECT
  5
63
102
{ACAD_REACTORS
330
47
102
}
330
47
100
AcDbProxyObject
 90
      499
 91
      503
 93
      241
310
90C332F3422203D2031272D30220000000000003A0FC000000000000284000
  0
ACAD_PROXY_OBJECT
  5
64
102
{ACAD_REACTORS
330
47
102
}
330
47
100
AcDbProxyObject
 90
      499
 91
      503
 93
      161
310
90A3122203D2031272D30224000000000000284000
  0
ACAD_PROXY_OBJECT
  5
65
102
{ACAD_REACTORS
330
47
102
}
330
47
100
AcDbProxyObject
 90
      499
 91
      503
 93
      257
310
90E312D312F3222203D2031272D30220000000000003E0FC000000000000284000
  0
ACAD_PROXY_OBJECT
  5
66
102
{ACAD_REACTORS
330
47
102
}
330
47
100
AcDbProxyObject
 90
      499
 91
      503
 93
      225
310
90A3322203D2031272D302200000000000002100000000000000284000
  0
ACAD_PROXY_OBJECT
  5
67
102
{ACAD_REACTORS
330
47
102
}
330
47
100
AcDbProxyObject
 90
      499
 91
      503
 93
      225
310
90A3622203D2031272D302200000000000006100000000000000284000
  0
ACAD_PROXY_OBJECT
  5
68
102
{ACAD_REACTORS
330
47
102
}
330
47
100
AcDbProxyObject
 90
      499
 91
      503
 93
      249
310
90D31272D3022203D2031272D30220000000000000A100000000000000284000
  0
ACAD_PROXY_OBJECT
  5
2F
102
{ACAD_REACTORS
330
2A
102
}
330
2A
100
AcDbProxyObject
 90
      499
 91
      501
 93
      436
310
42CC9915DA5C99599C985B595049028333333333333E33F0000000000000F90107901411070040501600405405064090741402480A0340
1001
ACAD
1000
AcDbSavedByObjectVersion
1070
     0
  0
ACAD_PROXY_OBJECT
  5
32
102
{ACAD_REACTORS
330
2A
102
}
330
2A
100
AcDbProxyObject
 90
      499
 91
      501
 93
      388
310
4150985CDA58D07406404333333333333E33F0000000000000F90107A41107004050150841D405064090741402480A0350
1001
ACAD
1000
AcDbSavedByObjectVersion
1070
     0
  0
ACAD_PROXY_OBJECT
  5
36
102
{ACAD_REACTORS
330
2A
102
}
330
2A
100
AcDbProxyObject
 90
      499
 91
      501
 93
      428
310
42109C9A59DA1D195B90C409028333333333333E33F0000000000000F9010790141107004050150841D405064090741402480A029950
1001
ACAD
1000
AcDbSavedByObjectVersion
1070
     0
  0
ACAD_PROXY_OBJECT
  5
3A
102
{ACAD_REACTORS
330
2A
102
}
330
2A
100
AcDbProxyObject
 90
      499
 91
      501
 93
      452
310
42D0DBDB1BDC90DA185B99D95104090240C333333333333E33F0000000000000F90108901411070040501508421405064090741402480A0350
1001
ACAD
1000
AcDbSavedByObjectVersion
1070
     0
  0
ACAD_PROXY_OBJECT
  5
34
102
{ACAD_REACTORS
330
2A
102
}
330
2A
100
AcDbProxyObject
 90
      499
 91
      501
 93
      500
310
4290DBDB98D95C1D1D585B10940D028333333333333E33F0000000000000F90107902409070040501000000000018199010841D405064090740C02480A0340
1001
ACAD
1000
AcDbSavedByObjectVersion
1070
     0
  0
ACAD_PROXY_OBJECT
  5
35
102
{ACAD_REACTORS
330
2A
102
}
330
2A
100
AcDbProxyObject
 90
      499
 91
      501
 93
      412
310
40D11A5B50B409028333333333333E33F0000000000000F9010790141107004050150841D405064090741402480A02677FFFFFD0
1001
ACAD
1000
AcDbSavedByObjectVersion
1070
     0
  0
ACAD_PROXY_OBJECT
  5
3D
102
{ACAD_REACTORS
330
2A
102
}
330
2A
100
AcDbProxyObject
 90
      499
 91
      501
 93
      452
310
43115919D950DBDB1BDC93D999916409028333333333333E33F0000000000000F9010790141107004050150841D405064090741402480A0350
1001
ACAD
1000
AcDbSavedByObjectVersion
1070
     0
  0
ACAD_PROXY_OBJECT
  5
39
102
{ACAD_REACTORS
330
2A
102
}
330
2A
100
AcDbProxyObject
 90
      499
 91
      501
 93
      444
310
42D19858D95C185D1D195C9B90F409028333333333333E33F0000000000000F9010790141107004050150841D405064090741402480A0350
1001
ACAD
1000
AcDbSavedByObjectVersion
1070
     0
  0
ACAD_PROXY_OBJECT
  5
2B
102
{ACAD_REACTORS
330
2A
102
}
330
2A
100
AcDbProxyObject
 90
      499
 91
      501
 93
      380
310
41119B185D240901404333333333333E33F0000000000000F9010740A907004050150841D405064090741402480A1B50
1001
ACAD
1000
AcDbSavedByObjectVersion
1070
     0
  0
ACAD_PROXY_OBJECT
  5
2C
102
{ACAD_REACTORS
330
2A
102
}
330
2A
100
AcDbProxyObject
 90
      499
 91
      501
 93
      468
310
43519B185D15DA5D1A115919D95CD0140901404333333333333E33F0000000000000F90107409019070040501600405405064090741402480A1B50
1001
ACAD
1000
AcDbSavedByObjectVersion
1070
     0
  0
ACAD_PROXY_OBJECT
  5
2D
102
{ACAD_REACTORS
330
2A
102
}
330
2A
100
AcDbProxyObject
 90
      499
 91
      501
 93
      404
310
41D1DBDD5C985D5910240902404333333333333E33F0000000000000F9010740A9070040501641D405064090741402480A1B50
1001
ACAD
1000
AcDbSavedByObjectVersion
1070
     0
  0
ACAD_PROXY_OBJECT
  5
2E
102
{ACAD_REACTORS
330
2A
102
}
330
2A
100
AcDbProxyObject
 90
      499
 91
      501
 93
      492
310
4411DBDD5C985D5915DA5D1A115919D95CD0340902404333333333333E33F0000000000000F90107409019070040501600405405064090741402480A1B50
1001
ACAD
1000
AcDbSavedByObjectVersion
1070
     0
  0
ACAD_PROXY_OBJECT
  5
31
102
{ACAD_REACTORS
330
2A
102
}
330
2A
100
AcDbProxyObject
 90
      499
 91
      501
 93
      476
310
41921A5919195B90640502408333333333333E33F0000000000000F901079024090700405020000000000001110200405405064090740C02480A0340
1001
ACAD
1000
AcDbSavedByObjectVersion
1070
     0
  0
ACAD_PROXY_OBJECT
  5
3B
102
{ACAD_REACTORS
330
2A
102
}
330
2A
100
AcDbProxyObject
 90
      499
 91
      501
 93
      428
310
42529A5D1D195C93D999914409028333333333333E33F0000000000000F9010790141107004050150A41D405064090741402480A0350
1001
ACAD
1000
AcDbSavedByObjectVersion
1070
     0
  0
ACAD_PROXY_OBJECT
  5
38
102
{ACAD_REACTORS
330
2A
102
}
330
2A
100
AcDbProxyObject
 90
      499
 91
      501
 93
      444
310
42D31A5B995C185D1D195C9B90E409028333333333333E33F0000000000000F9010790141107004050750841D405064090741402483A0350
1001
ACAD
1000
AcDbSavedByObjectVersion
1070
     0
  0
ACAD_PROXY_OBJECT
  5
3C
102
{ACAD_REACTORS
330
2A
102
}
330
2A
100
AcDbProxyObject
 90
      499
 91
      501
 93
      444
310
42D3DD995C9A185B99D3D999915409028333333333333E33F0000000000000F9010790141107004050150941D405064090741402480A0350
1001
ACAD
1000
AcDbSavedByObjectVersion
1070
     0
  0
ACAD_PROXY_OBJECT
  5
33
102
{ACAD_REACTORS
330
2A
102
}
330
2A
100
AcDbProxyObject
 90
      499
 91
      501
 93
      428
310
425499585B1A5CDD1A58D08409038333333333333E33F0000000000000F9010740A907004050150800405405064090740C02480A1B40
1001
ACAD
1000
AcDbSavedByObjectVersion
1070
     0
  0
ACAD_PROXY_OBJECT
  5
42
102
{ACAD_REACTORS
330
2A
102
}
330
2A
100
AcDbProxyObject
 90
      499
 91
      501
 93
      420
310
4194DA1859195911B40902404333333333333E33F0000000000000F9010740A41107004050150800405405064090840C02480A0B40
1001
ACAD
1000
AcDbSavedByObjectVersion
1070
     0
  0
ACAD_PROXY_OBJECT
  5
41
102
{ACAD_REACTORS
330
2A
102
}
330
2A
100
AcDbProxyObject
 90
      499
 91
      501
 93
      516
310
4454DA18591959081DDA5D1A08195919D95CD1A40902404333333333333E33F0000000000000F901074090142907004050250800405405064090740C02480A0B40
1001
ACAD
1000
AcDbSavedByObjectVersion
1070
     0
  0
ACAD_PROXY_OBJECT
  5
3E
102
{ACAD_REACTORS
330
2A
102
}
330
2A
100
AcDbProxyObject
 90
      499
 91
      501
 93
      532
310
4394DA1859195CC81BD98811DC985E5174090240C333333333333E33F0000000000000F901079024090741D01000000000000111010841D405064090740C02480A0340
1001
ACAD
1000
AcDbSavedByObjectVersion
1070
     0
  0
ACAD_PROXY_OBJECT
  5
3F
102
{ACAD_REACTORS
330
2A
102
}
330
2A
100
AcDbProxyObject
 90
      499
 91
      501
 93
      476
310
41D4DAD95D18DA1E51840502408333333333333E33F0000000000000F901079024090741D01000000000000111010B41D405064090741802480A0340
1001
ACAD
1000
AcDbSavedByObjectVersion
1070
     0
  0
ACAD_PROXY_OBJECT
  5
37
102
{ACAD_REACTORS
330
2A
102
}
330
2A
100
AcDbProxyObject
 90
      499
 91
      501
 93
      412
310
41D51A1A58DAD95B90D409028333333333333E33F0000000000000F9010790141107004050150C41D405064090741402480A0350
1001
ACAD
1000
AcDbSavedByObjectVersion
1070
     0
  0
ACAD_PROXY_OBJECT
  5
30
102
{ACAD_REACTORS
330
2A
102
}
330
2A
100
AcDbProxyObject
 90
      499
 91
      501
 93
      420
310
4255DA5C99599C985B595059028333333333333E33F0000000000000F90107901411070040501600405405064090740C02480A0340
1001
ACAD
1000
AcDbSavedByObjectVersion
1070
     0
  0
ACAD_PROXY_OBJECT
  5
40
102
{ACAD_REACTORS
330
2A
102
}
330
2A
100
AcDbProxyObject
 90
      499
 91
      501
 93
      404
310
41560B54985E51940902404000000000000E03F0000000000000F9010740501907004050150841D405064090740C02480A1B40
1001
ACAD
1000
AcDbSavedByObjectVersion
1070
     0
  0
XRECORD
  5
747
102
{ACAD_REACTORS
330
73D
102
}
330
73D
100
AcDbXrecord
340
0
  0
XRECORD
  5
746
102
{ACAD_REACTORS
330
73D
102
}
330
73D
100
AcDbXrecord
 90
        0
  0
XRECORD
  5
75D
102
{ACAD_REACTORS
330
73D
102
}
330
73D
100
AcDbXrecord
1000
DSTYLE
1002
{
1070
   340
340
11
1002
}
  0
XRECORD
  5
748
102
{ACAD_REACTORS
330
73D
102
}
330
73D
100
AcDbXrecord
  1
{898b75d4-1c5c-4a78-95fa-3a472d22831b}
  0
XRECORD
  5
740
102
{ACAD_REACTORS
330
73D
102
}
330
73D
100
AcDbXrecord
  1

  0
XRECORD
  5
745
102
{ACAD_REACTORS
330
73D
102
}
330
73D
100
AcDbXrecord
 90
        4
  0
XRECORD
  5
742
102
{ACAD_REACTORS
330
73D
102
}
330
73D
100
AcDbXrecord
340
1A
  0
XRECORD
  5
744
102
{ACAD_REACTORS
330
73D
102
}
330
73D
100
AcDbXrecord
 90
    10781
  0
XRECORD
  5
743
102
{ACAD_REACTORS
330
73D
102
}
330
73D
100
AcDbXrecord
340
19
  0
XRECORD
  5
74A
102
{ACAD_REACTORS
330
73D
102
}
330
73D
100
AcDbXrecord
 40
0.0
  0
XRECORD
  5
74D
102
{ACAD_REACTORS
330
73D
102
}
330
73D
100
AcDbXrecord
340
0
  0
XRECORD
  5
753
102
{ACAD_REACTORS
330
73D
102
}
330
73D
100
AcDbXrecord
 10
0.0
 20
0.0
 30
0.0
  0
XRECORD
  5
74F
102
{ACAD_REACTORS
330
73D
102
}
330
73D
100
AcDbXrecord
 10
0.0
 20
0.0
 30
0.0
  0
XRECORD
  5
752
102
{ACAD_REACTORS
330
73D
102
}
330
73D
100
AcDbXrecord
 10
0.0
 20
0.0
 30
0.0
  0
XRECORD
  5
750
102
{ACAD_REACTORS
330
73D
102
}
330
73D
100
AcDbXrecord
 10
0.0
 20
0.0
 30
0.0
  0
XRECORD
  5
751
102
{ACAD_REACTORS
330
73D
102
}
330
73D
100
AcDbXrecord
 10
0.0
 20
0.0
 30
0.0
  0
XRECORD
  5
74E
102
{ACAD_REACTORS
330
73D
102
}
330
73D
100
AcDbXrecord
 10
0.0
 20
0.0
 30
0.0
  0
XRECORD
  5
74B
102
{ACAD_REACTORS
330
73D
102
}
330
73D
100
AcDbXrecord
340
0
  0
XRECORD
  5
74C
102
{ACAD_REACTORS
330
73D
102
}
330
73D
100
AcDbXrecord
 70
     0
  0
XRECORD
  5
741
102
{ACAD_REACTORS
330
73D
102
}
330
73D
100
AcDbXrecord
  1

  0
XRECORD
  5
73E
102
{ACAD_REACTORS
330
73D
102
}
330
73D
100
AcDbXrecord
 90
        1
  0
XRECORD
  5
73F
102
{ACAD_REACTORS
330
73D
102
}
330
73D
100
AcDbXrecord
 90
       70
  0
XRECORD
  5
756
102
{ACAD_REACTORS
330
73D
102
}
330
73D
100
AcDbXrecord
340
0
  0
XRECORD
  5
75C
102
{ACAD_REACTORS
330
73D
102
}
330
73D
100
AcDbXrecord
 10
0.0
 20
0.0
 30
0.0
  0
XRECORD
  5
758
102
{ACAD_REACTORS
330
73D
102
}
330
73D
100
AcDbXrecord
 10
0.0
 20
0.0
 30
0.0
  0
XRECORD
  5
75B
102
{ACAD_REACTORS
330
73D
102
}
330
73D
100
AcDbXrecord
 10
0.0
 20
0.0
 30
0.0
  0
XRECORD
  5
759
102
{ACAD_REACTORS
330
73D
102
}
330
73D
100
AcDbXrecord
 10
0.0
 20
0.0
 30
0.0
  0
XRECORD
  5
75A
102
{ACAD_REACTORS
330
73D
102
}
330
73D
100
AcDbXrecord
 10
0.0
 20
0.0
 30
0.0
  0
XRECORD
  5
757
102
{ACAD_REACTORS
330
73D
102
}
330
73D
100
AcDbXrecord
 10
0.0
 20
0.0
 30
0.0
  0
XRECORD
  5
754
102
{ACAD_REACTORS
330
73D
102
}
330
73D
100
AcDbXrecord
340
0
  0
XRECORD
  5
755
102
{ACAD_REACTORS
330
73D
102
}
330
73D
100
AcDbXrecord
 70
     0
  0
XRECORD
  5
749
102
{ACAD_REACTORS
330
73D
102
}
330
73D
100
AcDbXrecord
  1
{FAEB1C32-E019-11D5-929B-00C0DF256EC4}
  0
DICTIONARYVAR
  5
76B
102
{ACAD_REACTORS
330
75E
102
}
330
75E
100
DictionaryVariables
280
     0
  1
1:1
  0
DICTIONARYVAR
  5
765
102
{ACAD_REACTORS
330
75E
102
}
330
75E
100
DictionaryVariables
280
     0
  1
3.500000
  0
DICTIONARYVAR
  5
766
102
{ACAD_REACTORS
330
75E
102
}
330
75E
100
DictionaryVariables
280
     0
  1
acadiso.lin
  0
DICTIONARYVAR
  5
760
102
{ACAD_REACTORS
330
75E
102
}
330
75E
100
DictionaryVariables
280
     0
  1
Standard
  0
DICTIONARYVAR
  5
75F
102
{ACAD_REACTORS
330
75E
102
}
330
75E
100
DictionaryVariables
280
     0
  1
Standard
  0
DICTIONARYVAR
  5
767
102
{ACAD_REACTORS
330
75E
102
}
330
75E
100
DictionaryVariables
280
     0
  1
2
  0
DICTIONARYVAR
  5
768
102
{ACAD_REACTORS
330
75E
102
}
330
75E
100
DictionaryVariables
280
     0
  1
1
  0
DICTIONARYVAR
  5
76C
102
{ACAD_REACTORS
330
75E
102
}
330
75E
100
DictionaryVariables
280
     0
  1
1
  0
DICTIONARYVAR
  5
762
102
{ACAD_REACTORS
330
75E
102
}
330
75E
100
DictionaryVariables
280
     0
  1
80.000000
  0
DICTIONARYVAR
  5
761
102
{ACAD_REACTORS
330
75E
102
}
330
75E
100
DictionaryVariables
280
     0
  1
5.000000
  0
DICTIONARY
  5
76F
330
45
100
AcDbDictionary
280
     1
  3
ACAD_XREC_ROUNDTRIP
360
770
  0
DICTIONARY
  5
76D
330
44
100
AcDbDictionary
280
     1
  3
ACAD_XREC_ROUNDTRIP
360
76E
  0
DICTIONARY
  5
771
330
46
100
AcDbDictionary
280
     1
  3
ACAD_XREC_ROUNDTRIP
360
772
  0
XRECORD
  5
770
102
{ACAD_REACTORS
330
76F
102
}
330
76F
100
AcDbXrecord
102
MATERIAL
148
0.0
149
0.0
149
0.0
 93
        0
 94
      127
282
     0
 72
     1
 77
     1
171
     1
175
     1
179
     1
273
     0
  0
XRECORD
  5
76E
102
{ACAD_REACTORS
330
76D
102
}
330
76D
100
AcDbXrecord
102
MATERIAL
148
0.0
149
0.0
149
0.0
 93
        0
 94
      127
282
     0
 72
     1
 77
     1
171
     1
175
     1
179
     1
273
     0
  0
XRECORD
  5
772
102
{ACAD_REACTORS
330
771
102
}
330
771
100
AcDbXrecord
102
MATERIAL
148
0.0
149
0.0
149
0.0
 93
        0
 94
      127
282
     0
 72
     1
 77
     1
171
     1
175
     1
179
     1
273
     0
  0
ENDSEC
  0
EOF
