  0
SECTION
  2
HEADER
  9
$ACADVER
  1
AC1014
  9
$ACADMAINTVER
 70
     9
  9
$DWGCODEPAGE
  3
ANSI_932
  9
$INSBASE
 10
0.0
 20
0.0
 30
0.0
  9
$EXTMIN
 10
-5.455580244837599
 20
27.8
 30
0.0
  9
$EXTMAX
 10
748.9417904993161
 20
580.812614620773
 30
0.0
  9
$LIMMIN
 10
0.0
 20
0.0
  9
$LIMMAX
 10
570.0
 20
400.0
  9
$ORTHOMODE
 70
     0
  9
$REGENMODE
 70
     1
  9
$FILLMODE
 70
     1
  9
$QTEXTMODE
 70
     0
  9
$MIRRTEXT
 70
     1
  9
$DRAGMODE
 70
     2
  9
$LTSCALE
 40
1.0
  9
$OSMODE
 70
    37
  9
$ATTMODE
 70
     1
  9
$TEXTSIZE
 40
2.5
  9
$TRACEWID
 40
1.0
  9
$TEXTSTYLE
  7
STANDARD
  9
$CLAYER
  8
LAY-1
  9
$CELTYPE
  6
BYLAYER
  9
$CECOLOR
 62
   256
  9
$CELTSCALE
 40
1.0
  9
$DELOBJ
 70
     1
  9
$DISPSILH
 70
     0
  9
$DIMSCALE
 40
1.0
  9
$DIMASZ
 40
2.5
  9
$DIMEXO
 40
0.625
  9
$DIMDLI
 40
3.75
  9
$DIMRND
 40
0.0
  9
$DIMDLE
 40
0.0
  9
$DIMEXE
 40
1.25
  9
$DIMTP
 40
0.0
  9
$DIMTM
 40
0.0
  9
$DIMTXT
 40
2.5
  9
$DIMCEN
 40
2.5
  9
$DIMTSZ
 40
0.0
  9
$DIMTOL
 70
     0
  9
$DIMLIM
 70
     0
  9
$DIMTIH
 70
     0
  9
$DIMTOH
 70
     0
  9
$DIMSE1
 70
     0
  9
$DIMSE2
 70
     0
  9
$DIMTAD
 70
     1
  9
$DIMZIN
 70
     8
  9
$DIMBLK
  1

  9
$DIMASO
 70
     1
  9
$DIMSHO
 70
     1
  9
$DIMPOST
  1

  9
$DIMAPOST
  1

  9
$DIMALT
 70
     0
  9
$DIMALTD
 70
     3
  9
$DIMALTF
 40
0.03937007874016
  9
$DIMLFAC
 40
1.0
  9
$DIMTOFL
 70
     1
  9
$DIMTVP
 40
0.0
  9
$DIMTIX
 70
     0
  9
$DIMSOXD
 70
     0
  9
$DIMSAH
 70
     0
  9
$DIMBLK1
  1

  9
$DIMBLK2
  1

  9
$DIMSTYLE
  2
ISO-25
  9
$DIMCLRD
 70
     0
  9
$DIMCLRE
 70
     0
  9
$DIMCLRT
 70
     0
  9
$DIMTFAC
 40
1.0
  9
$DIMGAP
 40
0.625
  9
$DIMJUST
 70
     0
  9
$DIMSD1
 70
     0
  9
$DIMSD2
 70
     0
  9
$DIMTOLJ
 70
     0
  9
$DIMTZIN
 70
     8
  9
$DIMALTZ
 70
     0
  9
$DIMALTTZ
 70
     0
  9
$DIMFIT
 70
     3
  9
$DIMUPT
 70
     0
  9
$DIMUNIT
 70
     2
  9
$DIMDEC
 70
     2
  9
$DIMTDEC
 70
     2
  9
$DIMALTU
 70
     2
  9
$DIMALTTD
 70
     3
  9
$DIMTXSTY
  7
STANDARD
  9
$DIMAUNIT
 70
     0
  9
$LUNITS
 70
     2
  9
$LUPREC
 70
     4
  9
$SKETCHINC
 40
1.0
  9
$FILLETRAD
 40
10.0
  9
$AUNITS
 70
     0
  9
$AUPREC
 70
     0
  9
$MENU
  1
.
  9
$ELEVATION
 40
0.0
  9
$PELEVATION
 40
0.0
  9
$THICKNESS
 40
0.0
  9
$LIMCHECK
 70
     0
  9
$CHAMFERA
 40
0.0
  9
$CHAMFERB
 40
0.0
  9
$CHAMFERC
 40
0.0
  9
$CHAMFERD
 40
0.0
  9
$SKPOLY
 70
     0
  9
$TDCREATE
 40
2460292.646893623
  9
$TDUPDATE
 40
2460292.646893727
  9
$TDINDWG
 40
0.0000000116
  9
$TDUSRTIMER
 40
0.0000000116
  9
$USRTIMER
 70
     1
  9
$ANGBASE
 50
0.0
  9
$ANGDIR
 70
     0
  9
$PDMODE
 70
     0
  9
$PDSIZE
 40
0.0
  9
$PLINEWID
 40
0.0
  9
$COORDS
 70
     1
  9
$SPLFRAME
 70
     0
  9
$SPLINETYPE
 70
     6
  9
$SPLINESEGS
 70
     8
  9
$ATTDIA
 70
     0
  9
$ATTREQ
 70
     1
  9
$HANDLING
 70
     1
  9
$HANDSEED
  5
4E5
  9
$SURFTAB1
 70
     6
  9
$SURFTAB2
 70
     6
  9
$SURFTYPE
 70
     6
  9
$SURFU
 70
     6
  9
$SURFV
 70
     6
  9
$UCSNAME
  2

  9
$UCSORG
 10
0.0
 20
0.0
 30
0.0
  9
$UCSXDIR
 10
1.0
 20
0.0
 30
0.0
  9
$UCSYDIR
 10
0.0
 20
1.0
 30
0.0
  9
$PUCSNAME
  2

  9
$PUCSORG
 10
0.0
 20
0.0
 30
0.0
  9
$PUCSXDIR
 10
1.0
 20
0.0
 30
0.0
  9
$PUCSYDIR
 10
0.0
 20
1.0
 30
0.0
  9
$USERI1
 70
     0
  9
$USERI2
 70
     0
  9
$USERI3
 70
     0
  9
$USERI4
 70
     0
  9
$USERI5
 70
     0
  9
$USERR1
 40
0.0
  9
$USERR2
 40
0.0
  9
$USERR3
 40
0.0
  9
$USERR4
 40
0.0
  9
$USERR5
 40
0.0
  9
$WORLDVIEW
 70
     1
  9
$SHADEDGE
 70
     3
  9
$SHADEDIF
 70
    70
  9
$TILEMODE
 70
     1
  9
$MAXACTVP
 70
    64
  9
$PINSBASE
 10
0.0
 20
0.0
 30
0.0
  9
$PLIMCHECK
 70
     0
  9
$PEXTMIN
 10
1.000000000000000E+20
 20
1.000000000000000E+20
 30
1.000000000000000E+20
  9
$PEXTMAX
 10
-1.000000000000000E+20
 20
-1.000000000000000E+20
 30
-1.000000000000000E+20
  9
$PLIMMIN
 10
0.0
 20
0.0
  9
$PLIMMAX
 10
420.0
 20
297.0
  9
$UNITMODE
 70
     0
  9
$VISRETAIN
 70
     1
  9
$PLINEGEN
 70
     0
  9
$PSLTSCALE
 70
     1
  9
$TREEDEPTH
 70
  3020
  9
$PICKSTYLE
 70
     1
  9
$CMLSTYLE
  2
STANDARD
  9
$CMLJUST
 70
     0
  9
$CMLSCALE
 40
20.0
  9
$PROXYGRAPHICS
 70
     1
  9
$MEASUREMENT
 70
     1
  0
ENDSEC
  0
SECTION
  2
CLASSES
  0
CLASS
  1
ACDBDICTIONARYWDFLT
  2
AcDbDictionaryWithDefault
  3
ObjectDBX Classes
 90
        0
280
     0
281
     0
  0
CLASS
  1
VISUALSTYLE
  2
AcDbVisualStyle
  3
ObjectDBX Classes
 90
     4095
280
     0
281
     0
  0
CLASS
  1
MATERIAL
  2
AcDbMaterial
  3
ObjectDBX Classes
 90
     1153
280
     0
281
     0
  0
CLASS
  1
SCALE
  2
AcDbScale
  3
ObjectDBX Classes
 90
     1153
280
     0
281
     0
  0
CLASS
  1
TABLESTYLE
  2
AcDbTableStyle
  3
ObjectDBX Classes
 90
     4095
280
     0
281
     0
  0
CLASS
  1
MLEADERSTYLE
  2
AcDbMLeaderStyle
  3
ACDB_MLEADERSTYLE_CLASS
 90
     4095
280
     0
281
     0
  0
CLASS
  1
SUN
  2
AcDbSun
  3
SCENEOE
 90
     1153
280
     0
281
     0
  0
CLASS
  1
DICTIONARYVAR
  2
AcDbDictionaryVar
  3
ObjectDBX Classes
 90
        0
280
     0
281
     0
  0
CLASS
  1
XRECORD
  2
AcDbXrecord
  3
ObjectDBX Classes
 90
        0
280
     0
281
     0
  0
CLASS
  1
LWPOLYLINE
  2
AcDbPolyline
  3
ObjectDBX Classes
 90
        0
280
     0
281
     1
  0
CLASS
  1
HATCH
  2
AcDbHatch
  3
ObjectDBX Classes
 90
        0
280
     0
281
     1
  0
CLASS
  1
ACDBPLACEHOLDER
  2
AcDbPlaceHolder
  3
ObjectDBX Classes
 90
        0
280
     0
281
     0
  0
CLASS
  1
LAYOUT
  2
AcDbLayout
  3
ObjectDBX Classes
 90
        0
280
     0
281
     0
  0
ENDSEC
  0
SECTION
  2
TABLES
  0
TABLE
  2
VPORT
  5
8
102
{ACAD_XDICTIONARY
360
4DA
102
}
330
0
100
AcDbSymbolTable
 70
     1
  0
VPORT
  5
29
330
8
100
AcDbSymbolTableRecord
100
AcDbViewportTableRecord
  2
*ACTIVE
 70
     0
 10
0.0
 20
0.0
 11
1.0
 21
1.0
 12
372.5243123775812
 22
304.3063073103865
 13
0.0
 23
0.0
 14
10.0
 24
10.0
 15
10.0
 25
10.0
 16
0.0
 26
0.0
 36
1.0
 17
0.0
 27
0.0
 37
0.0
 40
553.0126146207731
 41
1.366984703890046
 42
50.0
 43
0.0
 44
0.0
 50
0.0
 51
0.0
 71
     0
 72
  1000
 73
     1
 74
     3
 75
     0
 76
     0
 77
     0
 78
     0
  0
ENDTAB
  0
TABLE
  2
LTYPE
  5
5
330
0
100
AcDbSymbolTable
 70
    12
  0
LTYPE
  5
14
330
5
100
AcDbSymbolTableRecord
100
AcDbLinetypeTableRecord
  2
BYBLOCK
 70
     0
  3

 72
    65
 73
     0
 40
0.0
  0
LTYPE
  5
15
330
5
100
AcDbSymbolTableRecord
100
AcDbLinetypeTableRecord
  2
BYLAYER
 70
     0
  3

 72
    65
 73
     0
 40
0.0
  0
LTYPE
  5
16
330
5
100
AcDbSymbolTableRecord
100
AcDbLinetypeTableRecord
  2
CONTINUOUS
 70
     0
  3
Solid line
 72
    65
 73
     0
 40
0.0
  0
LTYPE
  5
6E
330
5
100
AcDbSymbolTableRecord
100
AcDbLinetypeTableRecord
  2
EXLTYPE0
 70
     0
  3
一点鎖線3
 72
    65
 73
     4
 40
33.0
 49
30.0
 74
     0
 49
-1.0
 74
     0
 49
1.0
 74
     0
 49
-1.0
 74
     0
  0
LTYPE
  5
6F
330
5
100
AcDbSymbolTableRecord
100
AcDbLinetypeTableRecord
  2
EXLTYPE1
 70
     0
  3
二点鎖線3
 72
    65
 73
     6
 40
35.0
 49
30.0
 74
     0
 49
-1.0
 74
     0
 49
1.0
 74
     0
 49
-1.0
 74
     0
 49
1.0
 74
     0
 49
-1.0
 74
     0
  0
LTYPE
  5
70
330
5
100
AcDbSymbolTableRecord
100
AcDbLinetypeTableRecord
  2
EXLTYPE2
 70
     0
  3
四点鎖線
 72
    65
 73
    10
 40
39.0
 49
30.0
 74
     0
 49
-1.0
 74
     0
 49
1.0
 74
     0
 49
-1.0
 74
     0
 49
1.0
 74
     0
 49
-1.0
 74
     0
 49
1.0
 74
     0
 49
-1.0
 74
     0
 49
1.0
 74
     0
 49
-1.0
 74
     0
  0
LTYPE
  5
71
330
5
100
AcDbSymbolTableRecord
100
AcDbLinetypeTableRecord
  2
EXLTYPE3
 70
     0
  3
一点鎖線2
 72
    65
 73
     4
 40
8.0
 49
5.0
 74
     0
 49
-1.0
 74
     0
 49
1.0
 74
     0
 49
-1.0
 74
     0
  0
LTYPE
  5
72
330
5
100
AcDbSymbolTableRecord
100
AcDbLinetypeTableRecord
  2
EXLTYPE4
 70
     0
  3
点線
 72
    65
 73
     2
 40
2.0
 49
1.0
 74
     0
 49
-1.0
 74
     0
  0
LTYPE
  5
73
330
5
100
AcDbSymbolTableRecord
100
AcDbLinetypeTableRecord
  2
EXLTYPE5
 70
     0
  3
一点鎖線
 72
    65
 73
     4
 40
13.0
 49
10.0
 74
     0
 49
-1.0
 74
     0
 49
1.0
 74
     0
 49
-1.0
 74
     0
  0
LTYPE
  5
74
330
5
100
AcDbSymbolTableRecord
100
AcDbLinetypeTableRecord
  2
EXLTYPE6
 70
     0
  3
二点鎖線
 72
    65
 73
     6
 40
15.0
 49
10.0
 74
     0
 49
-1.0
 74
     0
 49
1.0
 74
     0
 49
-1.0
 74
     0
 49
1.0
 74
     0
 49
-1.0
 74
     0
  0
LTYPE
  5
75
330
5
100
AcDbSymbolTableRecord
100
AcDbLinetypeTableRecord
  2
EXLTYPE7
 70
     0
  3
破線
 72
    65
 73
     2
 40
3.0
 49
2.0
 74
     0
 49
-1.0
 74
     0
  0
LTYPE
  5
76
330
5
100
AcDbSymbolTableRecord
100
AcDbLinetypeTableRecord
  2
EXLTYPE8
 70
     0
  3
点線2
 72
    65
 73
     2
 40
1.0
 49
0.5
 74
     0
 49
-0.5
 74
     0
  0
LTYPE
  5
77
330
5
100
AcDbSymbolTableRecord
100
AcDbLinetypeTableRecord
  2
EXLTYPE9
 70
     0
  3
二点鎖線2
 72
    65
 73
     6
 40
7.5
 49
5.0
 74
     0
 49
-0.5
 74
     0
 49
0.5
 74
     0
 49
-0.5
 74
     0
 49
0.5
 74
     0
 49
-0.5
 74
     0
  0
LTYPE
  5
78
330
5
100
AcDbSymbolTableRecord
100
AcDbLinetypeTableRecord
  2
EXLTYPE10
 70
     0
  3
三点鎖線
 72
    65
 73
     8
 40
37.0
 49
30.0
 74
     0
 49
-1.0
 74
     0
 49
1.0
 74
     0
 49
-1.0
 74
     0
 49
1.0
 74
     0
 49
-1.0
 74
     0
 49
1.0
 74
     0
 49
-1.0
 74
     0
  0
ENDTAB
  0
TABLE
  2
LAYER
  5
2
330
0
100
AcDbSymbolTable
 70
     3
  0
LAYER
  5
10
330
2
100
AcDbSymbolTableRecord
100
AcDbLayerTableRecord
  2
0
 70
     0
 62
     7
  6
CONTINUOUS
  0
LAYER
  5
7B
330
2
100
AcDbSymbolTableRecord
100
AcDbLayerTableRecord
  2
LAY-1
 70
     0
 62
     7
  6
CONTINUOUS
  0
LAYER
  5
DA
330
2
100
AcDbSymbolTableRecord
100
AcDbLayerTableRecord
  2
DEFPOINTS
 70
     0
 62
     7
  6
CONTINUOUS
  0
ENDTAB
  0
TABLE
  2
STYLE
  5
3
330
0
100
AcDbSymbolTable
 70
     5
  0
STYLE
  5
11
330
3
100
AcDbSymbolTableRecord
100
AcDbTextStyleTableRecord
  2
STANDARD
 70
     0
 40
0.0
 41
1.0
 50
0.0
 71
     0
 42
2.5
  3
monotxt
  4
extfont
  0
STYLE
  5
79
330
3
100
AcDbSymbolTableRecord
100
AcDbTextStyleTableRecord
  2
EXCADSTD
 70
     0
 40
0.0
 41
1.0
 50
0.0
 71
     0
 42
2.5
  3
monotxt
  4
extfont
  0
STYLE
  5
7A
330
3
100
AcDbSymbolTableRecord
100
AcDbTextStyleTableRecord
  2
EXCADVERT
 70
     4
 40
0.0
 41
1.0
 50
0.0
 71
     0
 42
2.5
  3
monotxt
  4
extfont
  0
STYLE
  5
D8
330
3
100
AcDbSymbolTableRecord
100
AcDbTextStyleTableRecord
  2
EXCADDIM1
 70
     0
 40
0.0
 41
1.0
 50
0.0
 71
     0
 42
2.5
  3
msmincho.ttc
  4

1001
ACAD
1000
MS Mincho
1071
    32785
  0
STYLE
  5
256
330
3
100
AcDbSymbolTableRecord
100
AcDbTextStyleTableRecord
  2
EXCADTTF1
 70
     0
 40
0.0
 41
1.0
 50
0.0
 71
     0
 42
2.5
  3
msmincho.ttc
  4

1001
ACAD
1000
MS Mincho
1071
    32785
  0
ENDTAB
  0
TABLE
  2
VIEW
  5
6
330
0
100
AcDbSymbolTable
 70
     0
  0
ENDTAB
  0
TABLE
  2
UCS
  5
7
330
0
100
AcDbSymbolTable
 70
     0
  0
ENDTAB
  0
TABLE
  2
APPID
  5
9
330
0
100
AcDbSymbolTable
 70
     2
  0
APPID
  5
12
330
9
100
AcDbSymbolTableRecord
100
AcDbRegAppTableRecord
  2
ACAD
 70
     0
  0
APPID
  5
4E4
330
9
100
AcDbSymbolTableRecord
100
AcDbRegAppTableRecord
  2
ACAD_MLEADERVER
 70
     0
  0
ENDTAB
  0
TABLE
  2
DIMSTYLE
  5
A
330
0
100
AcDbSymbolTable
 70
     1
  0
DIMSTYLE
105
27
102
{ACAD_REACTORS
330
D9
330
E7
330
F4
102
}
330
A
100
AcDbSymbolTableRecord
100
AcDbDimStyleTableRecord
  2
ISO-25
 70
     0
  3

  4

  5

  6

  7

 40
1.0
 41
2.5
 42
0.625
 43
3.75
 44
1.25
 45
0.0
 46
0.0
 47
0.0
 48
0.0
140
2.5
141
2.5
142
0.0
143
0.03937007874016
144
1.0
145
0.0
146
1.0
147
0.625
 71
     0
 72
     0
 73
     0
 74
     0
 75
     0
 76
     0
 77
     1
 78
     8
170
     0
171
     3
172
     1
173
     0
174
     0
175
     0
176
     0
177
     0
178
     0
270
     2
271
     2
272
     2
273
     2
274
     3
340
11
275
     0
280
     0
281
     0
282
     0
283
     0
284
     8
285
     0
286
     0
287
     5
288
     0
  0
ENDTAB
  0
TABLE
  2
BLOCK_RECORD
  5
1
330
0
100
AcDbSymbolTable
 70
    17
  0
BLOCK_RECORD
  5
1F
330
1
100
AcDbSymbolTableRecord
100
AcDbBlockTableRecord
  2
*MODEL_SPACE
  0
BLOCK_RECORD
  5
1B
330
1
100
AcDbSymbolTableRecord
100
AcDbBlockTableRecord
  2
*PAPER_SPACE
  0
BLOCK_RECORD
  5
7C
330
1
100
AcDbSymbolTableRecord
100
AcDbBlockTableRecord
  2
EX_NORM
  0
BLOCK_RECORD
  5
7F
330
1
100
AcDbSymbolTableRecord
100
AcDbBlockTableRecord
  2
EX_BNORM
  0
BLOCK_RECORD
  5
82
330
1
100
AcDbSymbolTableRecord
100
AcDbBlockTableRecord
  2
EX_BCIR
  0
BLOCK_RECORD
  5
85
330
1
100
AcDbSymbolTableRecord
100
AcDbBlockTableRecord
  2
EX_RCIVIL
  0
BLOCK_RECORD
  5
88
330
1
100
AcDbSymbolTableRecord
100
AcDbBlockTableRecord
  2
EX_SLANT
  0
BLOCK_RECORD
  5
8B
330
1
100
AcDbSymbolTableRecord
100
AcDbBlockTableRecord
  2
EX_NONE
  0
BLOCK_RECORD
  5
8E
330
1
100
AcDbSymbolTableRecord
100
AcDbBlockTableRecord
  2
EX_CIVIL
  0
BLOCK_RECORD
  5
91
330
1
100
AcDbSymbolTableRecord
100
AcDbBlockTableRecord
  2
EX_WCIR
  0
BLOCK_RECORD
  5
94
330
1
100
AcDbSymbolTableRecord
100
AcDbBlockTableRecord
  2
EX_WCIR2
  0
BLOCK_RECORD
  5
97
330
1
100
AcDbSymbolTableRecord
100
AcDbBlockTableRecord
  2
EX_WNORM
  0
BLOCK_RECORD
  5
9A
330
1
100
AcDbSymbolTableRecord
100
AcDbBlockTableRecord
  2
EX_NNORM
  0
BLOCK_RECORD
  5
9D
330
1
100
AcDbSymbolTableRecord
100
AcDbBlockTableRecord
  2
EX_BBOX
  0
BLOCK_RECORD
  5
A0
330
1
100
AcDbSymbolTableRecord
100
AcDbBlockTableRecord
  2
EX_WBOX
  0
BLOCK_RECORD
  5
A3
330
1
100
AcDbSymbolTableRecord
100
AcDbBlockTableRecord
  2
EX_INTEGRAL
  0
BLOCK_RECORD
  5
DB
330
1
100
AcDbSymbolTableRecord
100
AcDbBlockTableRecord
  2
*D15
  0
BLOCK_RECORD
  5
E8
330
1
100
AcDbSymbolTableRecord
100
AcDbBlockTableRecord
  2
*D16
  0
BLOCK_RECORD
  5
F5
330
1
100
AcDbSymbolTableRecord
100
AcDbBlockTableRecord
  2
*D17
  0
ENDTAB
  0
ENDSEC
  0
SECTION
  2
BLOCKS
  0
BLOCK
  5
20
330
1F
100
AcDbEntity
  8
0
100
AcDbBlockBegin
  2
*MODEL_SPACE
 70
     0
 10
0.0
 20
0.0
 30
0.0
  3
*MODEL_SPACE
  1

  0
ENDBLK
  5
21
330
1F
100
AcDbEntity
  8
0
100
AcDbBlockEnd
  0
BLOCK
  5
1C
330
1B
100
AcDbEntity
 67
     1
  8
0
100
AcDbBlockBegin
  2
*PAPER_SPACE
 70
     0
 10
0.0
 20
0.0
 30
0.0
  3
*PAPER_SPACE
  1

  0
ENDBLK
  5
1D
330
1B
100
AcDbEntity
 67
     1
  8
0
100
AcDbBlockEnd
  0
BLOCK
  5
7D
330
7C
100
AcDbEntity
  8
0
100
AcDbBlockBegin
  2
EX_NORM
 70
     0
 10
0.0
 20
0.0
 30
0.0
  3
EX_NORM
  1

  0
LINE
  5
A6
330
7C
100
AcDbEntity
  8
0
  6
CONTINUOUS
 62
     0
100
AcDbLine
 10
0.0
 20
0.0
 30
0.0
 11
-1.0
 21
0.0
 31
0.0
  0
LINE
  5
A7
330
7C
100
AcDbEntity
  8
0
  6
CONTINUOUS
 62
     0
100
AcDbLine
 10
0.0
 20
0.0
 30
0.0
 11
-1.0
 21
0.166666667
 31
0.0
  0
LINE
  5
A8
330
7C
100
AcDbEntity
  8
0
  6
CONTINUOUS
 62
     0
100
AcDbLine
 10
0.0
 20
0.0
 30
0.0
 11
-1.0
 21
-0.166666667
 31
0.0
  0
ENDBLK
  5
7E
330
7C
100
AcDbEntity
  8
0
100
AcDbBlockEnd
  0
BLOCK
  5
80
330
7F
100
AcDbEntity
  8
0
100
AcDbBlockBegin
  2
EX_BNORM
 70
     0
 10
0.0
 20
0.0
 30
0.0
  3
EX_BNORM
  1

  0
LINE
  5
A9
330
7F
100
AcDbEntity
  8
0
  6
CONTINUOUS
 62
     0
100
AcDbLine
 10
0.0
 20
0.0
 30
0.0
 11
-1.0
 21
0.0
 31
0.0
  0
LINE
  5
AA
330
7F
100
AcDbEntity
  8
0
  6
CONTINUOUS
 62
     0
100
AcDbLine
 10
0.0
 20
0.0
 30
0.0
 11
-1.0
 21
0.166666667
 31
0.0
  0
LINE
  5
AB
330
7F
100
AcDbEntity
  8
0
  6
CONTINUOUS
 62
     0
100
AcDbLine
 10
0.0
 20
0.0
 30
0.0
 11
-1.0
 21
-0.166666667
 31
0.0
  0
LINE
  5
AC
330
7F
100
AcDbEntity
  8
0
  6
CONTINUOUS
 62
     0
100
AcDbLine
 10
0.0
 20
0.0
 30
0.0
 11
-1.0
 21
0.083333333
 31
0.0
  0
LINE
  5
AD
330
7F
100
AcDbEntity
  8
0
  6
CONTINUOUS
 62
     0
100
AcDbLine
 10
0.0
 20
0.0
 30
0.0
 11
-1.0
 21
-0.083333333
 31
0.0
  0
LINE
  5
AE
330
7F
100
AcDbEntity
  8
0
  6
CONTINUOUS
 62
     0
100
AcDbLine
 10
-1.0
 20
0.166666667
 30
0.0
 11
-1.0
 21
-0.166666667
 31
0.0
  0
ENDBLK
  5
81
330
7F
100
AcDbEntity
  8
0
100
AcDbBlockEnd
  0
BLOCK
  5
83
330
82
100
AcDbEntity
  8
0
100
AcDbBlockBegin
  2
EX_BCIR
 70
     0
 10
0.0
 20
0.0
 30
0.0
  3
EX_BCIR
  1

  0
LINE
  5
AF
330
82
100
AcDbEntity
  8
0
  6
CONTINUOUS
 62
     0
100
AcDbLine
 10
0.0
 20
0.0
 30
0.0
 11
-1.0
 21
0.0
 31
0.0
  0
CIRCLE
  5
B0
330
82
100
AcDbEntity
  8
0
  6
CONTINUOUS
 62
     0
100
AcDbCircle
 10
0.0
 20
0.0
 30
0.0
 40
0.5
  0
CIRCLE
  5
B1
330
82
100
AcDbEntity
  8
0
  6
CONTINUOUS
 62
     0
100
AcDbCircle
 10
0.0
 20
0.0
 30
0.0
 40
0.25
  0
ENDBLK
  5
84
330
82
100
AcDbEntity
  8
0
100
AcDbBlockEnd
  0
BLOCK
  5
86
330
85
100
AcDbEntity
  8
0
100
AcDbBlockBegin
  2
EX_RCIVIL
 70
     0
 10
0.0
 20
0.0
 30
0.0
  3
EX_RCIVIL
  1

  0
LINE
  5
B2
330
85
100
AcDbEntity
  8
0
  6
CONTINUOUS
 62
     0
100
AcDbLine
 10
0.0
 20
0.0
 30
0.0
 11
-1.0
 21
0.0
 31
0.0
  0
LINE
  5
B3
330
85
100
AcDbEntity
  8
0
  6
CONTINUOUS
 62
     0
100
AcDbLine
 10
-1.0
 20
-0.25
 30
0.0
 11
0.0
 21
-0.25
 31
0.0
  0
LINE
  5
B4
330
85
100
AcDbEntity
  8
0
  6
CONTINUOUS
 62
     0
100
AcDbLine
 10
-1.0
 20
-0.125
 30
0.0
 11
0.0
 21
-0.125
 31
0.0
  0
ENDBLK
  5
87
330
85
100
AcDbEntity
  8
0
100
AcDbBlockEnd
  0
BLOCK
  5
89
330
88
100
AcDbEntity
  8
0
100
AcDbBlockBegin
  2
EX_SLANT
 70
     0
 10
0.0
 20
0.0
 30
0.0
  3
EX_SLANT
  1

  0
LINE
  5
B5
330
88
100
AcDbEntity
  8
0
  6
CONTINUOUS
 62
     0
100
AcDbLine
 10
0.0
 20
0.0
 30
0.0
 11
-1.0
 21
0.0
 31
0.0
  0
LINE
  5
B6
330
88
100
AcDbEntity
  8
0
  6
CONTINUOUS
 62
     0
100
AcDbLine
 10
0.707106781
 20
0.707106781
 30
0.0
 11
-0.707106781
 21
-0.707106781
 31
0.0
  0
ENDBLK
  5
8A
330
88
100
AcDbEntity
  8
0
100
AcDbBlockEnd
  0
BLOCK
  5
8C
330
8B
100
AcDbEntity
  8
0
100
AcDbBlockBegin
  2
EX_NONE
 70
     0
 10
0.0
 20
0.0
 30
0.0
  3
EX_NONE
  1

  0
LINE
  5
B7
330
8B
100
AcDbEntity
  8
0
  6
CONTINUOUS
 62
     0
100
AcDbLine
 10
0.0
 20
0.0
 30
0.0
 11
-1.0
 21
0.0
 31
0.0
  0
ENDBLK
  5
8D
330
8B
100
AcDbEntity
  8
0
100
AcDbBlockEnd
  0
BLOCK
  5
8F
330
8E
100
AcDbEntity
  8
0
100
AcDbBlockBegin
  2
EX_CIVIL
 70
     0
 10
0.0
 20
0.0
 30
0.0
  3
EX_CIVIL
  1

  0
LINE
  5
B8
330
8E
100
AcDbEntity
  8
0
  6
CONTINUOUS
 62
     0
100
AcDbLine
 10
0.0
 20
0.0
 30
0.0
 11
-1.0
 21
0.0
 31
0.0
  0
LINE
  5
B9
330
8E
100
AcDbEntity
  8
0
  6
CONTINUOUS
 62
     0
100
AcDbLine
 10
-1.0
 20
0.25
 30
0.0
 11
0.0
 21
0.25
 31
0.0
  0
LINE
  5
BA
330
8E
100
AcDbEntity
  8
0
  6
CONTINUOUS
 62
     0
100
AcDbLine
 10
-1.0
 20
0.125
 30
0.0
 11
0.0
 21
0.125
 31
0.0
  0
ENDBLK
  5
90
330
8E
100
AcDbEntity
  8
0
100
AcDbBlockEnd
  0
BLOCK
  5
92
330
91
100
AcDbEntity
  8
0
100
AcDbBlockBegin
  2
EX_WCIR
 70
     0
 10
0.0
 20
0.0
 30
0.0
  3
EX_WCIR
  1

  0
LINE
  5
BB
330
91
100
AcDbEntity
  8
0
  6
CONTINUOUS
 62
     0
100
AcDbLine
 10
0.0
 20
0.0
 30
0.0
 11
-1.0
 21
0.0
 31
0.0
  0
CIRCLE
  5
BC
330
91
100
AcDbEntity
  8
0
  6
CONTINUOUS
 62
     0
100
AcDbCircle
 10
0.0
 20
0.0
 30
0.0
 40
0.5
  0
ENDBLK
  5
93
330
91
100
AcDbEntity
  8
0
100
AcDbBlockEnd
  0
BLOCK
  5
95
330
94
100
AcDbEntity
  8
0
100
AcDbBlockBegin
  2
EX_WCIR2
 70
     0
 10
0.0
 20
0.0
 30
0.0
  3
EX_WCIR2
  1

  0
LINE
  5
BD
330
94
100
AcDbEntity
  8
0
  6
CONTINUOUS
 62
     0
100
AcDbLine
 10
-0.5
 20
0.0
 30
0.0
 11
-1.0
 21
0.0
 31
0.0
  0
CIRCLE
  5
BE
330
94
100
AcDbEntity
  8
0
  6
CONTINUOUS
 62
     0
100
AcDbCircle
 10
0.0
 20
0.0
 30
0.0
 40
0.5
  0
ENDBLK
  5
96
330
94
100
AcDbEntity
  8
0
100
AcDbBlockEnd
  0
BLOCK
  5
98
330
97
100
AcDbEntity
  8
0
100
AcDbBlockBegin
  2
EX_WNORM
 70
     0
 10
0.0
 20
0.0
 30
0.0
  3
EX_WNORM
  1

  0
LINE
  5
BF
330
97
100
AcDbEntity
  8
0
  6
CONTINUOUS
 62
     0
100
AcDbLine
 10
-1.0
 20
0.0
 30
0.0
 11
-1.0
 21
0.0
 31
0.0
  0
LINE
  5
C0
330
97
100
AcDbEntity
  8
0
  6
CONTINUOUS
 62
     0
100
AcDbLine
 10
0.0
 20
0.0
 30
0.0
 11
-1.0
 21
0.166666667
 31
0.0
  0
LINE
  5
C1
330
97
100
AcDbEntity
  8
0
  6
CONTINUOUS
 62
     0
100
AcDbLine
 10
0.0
 20
0.0
 30
0.0
 11
-1.0
 21
-0.166666667
 31
0.0
  0
LINE
  5
C2
330
97
100
AcDbEntity
  8
0
  6
CONTINUOUS
 62
     0
100
AcDbLine
 10
-1.0
 20
0.166666667
 30
0.0
 11
-1.0
 21
-0.166666667
 31
0.0
  0
ENDBLK
  5
99
330
97
100
AcDbEntity
  8
0
100
AcDbBlockEnd
  0
BLOCK
  5
9B
330
9A
100
AcDbEntity
  8
0
100
AcDbBlockBegin
  2
EX_NNORM
 70
     0
 10
0.0
 20
0.0
 30
0.0
  3
EX_NNORM
  1

  0
LINE
  5
C3
330
9A
100
AcDbEntity
  8
0
  6
CONTINUOUS
 62
     0
100
AcDbLine
 10
0.0
 20
0.0
 30
0.0
 11
-1.0
 21
0.0
 31
0.0
  0
LINE
  5
C4
330
9A
100
AcDbEntity
  8
0
  6
CONTINUOUS
 62
     0
100
AcDbLine
 10
0.0
 20
0.0
 30
0.0
 11
-1.0
 21
0.166666667
 31
0.0
  0
LINE
  5
C5
330
9A
100
AcDbEntity
  8
0
  6
CONTINUOUS
 62
     0
100
AcDbLine
 10
0.0
 20
0.0
 30
0.0
 11
-1.0
 21
-0.166666667
 31
0.0
  0
LINE
  5
C6
330
9A
100
AcDbEntity
  8
0
  6
CONTINUOUS
 62
     0
100
AcDbLine
 10
-1.0
 20
0.166666667
 30
0.0
 11
-1.0
 21
-0.166666667
 31
0.0
  0
ENDBLK
  5
9C
330
9A
100
AcDbEntity
  8
0
100
AcDbBlockEnd
  0
BLOCK
  5
9E
330
9D
100
AcDbEntity
  8
0
100
AcDbBlockBegin
  2
EX_BBOX
 70
     0
 10
0.0
 20
0.0
 30
0.0
  3
EX_BBOX
  1

  0
LINE
  5
C7
330
9D
100
AcDbEntity
  8
0
  6
CONTINUOUS
 62
     0
100
AcDbLine
 10
0.0
 20
0.0
 30
0.0
 11
-1.0
 21
0.0
 31
0.0
  0
LINE
  5
C8
330
9D
100
AcDbEntity
  8
0
  6
CONTINUOUS
 62
     0
100
AcDbLine
 10
-0.5
 20
0.5
 30
0.0
 11
0.5
 21
0.5
 31
0.0
  0
LINE
  5
C9
330
9D
100
AcDbEntity
  8
0
  6
CONTINUOUS
 62
     0
100
AcDbLine
 10
0.5
 20
0.5
 30
0.0
 11
0.5
 21
-0.5
 31
0.0
  0
LINE
  5
CA
330
9D
100
AcDbEntity
  8
0
  6
CONTINUOUS
 62
     0
100
AcDbLine
 10
0.5
 20
-0.5
 30
0.0
 11
-0.5
 21
-0.5
 31
0.0
  0
LINE
  5
CB
330
9D
100
AcDbEntity
  8
0
  6
CONTINUOUS
 62
     0
100
AcDbLine
 10
-0.5
 20
-0.5
 30
0.0
 11
-0.5
 21
0.5
 31
0.0
  0
LINE
  5
CC
330
9D
100
AcDbEntity
  8
0
  6
CONTINUOUS
 62
     0
100
AcDbLine
 10
-0.25
 20
0.25
 30
0.0
 11
0.25
 21
0.25
 31
0.0
  0
LINE
  5
CD
330
9D
100
AcDbEntity
  8
0
  6
CONTINUOUS
 62
     0
100
AcDbLine
 10
0.25
 20
0.25
 30
0.0
 11
0.25
 21
-0.25
 31
0.0
  0
LINE
  5
CE
330
9D
100
AcDbEntity
  8
0
  6
CONTINUOUS
 62
     0
100
AcDbLine
 10
0.25
 20
-0.25
 30
0.0
 11
-0.25
 21
-0.25
 31
0.0
  0
LINE
  5
CF
330
9D
100
AcDbEntity
  8
0
  6
CONTINUOUS
 62
     0
100
AcDbLine
 10
-0.25
 20
-0.25
 30
0.0
 11
-0.25
 21
0.25
 31
0.0
  0
ENDBLK
  5
9F
330
9D
100
AcDbEntity
  8
0
100
AcDbBlockEnd
  0
BLOCK
  5
A1
330
A0
100
AcDbEntity
  8
0
100
AcDbBlockBegin
  2
EX_WBOX
 70
     0
 10
0.0
 20
0.0
 30
0.0
  3
EX_WBOX
  1

  0
LINE
  5
D0
330
A0
100
AcDbEntity
  8
0
  6
CONTINUOUS
 62
     0
100
AcDbLine
 10
-0.5
 20
0.0
 30
0.0
 11
-1.0
 21
0.0
 31
0.0
  0
LINE
  5
D1
330
A0
100
AcDbEntity
  8
0
  6
CONTINUOUS
 62
     0
100
AcDbLine
 10
-0.5
 20
0.5
 30
0.0
 11
0.5
 21
0.5
 31
0.0
  0
LINE
  5
D2
330
A0
100
AcDbEntity
  8
0
  6
CONTINUOUS
 62
     0
100
AcDbLine
 10
0.5
 20
0.5
 30
0.0
 11
0.5
 21
-0.5
 31
0.0
  0
LINE
  5
D3
330
A0
100
AcDbEntity
  8
0
  6
CONTINUOUS
 62
     0
100
AcDbLine
 10
0.5
 20
-0.5
 30
0.0
 11
-0.5
 21
-0.5
 31
0.0
  0
LINE
  5
D4
330
A0
100
AcDbEntity
  8
0
  6
CONTINUOUS
 62
     0
100
AcDbLine
 10
-0.5
 20
-0.5
 30
0.0
 11
-0.5
 21
0.5
 31
0.0
  0
ENDBLK
  5
A2
330
A0
100
AcDbEntity
  8
0
100
AcDbBlockEnd
  0
BLOCK
  5
A4
330
A3
100
AcDbEntity
  8
0
100
AcDbBlockBegin
  2
EX_INTEGRAL
 70
     0
 10
0.0
 20
0.0
 30
0.0
  3
EX_INTEGRAL
  1

  0
LINE
  5
D5
330
A3
100
AcDbEntity
  8
0
  6
CONTINUOUS
 62
     0
100
AcDbLine
 10
0.0
 20
0.0
 30
0.0
 11
-1.0
 21
0.0
 31
0.0
  0
ARC
  5
D6
330
A3
100
AcDbEntity
  8
0
  6
CONTINUOUS
 62
     0
100
AcDbCircle
 10
0.542115
 20
0.164992
 30
0.0
 40
0.56667
100
AcDbArc
 50
73.07249033629006
 51
196.9275130221199
  0
ARC
  5
D7
330
A3
100
AcDbEntity
  8
0
  6
CONTINUOUS
 62
     0
100
AcDbCircle
 10
-0.542115
 20
-0.164992
 30
0.0
 40
0.56667
100
AcDbArc
 50
253.0724869220464
 51
16.9275130559125
  0
ENDBLK
  5
A5
330
A3
100
AcDbEntity
  8
0
100
AcDbBlockEnd
  0
BLOCK
  5
DC
330
DB
100
AcDbEntity
  8
0
100
AcDbBlockBegin
  2
*D15
 70
     1
 10
0.0
 20
0.0
 30
0.0
  3
*D15
  1

  0
LINE
  5
DE
330
DB
100
AcDbEntity
  8
LAY-1
  6
CONTINUOUS
 62
     1
100
AcDbLine
 10
661.505133
 20
38.27907262077303
 30
0.0
 11
733.0041440000001
 21
38.27907262077301
 31
0.0
  0
LINE
  5
DF
330
DB
100
AcDbEntity
  8
LAY-1
  6
CONTINUOUS
 62
     1
100
AcDbLine
 10
704.604144
 20
143.279072620773
 30
0.0
 11
733.0041440000001
 21
143.279072620773
 31
0.0
  0
LINE
  5
E0
330
DB
100
AcDbEntity
  8
LAY-1
  6
CONTINUOUS
 62
     1
100
AcDbLine
 10
731.0041440000001
 20
43.27907262077301
 30
0.0
 11
731.0041440000001
 21
138.279072620773
 31
0.0
  0
INSERT
  5
E1
330
DB
100
AcDbEntity
  8
LAY-1
 62
     1
100
AcDbBlockReference
  2
EX_NORM
 10
731.0041440000001
 20
38.27907262077301
 30
0.0
 41
5.0
 42
5.0
 43
5.0
 50
270.0
  0
INSERT
  5
E2
330
DB
100
AcDbEntity
  8
LAY-1
 62
     1
100
AcDbBlockReference
  2
EX_NORM
 10
731.0041440000001
 20
143.279072620773
 30
0.0
 41
5.0
 42
5.0
 43
5.0
 50
90.0
  0
MTEXT
  5
E3
330
DB
100
AcDbEntity
  8
LAY-1
 62
     3
100
AcDbMText
 10
724.0041440000001
 20
90.77907262077304
 30
0.0
 40
8.203189124487004
 41
0.0
 71
     5
 72
     1
  1
105
  7
EXCADDIM1
 11
0.0
 21
1.0
 31
0.0
  0
POINT
  5
E4
330
DB
100
AcDbEntity
  8
DEFPOINTS
 62
     0
100
AcDbPoint
 10
659.505133
 20
38.27907262077303
 30
0.0
  0
POINT
  5
E5
330
DB
100
AcDbEntity
  8
DEFPOINTS
 62
     0
100
AcDbPoint
 10
702.604144
 20
143.279072620773
 30
0.0
  0
POINT
  5
E6
330
DB
100
AcDbEntity
  8
DEFPOINTS
 62
     0
100
AcDbPoint
 10
731.0041440000001
 20
143.279072620773
 30
0.0
  0
ENDBLK
  5
DD
330
DB
100
AcDbEntity
  8
0
100
AcDbBlockEnd
  0
BLOCK
  5
E9
330
E8
100
AcDbEntity
  8
0
100
AcDbBlockBegin
  2
*D16
 70
     1
 10
0.0
 20
0.0
 30
0.0
  3
*D16
  1

  0
LINE
  5
EB
330
E8
100
AcDbEntity
  8
LAY-1
  6
CONTINUOUS
 62
     1
100
AcDbLine
 10
541.18453084852
 20
265.279078351403
 30
0.0
 11
732.604144
 21
265.279078351403
 31
0.0
  0
LINE
  5
EC
330
E8
100
AcDbEntity
  8
LAY-1
  6
CONTINUOUS
 62
     1
100
AcDbLine
 10
704.604144
 20
143.279072620773
 30
0.0
 11
732.604144
 21
143.279072620773
 31
0.0
  0
LINE
  5
ED
330
E8
100
AcDbEntity
  8
LAY-1
  6
CONTINUOUS
 62
     1
100
AcDbLine
 10
730.604144
 20
260.279078351403
 30
0.0
 11
730.604144
 21
148.279072620773
 31
0.0
  0
INSERT
  5
EE
330
E8
100
AcDbEntity
  8
LAY-1
 62
     1
100
AcDbBlockReference
  2
EX_NORM
 10
730.604144
 20
265.279078351403
 30
0.0
 41
5.0
 42
5.0
 43
5.0
 50
90.0
  0
INSERT
  5
EF
330
E8
100
AcDbEntity
  8
LAY-1
 62
     1
100
AcDbBlockReference
  2
EX_NORM
 10
730.604144
 20
143.279072620773
 30
0.0
 41
5.0
 42
5.0
 43
5.0
 50
270.0
  0
MTEXT
  5
F0
330
E8
100
AcDbEntity
  8
LAY-1
 62
     3
100
AcDbMText
 10
723.604144
 20
204.279075486088
 30
0.0
 40
8.203189124487004
 41
0.0
 71
     5
 72
     1
  1
122
  7
EXCADDIM1
 11
0.0
 21
1.0
 31
0.0
  0
POINT
  5
F1
330
E8
100
AcDbEntity
  8
DEFPOINTS
 62
     0
100
AcDbPoint
 10
539.18453084852
 20
265.279078351403
 30
0.0
  0
POINT
  5
F2
330
E8
100
AcDbEntity
  8
DEFPOINTS
 62
     0
100
AcDbPoint
 10
702.604144
 20
143.279072620773
 30
0.0
  0
POINT
  5
F3
330
E8
100
AcDbEntity
  8
DEFPOINTS
 62
     0
100
AcDbPoint
 10
730.604144
 20
143.279072620773
 30
0.0
  0
ENDBLK
  5
EA
330
E8
100
AcDbEntity
  8
0
100
AcDbBlockEnd
  0
BLOCK
  5
F6
330
F5
100
AcDbEntity
  8
0
100
AcDbBlockBegin
  2
*D17
 70
     1
 10
0.0
 20
0.0
 30
0.0
  3
*D17
  1

  0
LINE
  5
F8
330
F5
100
AcDbEntity
  8
LAY-1
  6
CONTINUOUS
 62
     1
100
AcDbLine
 10
237.0000910000001
 20
569.078691620773
 30
0.0
 11
405.1042050000001
 21
569.078691620773
 31
0.0
  0
LINE
  5
F9
330
F5
100
AcDbEntity
  8
LAY-1
  6
CONTINUOUS
 62
     1
100
AcDbLine
 10
237.0000910000001
 20
399.078691620773
 30
0.0
 11
405.1042050000001
 21
399.078691620773
 31
0.0
  0
LINE
  5
FA
330
F5
100
AcDbEntity
  8
LAY-1
  6
CONTINUOUS
 62
     1
100
AcDbLine
 10
403.1042050000001
 20
564.078691620773
 30
0.0
 11
403.1042050000001
 21
404.078691620773
 31
0.0
  0
INSERT
  5
FB
330
F5
100
AcDbEntity
  8
LAY-1
 62
     1
100
AcDbBlockReference
  2
EX_NORM
 10
403.1042050000001
 20
569.078691620773
 30
0.0
 41
5.0
 42
5.0
 43
5.0
 50
90.0
  0
INSERT
  5
FC
330
F5
100
AcDbEntity
  8
LAY-1
 62
     1
100
AcDbBlockReference
  2
EX_NORM
 10
403.1042050000001
 20
399.078691620773
 30
0.0
 41
5.0
 42
5.0
 43
5.0
 50
270.0
  0
MTEXT
  5
FD
330
F5
100
AcDbEntity
  8
LAY-1
 62
     3
100
AcDbMText
 10
396.1042050000001
 20
484.078691620773
 30
0.0
 40
8.203189124487004
 41
0.0
 71
     5
 72
     1
  1
170
  7
EXCADDIM1
 11
0.0
 21
1.0
 31
0.0
  0
POINT
  5
FE
330
F5
100
AcDbEntity
  8
DEFPOINTS
 62
     0
100
AcDbPoint
 10
235.0000910000001
 20
569.078691620773
 30
0.0
  0
POINT
  5
FF
330
F5
100
AcDbEntity
  8
DEFPOINTS
 62
     0
100
AcDbPoint
 10
235.0000910000001
 20
399.078691620773
 30
0.0
  0
POINT
  5
100
330
F5
100
AcDbEntity
  8
DEFPOINTS
 62
     0
100
AcDbPoint
 10
403.1042050000001
 20
399.078691620773
 30
0.0
  0
ENDBLK
  5
F7
330
F5
100
AcDbEntity
  8
0
100
AcDbBlockEnd
  0
ENDSEC
  0
SECTION
  2
ENTITIES
  0
DIMENSION
  5
D9
330
1F
100
AcDbEntity
  8
LAY-1
  6
CONTINUOUS
 62
     1
100
AcDbDimension
  2
*D15
 10
731.0041440000001
 20
143.279072620773
 30
0.0
 11
724.0041440000001
 21
90.77907262077304
 31
0.0
 70
   160
  3
ISO-25
100
AcDbAlignedDimension
 13
659.505133
 23
38.27907262077303
 33
0.0
 14
702.604144
 24
143.279072620773
 34
0.0
 50
90.0
100
AcDbRotatedDimension
1001
ACAD
1000
DSTYLE
1002
{
1070
   270
1070
     2
1070
     6
1000
EX_NORM
1070
     7
1000
EX_NORM
1070
    41
1040
5.0
1070
    42
1040
2.0
1070
    44
1040
2.0
1070
    73
1070
     0
1070
    74
1070
     0
1070
    75
1070
     0
1070
    76
1070
     0
1070
    77
1070
     1
1070
    78
1070
     8
1070
   140
1040
8.203189124487004
1070
   147
1040
0.0
1070
   173
1070
     1
1070
   176
1070
     1
1070
   177
1070
     1
1070
   178
1070
     3
1070
   271
1070
     3
1070
   277
1070
     2
1070
   279
1070
     2
1070
   280
1070
     0
1070
   287
1070
     5
1070
   340
1005
D8
1002
}
  0
DIMENSION
  5
E7
330
1F
100
AcDbEntity
  8
LAY-1
  6
CONTINUOUS
 62
     1
100
AcDbDimension
  2
*D16
 10
730.604144
 20
143.279072620773
 30
0.0
 11
723.604144
 21
204.279075486088
 31
0.0
 70
   160
  3
ISO-25
100
AcDbAlignedDimension
 13
539.18453084852
 23
265.279078351403
 33
0.0
 14
702.604144
 24
143.279072620773
 34
0.0
 50
90.0
100
AcDbRotatedDimension
1001
ACAD
1000
DSTYLE
1002
{
1070
   270
1070
     2
1070
     6
1000
EX_NORM
1070
     7
1000
EX_NORM
1070
    41
1040
5.0
1070
    42
1040
2.0
1070
    44
1040
2.0
1070
    73
1070
     0
1070
    74
1070
     0
1070
    75
1070
     0
1070
    76
1070
     0
1070
    77
1070
     1
1070
    78
1070
     8
1070
   140
1040
8.203189124487004
1070
   147
1040
0.0
1070
   173
1070
     1
1070
   176
1070
     1
1070
   177
1070
     1
1070
   178
1070
     3
1070
   271
1070
     3
1070
   277
1070
     2
1070
   279
1070
     2
1070
   280
1070
     0
1070
   287
1070
     5
1070
   340
1005
D8
1002
}
  0
DIMENSION
  5
F4
330
1F
100
AcDbEntity
  8
LAY-1
  6
CONTINUOUS
 62
     1
100
AcDbDimension
  2
*D17
 10
403.1042050000001
 20
399.078691620773
 30
0.0
 11
396.1042050000001
 21
484.078691620773
 31
0.0
 70
   160
  3
ISO-25
100
AcDbAlignedDimension
 13
235.0000910000001
 23
569.078691620773
 33
0.0
 14
235.0000910000001
 24
399.078691620773
 34
0.0
 50
90.0
100
AcDbRotatedDimension
1001
ACAD
1000
DSTYLE
1002
{
1070
   270
1070
     2
1070
     6
1000
EX_NORM
1070
     7
1000
EX_NORM
1070
    41
1040
5.0
1070
    42
1040
2.0
1070
    44
1040
2.0
1070
    73
1070
     0
1070
    74
1070
     0
1070
    75
1070
     0
1070
    76
1070
     0
1070
    77
1070
     1
1070
    78
1070
     8
1070
   140
1040
8.203189124487004
1070
   147
1040
0.0
1070
   173
1070
     1
1070
   176
1070
     1
1070
   177
1070
     1
1070
   178
1070
     3
1070
   271
1070
     3
1070
   277
1070
     2
1070
   279
1070
     2
1070
   280
1070
     0
1070
   287
1070
     5
1070
   340
1005
D8
1002
}
  0
LINE
  5
101
330
1F
100
AcDbEntity
  8
LAY-1
  6
CONTINUOUS
 62
     3
100
AcDbLine
 10
155.000122
 20
524.084306620773
 30
0.0
 11
155.000122
 21
509.073198620773
 31
0.0
  0
LINE
  5
102
330
1F
100
AcDbEntity
  8
LAY-1
  6
CONTINUOUS
 62
     3
100
AcDbLine
 10
149.2250359999999
 20
524.084306620773
 30
0.0
 11
155.000122
 21
524.084306620773
 31
0.0
  0
LINE
  5
103
330
1F
100
AcDbEntity
  8
LAY-1
  6
CONTINUOUS
 62
     3
100
AcDbLine
 10
149.2250359999999
 20
520.331437620773
 30
0.0
 11
155.000091
 21
520.331437620773
 31
0.0
  0
LINE
  5
104
330
1F
100
AcDbEntity
  8
LAY-1
  6
CONTINUOUS
 62
     3
100
AcDbLine
 10
149.2250359999999
 20
512.8259446207729
 30
0.0
 11
155.000091
 21
512.8259446207729
 31
0.0
  0
LINE
  5
105
330
1F
100
AcDbEntity
  8
LAY-1
  6
CONTINUOUS
 62
     3
100
AcDbLine
 10
148.500122
 20
510.3286916207729
 30
0.0
 11
148.500122
 21
522.8286916207729
 31
0.0
  0
LINE
  5
106
330
1F
100
AcDbEntity
  8
LAY-1
  6
CONTINUOUS
 62
     3
100
AcDbLine
 10
148.500122
 20
522.8286916207729
 30
0.0
 11
149.2250359999999
 21
524.084306620773
 31
0.0
  0
ARC
  5
107
330
1F
100
AcDbEntity
  8
LAY-1
  6
CONTINUOUS
 62
     3
100
AcDbCircle
 10
158.5795279999999
 20
516.579606620773
 30
0.0
 40
10.07909
100
AcDbArc
 50
158.1455760766088
 51
201.863745535358
  0
ARC
  5
108
330
1F
100
AcDbEntity
  8
LAY-1
  6
CONTINUOUS
 62
     3
100
AcDbCircle
 10
153.30896
 20
522.870195620773
 30
0.0
 40
4.809198
100
AcDbArc
 50
180.4944824250409
 51
211.8671875678857
  0
LINE
  5
109
330
1F
100
AcDbEntity
  8
LAY-1
  6
CONTINUOUS
 62
     3
100
AcDbLine
 10
149.2250359999999
 20
509.073075620773
 30
0.0
 11
155.000122
 21
509.073075620773
 31
0.0
  0
LINE
  5
10A
330
1F
100
AcDbEntity
  8
LAY-1
  6
CONTINUOUS
 62
     3
100
AcDbLine
 10
148.500122
 20
510.3286916207729
 30
0.0
 11
149.225067
 21
509.073075620773
 31
0.0
  0
ARC
  5
10B
330
1F
100
AcDbEntity
  8
LAY-1
  6
CONTINUOUS
 62
     3
100
AcDbCircle
 10
153.30896
 20
510.2871876207731
 30
0.0
 40
4.809198
100
AcDbArc
 50
148.1328521278002
 51
179.5055572706449
  0
LINE
  5
10C
330
1F
100
AcDbEntity
  8
LAY-1
  6
EXLTYPE2
 62
     1
100
AcDbLine
 10
169.881469
 20
516.5787526207731
 30
0.0
 11
141.9244989999999
 21
516.5787526207731
 31
0.0
  0
LINE
  5
10D
330
1F
100
AcDbEntity
  8
LAY-1
  6
CONTINUOUS
 62
     3
100
AcDbLine
 10
145.700195
 20
520.5787526207731
 30
0.0
 11
145.700195
 21
512.5787526207731
 31
0.0
  0
ARC
  5
10E
330
1F
100
AcDbEntity
  8
LAY-1
  6
CONTINUOUS
 62
     3
100
AcDbCircle
 10
151.768005
 20
516.578508620773
 30
0.0
 40
7.267864
100
AcDbArc
 50
146.6050028713042
 51
213.3919428522878
  0
LINE
  5
10F
330
1F
100
AcDbEntity
  8
LAY-1
  6
CONTINUOUS
 62
     1
100
AcDbLine
 10
148.500122
 20
513.2547776207731
 30
0.0
 11
145.3046869999999
 21
513.2547776207731
 31
0.0
  0
LINE
  5
110
330
1F
100
AcDbEntity
  8
LAY-1
  6
CONTINUOUS
 62
     3
100
AcDbLine
 10
148.500122
 20
512.5788136207731
 30
0.0
 11
145.700195
 21
512.5787526207731
 31
0.0
  0
LINE
  5
111
330
1F
100
AcDbEntity
  8
LAY-1
  6
CONTINUOUS
 62
     3
100
AcDbLine
 10
148.500122
 20
520.5786916207729
 30
0.0
 11
145.700195
 21
520.5787526207731
 31
0.0
  0
LINE
  5
112
330
1F
100
AcDbEntity
  8
LAY-1
  6
CONTINUOUS
 62
     1
100
AcDbLine
 10
148.500122
 20
519.902726620773
 30
0.0
 11
145.3046869999999
 21
519.902726620773
 31
0.0
  0
LINE
  5
113
330
1F
100
AcDbEntity
  8
LAY-1
  6
CONTINUOUS
 62
     3
100
AcDbLine
 10
145.3638609999999
 20
500.5787526207731
 30
0.0
 11
150.000152
 21
500.5787526207731
 31
0.0
  0
ARC
  5
114
330
1F
100
AcDbEntity
  8
LAY-1
  6
CONTINUOUS
 62
     3
100
AcDbCircle
 10
150.000152
 20
505.5787526207731
 30
0.0
 40
5.0
100
AcDbArc
 50
270.0000011238745
 51
359.9999823999061
  0
ARC
  5
115
330
1F
100
AcDbEntity
  8
LAY-1
  6
CONTINUOUS
 62
     3
100
AcDbCircle
 10
157.000152
 20
522.5787526207731
 30
0.0
 40
2.0
100
AcDbArc
 50
89.99998127603166
 51
180.0000198478429
  0
LINE
  5
116
330
1F
100
AcDbEntity
  8
LAY-1
  6
CONTINUOUS
 62
     3
100
AcDbLine
 10
201.500091
 20
524.5787526207731
 30
0.0
 11
157.000152
 21
524.5787526207731
 31
0.0
  0
LINE
  5
117
330
1F
100
AcDbEntity
  8
LAY-1
  6
CONTINUOUS
 62
     3
100
AcDbLine
 10
66.760132
 20
484.0786916207729
 30
0.0
 11
66.760132
 21
492.539201620773
 31
0.0
  0
LINE
  5
118
330
1F
100
AcDbEntity
  8
LAY-1
  6
CONTINUOUS
 62
     3
100
AcDbLine
 10
66.760132
 20
491.5836966207729
 30
0.0
 11
59.25512700000002
 21
491.5836966207729
 31
0.0
  0
LINE
  5
119
330
1F
100
AcDbEntity
  8
LAY-1
  6
CONTINUOUS
 62
     3
100
AcDbLine
 10
59.25509599999998
 20
491.5836966207729
 30
0.0
 11
59.25509599999998
 21
484.0786916207729
 31
0.0
  0
LINE
  5
11A
330
1F
100
AcDbEntity
  8
LAY-1
  6
CONTINUOUS
 62
     1
100
AcDbLine
 10
59.25509599999998
 20
491.5836966207729
 30
0.0
 11
66.760132
 21
484.0786916207729
 31
0.0
  0
LINE
  5
11B
330
1F
100
AcDbEntity
  8
LAY-1
  6
CONTINUOUS
 62
     1
100
AcDbLine
 10
66.760132
 20
491.5836966207729
 30
0.0
 11
59.25512700000002
 21
484.0786916207729
 31
0.0
  0
LINE
  5
11C
330
1F
100
AcDbEntity
  8
LAY-1
  6
CONTINUOUS
 62
     3
100
AcDbLine
 10
66.760132
 20
484.0786916207729
 30
0.0
 11
66.760132
 21
475.6181806207729
 31
0.0
  0
LINE
  5
11D
330
1F
100
AcDbEntity
  8
LAY-1
  6
CONTINUOUS
 62
     3
100
AcDbLine
 10
71.50015199999996
 20
475.7837086207729
 30
0.0
 11
66.760132
 21
475.6181806207729
 31
0.0
  0
LINE
  5
11E
330
1F
100
AcDbEntity
  8
LAY-1
  6
CONTINUOUS
 62
     3
100
AcDbLine
 10
66.760132
 20
476.5736866207729
 30
0.0
 11
59.25512700000002
 21
476.5736866207729
 31
0.0
  0
LINE
  5
11F
330
1F
100
AcDbEntity
  8
LAY-1
  6
CONTINUOUS
 62
     3
100
AcDbLine
 10
59.25509599999998
 20
476.5736866207729
 30
0.0
 11
59.25509599999998
 21
484.0786916207729
 31
0.0
  0
LINE
  5
120
330
1F
100
AcDbEntity
  8
LAY-1
  6
CONTINUOUS
 62
     1
100
AcDbLine
 10
59.25509599999998
 20
476.5736866207729
 30
0.0
 11
66.760132
 21
484.0786916207729
 31
0.0
  0
LINE
  5
121
330
1F
100
AcDbEntity
  8
LAY-1
  6
CONTINUOUS
 62
     1
100
AcDbLine
 10
66.760132
 20
476.5736866207729
 30
0.0
 11
59.25512700000002
 21
484.0786916207729
 31
0.0
  0
LINE
  5
122
330
1F
100
AcDbEntity
  8
LAY-1
  6
CONTINUOUS
 62
     3
100
AcDbLine
 10
71.50015199999996
 20
484.0786916207729
 30
0.0
 11
71.50015199999996
 21
499.3715986207729
 31
0.0
  0
LINE
  5
123
330
1F
100
AcDbEntity
  8
LAY-1
  6
CONTINUOUS
 62
     3
100
AcDbLine
 10
66.760132
 20
484.0788136207731
 30
0.0
 11
66.760132
 21
475.6183026207731
 31
0.0
  0
LINE
  5
124
330
1F
100
AcDbEntity
  8
LAY-1
  6
CONTINUOUS
 62
     1
100
AcDbLine
 10
71.50012200000003
 20
476.5738086207731
 30
0.0
 11
66.760132
 21
476.408281620773
 31
0.0
  0
LINE
  5
125
330
1F
100
AcDbEntity
  8
LAY-1
  6
CONTINUOUS
 62
     3
100
AcDbLine
 10
66.760132
 20
476.5738086207731
 30
0.0
 11
59.25512700000002
 21
476.5738086207731
 31
0.0
  0
LINE
  5
126
330
1F
100
AcDbEntity
  8
LAY-1
  6
CONTINUOUS
 62
     3
100
AcDbLine
 10
59.25509599999998
 20
476.5738086207731
 30
0.0
 11
59.25509599999998
 21
484.0788136207731
 31
0.0
  0
LINE
  5
127
330
1F
100
AcDbEntity
  8
LAY-1
  6
CONTINUOUS
 62
     1
100
AcDbLine
 10
59.25509599999998
 20
476.5738086207731
 30
0.0
 11
66.760132
 21
484.0788136207731
 31
0.0
  0
LINE
  5
128
330
1F
100
AcDbEntity
  8
LAY-1
  6
CONTINUOUS
 62
     1
100
AcDbLine
 10
66.760132
 20
476.5738086207731
 30
0.0
 11
59.25512700000002
 21
484.0788136207731
 31
0.0
  0
LINE
  5
129
330
1F
100
AcDbEntity
  8
LAY-1
  6
CONTINUOUS
 62
     3
100
AcDbLine
 10
66.760132
 20
484.0788136207731
 30
0.0
 11
66.760132
 21
492.539323620773
 31
0.0
  0
LINE
  5
12A
330
1F
100
AcDbEntity
  8
LAY-1
  6
CONTINUOUS
 62
     3
100
AcDbLine
 10
66.760132
 20
491.5838186207731
 30
0.0
 11
59.25512700000002
 21
491.5838186207731
 31
0.0
  0
LINE
  5
12B
330
1F
100
AcDbEntity
  8
LAY-1
  6
CONTINUOUS
 62
     3
100
AcDbLine
 10
59.25509599999998
 20
491.5838186207731
 30
0.0
 11
59.25509599999998
 21
484.0788136207731
 31
0.0
  0
LINE
  5
12C
330
1F
100
AcDbEntity
  8
LAY-1
  6
CONTINUOUS
 62
     1
100
AcDbLine
 10
59.25509599999998
 20
491.5838186207731
 30
0.0
 11
66.760132
 21
484.0788136207731
 31
0.0
  0
LINE
  5
12D
330
1F
100
AcDbEntity
  8
LAY-1
  6
CONTINUOUS
 62
     1
100
AcDbLine
 10
66.760132
 20
491.5838186207731
 30
0.0
 11
59.25512700000002
 21
484.0788136207731
 31
0.0
  0
LINE
  5
12E
330
1F
100
AcDbEntity
  8
LAY-1
  6
CONTINUOUS
 62
     3
100
AcDbLine
 10
71.50012200000003
 20
484.0786916207729
 30
0.0
 11
71.50012200000003
 21
468.785905620773
 31
0.0
  0
LINE
  5
12F
330
1F
100
AcDbEntity
  8
LAY-1
  6
CONTINUOUS
 62
     3
100
AcDbLine
 10
71.50015199999996
 20
499.3715986207729
 30
0.0
 11
72.20724499999994
 21
500.0786916207729
 31
0.0
  0
LINE
  5
130
330
1F
100
AcDbEntity
  8
LAY-1
  6
CONTINUOUS
 62
     3
100
AcDbLine
 10
71.50012200000003
 20
468.785905620773
 30
0.0
 11
72.20724499999994
 21
468.0788136207731
 31
0.0
  0
LINE
  5
131
330
1F
100
AcDbEntity
  8
LAY-1
  6
CONTINUOUS
 62
     3
100
AcDbLine
 10
71.50015199999996
 20
468.785783620773
 30
0.0
 11
72.20724499999994
 21
468.0786916207729
 31
0.0
  0
LINE
  5
132
330
1F
100
AcDbEntity
  8
LAY-1
  6
CONTINUOUS
 62
     3
100
AcDbLine
 10
71.50015199999996
 20
492.3736746207729
 30
0.0
 11
66.760132
 21
492.539201620773
 31
0.0
  0
LINE
  5
133
330
1F
100
AcDbEntity
  8
LAY-1
  6
CONTINUOUS
 62
     1
100
AcDbLine
 10
71.50012200000003
 20
491.5835736207731
 30
0.0
 11
66.760132
 21
491.7491016207731
 31
0.0
  0
LINE
  5
134
330
1F
100
AcDbEntity
  8
LAY-1
  6
CONTINUOUS
 62
     3
100
AcDbLine
 10
336.2400200000001
 20
484.0786916207729
 30
0.0
 11
336.2400200000001
 21
492.539201620773
 31
0.0
  0
LINE
  5
135
330
1F
100
AcDbEntity
  8
LAY-1
  6
CONTINUOUS
 62
     3
100
AcDbLine
 10
336.2400200000001
 20
491.5836966207729
 30
0.0
 11
343.7450250000001
 21
491.5836966207729
 31
0.0
  0
LINE
  5
136
330
1F
100
AcDbEntity
  8
LAY-1
  6
CONTINUOUS
 62
     3
100
AcDbLine
 10
343.745086
 20
491.5836966207729
 30
0.0
 11
343.745086
 21
484.0786916207729
 31
0.0
  0
LINE
  5
137
330
1F
100
AcDbEntity
  8
LAY-1
  6
CONTINUOUS
 62
     1
100
AcDbLine
 10
343.745086
 20
491.5836966207729
 30
0.0
 11
336.2400200000001
 21
484.0786916207729
 31
0.0
  0
LINE
  5
138
330
1F
100
AcDbEntity
  8
LAY-1
  6
CONTINUOUS
 62
     1
100
AcDbLine
 10
336.2400200000001
 20
491.5836966207729
 30
0.0
 11
343.7450250000001
 21
484.0786916207729
 31
0.0
  0
LINE
  5
139
330
1F
100
AcDbEntity
  8
LAY-1
  6
CONTINUOUS
 62
     3
100
AcDbLine
 10
336.2400200000001
 20
484.0786916207729
 30
0.0
 11
336.2400200000001
 21
475.6181806207729
 31
0.0
  0
LINE
  5
13A
330
1F
100
AcDbEntity
  8
LAY-1
  6
CONTINUOUS
 62
     3
100
AcDbLine
 10
331.50003
 20
475.7837086207729
 30
0.0
 11
336.2400200000001
 21
475.6181806207729
 31
0.0
  0
LINE
  5
13B
330
1F
100
AcDbEntity
  8
LAY-1
  6
CONTINUOUS
 62
     3
100
AcDbLine
 10
336.2400200000001
 20
476.5736866207729
 30
0.0
 11
343.7450250000001
 21
476.5736866207729
 31
0.0
  0
LINE
  5
13C
330
1F
100
AcDbEntity
  8
LAY-1
  6
CONTINUOUS
 62
     3
100
AcDbLine
 10
343.745086
 20
476.5736866207729
 30
0.0
 11
343.745086
 21
484.0786916207729
 31
0.0
  0
LINE
  5
13D
330
1F
100
AcDbEntity
  8
LAY-1
  6
CONTINUOUS
 62
     1
100
AcDbLine
 10
343.745086
 20
476.5736866207729
 30
0.0
 11
336.2400200000001
 21
484.0786916207729
 31
0.0
  0
LINE
  5
13E
330
1F
100
AcDbEntity
  8
LAY-1
  6
CONTINUOUS
 62
     1
100
AcDbLine
 10
336.2400200000001
 20
476.5736866207729
 30
0.0
 11
343.7450250000001
 21
484.0786916207729
 31
0.0
  0
LINE
  5
13F
330
1F
100
AcDbEntity
  8
LAY-1
  6
CONTINUOUS
 62
     3
100
AcDbLine
 10
331.50003
 20
484.0786916207729
 30
0.0
 11
331.50003
 21
499.3715986207729
 31
0.0
  0
LINE
  5
140
330
1F
100
AcDbEntity
  8
LAY-1
  6
CONTINUOUS
 62
     3
100
AcDbLine
 10
325.415374
 20
500.0786916207729
 30
0.0
 11
330.7929379999999
 21
500.0786916207729
 31
0.0
  0
LINE
  5
141
330
1F
100
AcDbEntity
  8
LAY-1
  6
CONTINUOUS
 62
     3
100
AcDbLine
 10
336.2400200000001
 20
484.0788136207731
 30
0.0
 11
336.2400200000001
 21
475.6183026207731
 31
0.0
  0
LINE
  5
142
330
1F
100
AcDbEntity
  8
LAY-1
  6
CONTINUOUS
 62
     1
100
AcDbLine
 10
331.50003
 20
476.5738086207731
 30
0.0
 11
336.2400200000001
 21
476.408281620773
 31
0.0
  0
LINE
  5
143
330
1F
100
AcDbEntity
  8
LAY-1
  6
CONTINUOUS
 62
     3
100
AcDbLine
 10
336.2400200000001
 20
476.5738086207731
 30
0.0
 11
343.7450250000001
 21
476.5738086207731
 31
0.0
  0
LINE
  5
144
330
1F
100
AcDbEntity
  8
LAY-1
  6
CONTINUOUS
 62
     3
100
AcDbLine
 10
343.745086
 20
476.5738086207731
 30
0.0
 11
343.745086
 21
484.0788136207731
 31
0.0
  0
LINE
  5
145
330
1F
100
AcDbEntity
  8
LAY-1
  6
CONTINUOUS
 62
     1
100
AcDbLine
 10
343.745086
 20
476.5738086207731
 30
0.0
 11
336.2400200000001
 21
484.0788136207731
 31
0.0
  0
LINE
  5
146
330
1F
100
AcDbEntity
  8
LAY-1
  6
CONTINUOUS
 62
     1
100
AcDbLine
 10
336.2400200000001
 20
476.5738086207731
 30
0.0
 11
343.7450250000001
 21
484.0788136207731
 31
0.0
  0
LINE
  5
147
330
1F
100
AcDbEntity
  8
LAY-1
  6
CONTINUOUS
 62
     3
100
AcDbLine
 10
336.2400200000001
 20
484.0788136207731
 30
0.0
 11
336.2400200000001
 21
492.539323620773
 31
0.0
  0
LINE
  5
148
330
1F
100
AcDbEntity
  8
LAY-1
  6
CONTINUOUS
 62
     3
100
AcDbLine
 10
336.2400200000001
 20
491.5838186207731
 30
0.0
 11
343.7450250000001
 21
491.5838186207731
 31
0.0
  0
LINE
  5
149
330
1F
100
AcDbEntity
  8
LAY-1
  6
CONTINUOUS
 62
     3
100
AcDbLine
 10
343.745086
 20
491.5838186207731
 30
0.0
 11
343.745086
 21
484.0788136207731
 31
0.0
  0
LINE
  5
14A
330
1F
100
AcDbEntity
  8
LAY-1
  6
CONTINUOUS
 62
     1
100
AcDbLine
 10
343.745086
 20
491.5838186207731
 30
0.0
 11
336.2400200000001
 21
484.0788136207731
 31
0.0
  0
LINE
  5
14B
330
1F
100
AcDbEntity
  8
LAY-1
  6
CONTINUOUS
 62
     1
100
AcDbLine
 10
336.2400200000001
 20
491.5838186207731
 30
0.0
 11
343.7450250000001
 21
484.0788136207731
 31
0.0
  0
LINE
  5
14C
330
1F
100
AcDbEntity
  8
LAY-1
  6
CONTINUOUS
 62
     3
100
AcDbLine
 10
331.50003
 20
484.0786916207729
 30
0.0
 11
331.50003
 21
468.785905620773
 31
0.0
  0
LINE
  5
14D
330
1F
100
AcDbEntity
  8
LAY-1
  6
CONTINUOUS
 62
     3
100
AcDbLine
 10
331.50003
 20
499.3715986207729
 30
0.0
 11
330.7929379999999
 21
500.0786916207729
 31
0.0
  0
LINE
  5
14E
330
1F
100
AcDbEntity
  8
LAY-1
  6
CONTINUOUS
 62
     3
100
AcDbLine
 10
331.50003
 20
468.785905620773
 30
0.0
 11
330.7929379999999
 21
468.0788136207731
 31
0.0
  0
LINE
  5
14F
330
1F
100
AcDbEntity
  8
LAY-1
  6
CONTINUOUS
 62
     3
100
AcDbLine
 10
331.50003
 20
468.785783620773
 30
0.0
 11
330.7929379999999
 21
468.0786916207729
 31
0.0
  0
LINE
  5
150
330
1F
100
AcDbEntity
  8
LAY-1
  6
CONTINUOUS
 62
     3
100
AcDbLine
 10
325.415374
 20
468.0786916207729
 30
0.0
 11
330.7929379999999
 21
468.0786916207729
 31
0.0
  0
LINE
  5
151
330
1F
100
AcDbEntity
  8
LAY-1
  6
CONTINUOUS
 62
     3
100
AcDbLine
 10
331.50003
 20
492.3736746207729
 30
0.0
 11
336.2400200000001
 21
492.539201620773
 31
0.0
  0
LINE
  5
152
330
1F
100
AcDbEntity
  8
LAY-1
  6
CONTINUOUS
 62
     1
100
AcDbLine
 10
331.50003
 20
491.5835736207731
 30
0.0
 11
336.2400200000001
 21
491.7491016207731
 31
0.0
  0
LINE
  5
153
330
1F
100
AcDbEntity
  8
LAY-1
  6
CONTINUOUS
 62
     3
100
AcDbLine
 10
279.6000359999999
 20
490.9491746207731
 30
0.0
 11
279.6000359999999
 21
477.2082076207731
 31
0.0
  0
LINE
  5
154
330
1F
100
AcDbEntity
  8
LAY-1
  6
CONTINUOUS
 62
     3
100
AcDbLine
 10
303.4000239999999
 20
477.208390620773
 30
0.0
 11
303.4000239999999
 21
490.9491746207731
 31
0.0
  0
LINE
  5
155
330
1F
100
AcDbEntity
  8
LAY-1
  6
CONTINUOUS
 62
     3
100
AcDbLine
 10
291.4999389999999
 20
497.819841620773
 30
0.0
 11
303.4000239999999
 21
490.9491746207731
 31
0.0
  0
LINE
  5
156
330
1F
100
AcDbEntity
  8
LAY-1
  6
CONTINUOUS
 62
     3
100
AcDbLine
 10
291.4999389999999
 20
497.819841620773
 30
0.0
 11
279.599945
 21
490.9491746207731
 31
0.0
  0
LINE
  5
157
330
1F
100
AcDbEntity
  8
LAY-1
  6
CONTINUOUS
 62
     3
100
AcDbLine
 10
279.599945
 20
477.2082076207731
 30
0.0
 11
291.50003
 21
470.337663620773
 31
0.0
  0
LINE
  5
158
330
1F
100
AcDbEntity
  8
LAY-1
  6
CONTINUOUS
 62
     3
100
AcDbLine
 10
291.50003
 20
470.3378466207731
 30
0.0
 11
303.4000239999999
 21
477.208390620773
 31
0.0
  0
CIRCLE
  5
159
330
1F
100
AcDbEntity
  8
LAY-1
  6
CONTINUOUS
 62
     3
100
AcDbCircle
 10
291.50003
 20
484.0787526207731
 30
0.0
 40
11.55
  0
LINE
  5
15A
330
1F
100
AcDbEntity
  8
LAY-1
  6
CONTINUOUS
 62
     3
100
AcDbLine
 10
283.50003
 20
542.0786916207729
 30
0.0
 11
291.4999999999999
 21
542.0786916207729
 31
0.0
  0
ARC
  5
15B
330
1F
100
AcDbEntity
  8
LAY-1
  6
CONTINUOUS
 62
     3
100
AcDbCircle
 10
283.50003
 20
540.0786916207729
 30
0.0
 40
2.0
100
AcDbArc
 50
89.99998127603166
 51
180.0000198478429
  0
LINE
  5
15C
330
1F
100
AcDbEntity
  8
LAY-1
  6
CONTINUOUS
 62
     3
100
AcDbLine
 10
299.50003
 20
542.0786916207729
 30
0.0
 11
291.5000610000001
 21
542.0786916207729
 31
0.0
  0
ARC
  5
15D
330
1F
100
AcDbEntity
  8
LAY-1
  6
CONTINUOUS
 62
     3
100
AcDbCircle
 10
299.50003
 20
540.0786916207729
 30
0.0
 40
2.0
100
AcDbArc
 50
359.9999823999061
 51
90.00002097171735
  0
LINE
  5
15E
330
1F
100
AcDbEntity
  8
LAY-1
  6
CONTINUOUS
 62
     3
100
AcDbLine
 10
297.50003
 20
427.313310620773
 30
0.0
 11
297.50003
 21
469.0786916207729
 31
0.0
  0
LINE
  5
15F
330
1F
100
AcDbEntity
  8
LAY-1
  6
CONTINUOUS
 62
     3
100
AcDbLine
 10
301.50003
 20
472.0371266207729
 30
0.0
 11
301.50003
 21
428.0786916207729
 31
0.0
  0
ARC
  5
160
330
1F
100
AcDbEntity
  8
LAY-1
  6
CONTINUOUS
 62
     3
100
AcDbCircle
 10
299.50003
 20
428.0786916207729
 30
0.0
 40
2.0
100
AcDbArc
 50
270.0000011238745
 51
359.9999823999061
  0
ARC
  5
161
330
1F
100
AcDbEntity
  8
LAY-1
  6
CONTINUOUS
 62
     3
100
AcDbCircle
 10
291.50003
 20
484.0786916207729
 30
0.0
 40
15.00000000000001
100
AcDbArc
 50
180.0000198478429
 51
0.5148025789250447
  0
ARC
  5
162
330
1F
100
AcDbEntity
  8
LAY-1
  6
CONTINUOUS
 62
     3
100
AcDbCircle
 10
303.50003
 20
472.0371266207729
 30
0.0
 40
2.0
100
AcDbArc
 50
134.9017096521825
 51
180.0000198478429
  0
ARC
  5
163
330
1F
100
AcDbEntity
  8
LAY-1
  6
CONTINUOUS
 62
     3
100
AcDbCircle
 10
299.50003
 20
469.0786916207729
 30
0.0
 40
2.0
100
AcDbArc
 50
118.0720484484663
 51
180.0000198478429
  0
LINE
  5
164
330
1F
100
AcDbEntity
  8
LAY-1
  6
CONTINUOUS
 62
     3
100
AcDbLine
 10
281.50003
 20
436.5509506207731
 30
0.0
 11
281.50003
 21
472.0371266207729
 31
0.0
  0
ARC
  5
165
330
1F
100
AcDbEntity
  8
LAY-1
  6
CONTINUOUS
 62
     3
100
AcDbCircle
 10
279.50003
 20
472.0371266207729
 30
0.0
 40
2.0
100
AcDbArc
 50
359.9999823999061
 51
45.09829259556645
  0
LINE
  5
166
330
1F
100
AcDbEntity
  8
LAY-1
  6
CONTINUOUS
 62
     3
100
AcDbLine
 10
285.50003
 20
434.2415026207731
 30
0.0
 11
285.50003
 21
469.0786916207729
 31
0.0
  0
ARC
  5
167
330
1F
100
AcDbEntity
  8
LAY-1
  6
CONTINUOUS
 62
     3
100
AcDbCircle
 10
283.50003
 20
469.0786916207729
 30
0.0
 40
2.0
100
AcDbArc
 50
359.9999823999061
 51
61.92795379928265
  0
LINE
  5
168
330
1F
100
AcDbEntity
  8
LAY-1
  6
CONTINUOUS
 62
     3
100
AcDbLine
 10
297.50003
 20
499.0786916207729
 30
0.0
 11
297.50003
 21
542.0786916207729
 31
0.0
  0
LINE
  5
169
330
1F
100
AcDbEntity
  8
LAY-1
  6
CONTINUOUS
 62
     3
100
AcDbLine
 10
301.50003
 20
496.1202566207729
 30
0.0
 11
301.50003
 21
540.0786916207729
 31
0.0
  0
ARC
  5
16A
330
1F
100
AcDbEntity
  8
LAY-1
  6
CONTINUOUS
 62
     3
100
AcDbCircle
 10
291.50003
 20
484.0786916207729
 30
0.0
 40
15.00000000000001
100
AcDbArc
 50
359.4852371167607
 51
180.000002247749
  0
ARC
  5
16B
330
1F
100
AcDbEntity
  8
LAY-1
  6
CONTINUOUS
 62
     3
100
AcDbCircle
 10
303.50003
 20
496.1202566207729
 30
0.0
 40
2.0
100
AcDbArc
 50
180.0000198478429
 51
225.0983300435031
  0
ARC
  5
16C
330
1F
100
AcDbEntity
  8
LAY-1
  6
CONTINUOUS
 62
     3
100
AcDbCircle
 10
299.50003
 20
499.0786916207729
 30
0.0
 40
2.0
100
AcDbArc
 50
180.0000198478429
 51
241.92793395144
  0
LINE
  5
16D
330
1F
100
AcDbEntity
  8
LAY-1
  6
CONTINUOUS
 62
     3
100
AcDbLine
 10
281.50003
 20
496.1202566207729
 30
0.0
 11
281.50003
 21
540.0786916207729
 31
0.0
  0
ARC
  5
16E
330
1F
100
AcDbEntity
  8
LAY-1
  6
CONTINUOUS
 62
     3
100
AcDbCircle
 10
279.50003
 20
496.1202566207729
 30
0.0
 40
2.0
100
AcDbArc
 50
314.9017295000256
 51
359.9999823999061
  0
LINE
  5
16F
330
1F
100
AcDbEntity
  8
LAY-1
  6
CONTINUOUS
 62
     3
100
AcDbLine
 10
285.50003
 20
499.0786916207729
 30
0.0
 11
285.50003
 21
542.0786916207729
 31
0.0
  0
ARC
  5
170
330
1F
100
AcDbEntity
  8
LAY-1
  6
CONTINUOUS
 62
     3
100
AcDbCircle
 10
283.50003
 20
499.0786916207729
 30
0.0
 40
2.0
100
AcDbArc
 50
298.0720682963092
 51
359.9999823999061
  0
ARC
  5
171
330
1F
100
AcDbEntity
  8
LAY-1
  6
CONTINUOUS
 62
     3
100
AcDbCircle
 10
291.50003
 20
484.0786916207729
 30
0.0
 40
37.500011
100
AcDbArc
 50
285.4660227751796
 51
74.53399932041249
  0
LINE
  5
172
330
1F
100
AcDbEntity
  8
LAY-1
  6
CONTINUOUS
 62
     3
100
AcDbLine
 10
280.50003
 20
530.5787526207731
 30
0.0
 11
280.50003
 21
519.9290946207731
 31
0.0
  0
LINE
  5
173
330
1F
100
AcDbEntity
  8
LAY-1
  6
CONTINUOUS
 62
     3
100
AcDbLine
 10
306.50003
 20
530.5786916207729
 30
0.0
 11
306.50003
 21
518.448014620773
 31
0.0
  0
LINE
  5
174
330
1F
100
AcDbEntity
  8
LAY-1
  6
CONTINUOUS
 62
     3
100
AcDbLine
 10
305.50003
 20
531.5786916207729
 30
0.0
 11
301.5000610000001
 21
531.5786916207729
 31
0.0
  0
LINE
  5
175
330
1F
100
AcDbEntity
  8
LAY-1
  6
CONTINUOUS
 62
     3
100
AcDbLine
 10
281.500091
 20
531.5787526207731
 30
0.0
 11
281.50003
 21
531.5787526207731
 31
0.0
  0
ARC
  5
176
330
1F
100
AcDbEntity
  8
LAY-1
  6
CONTINUOUS
 62
     3
100
AcDbCircle
 10
305.50003
 20
530.5786916207729
 30
0.0
 40
1.0
100
AcDbArc
 50
0.0
 51
89.99998127603166
  0
ARC
  5
177
330
1F
100
AcDbEntity
  8
LAY-1
  6
CONTINUOUS
 62
     3
100
AcDbCircle
 10
281.50003
 20
530.5787526207731
 30
0.0
 40
1.0
100
AcDbArc
 50
89.99998127603166
 51
180.0000198478429
  0
LINE
  5
178
330
1F
100
AcDbEntity
  8
LAY-1
  6
CONTINUOUS
 62
     3
100
AcDbLine
 10
276.50003
 20
439.437669620773
 30
0.0
 11
276.50003
 21
449.709367620773
 31
0.0
  0
LINE
  5
179
330
1F
100
AcDbEntity
  8
LAY-1
  6
CONTINUOUS
 62
     3
100
AcDbLine
 10
302.50003
 20
437.578630620773
 30
0.0
 11
302.50003
 21
448.228288620773
 31
0.0
  0
ARC
  5
17A
330
1F
100
AcDbEntity
  8
LAY-1
  6
CONTINUOUS
 62
     3
100
AcDbCircle
 10
301.50003
 20
437.578630620773
 30
0.0
 40
1.0
100
AcDbArc
 50
270.0000011238745
 51
359.9999823999061
  0
LINE
  5
17B
330
1F
100
AcDbEntity
  8
LAY-1
  6
CONTINUOUS
 62
     3
100
AcDbLine
 10
248.0000610000001
 20
524.084306620773
 30
0.0
 11
248.0000610000001
 21
509.073198620773
 31
0.0
  0
LINE
  5
17C
330
1F
100
AcDbEntity
  8
LAY-1
  6
CONTINUOUS
 62
     3
100
AcDbLine
 10
253.7751460000001
 20
524.084306620773
 30
0.0
 11
248.0000610000001
 21
524.084306620773
 31
0.0
  0
LINE
  5
17D
330
1F
100
AcDbEntity
  8
LAY-1
  6
CONTINUOUS
 62
     3
100
AcDbLine
 10
253.7751460000001
 20
520.331437620773
 30
0.0
 11
248.000091
 21
520.331437620773
 31
0.0
  0
LINE
  5
17E
330
1F
100
AcDbEntity
  8
LAY-1
  6
CONTINUOUS
 62
     3
100
AcDbLine
 10
253.7751460000001
 20
512.8259446207729
 30
0.0
 11
248.000091
 21
512.8259446207729
 31
0.0
  0
LINE
  5
17F
330
1F
100
AcDbEntity
  8
LAY-1
  6
CONTINUOUS
 62
     3
100
AcDbLine
 10
254.5000610000001
 20
510.3286916207729
 30
0.0
 11
254.5000610000001
 21
522.8286916207729
 31
0.0
  0
LINE
  5
180
330
1F
100
AcDbEntity
  8
LAY-1
  6
CONTINUOUS
 62
     3
100
AcDbLine
 10
254.5000610000001
 20
522.8286916207729
 30
0.0
 11
253.7751460000001
 21
524.084306620773
 31
0.0
  0
ARC
  5
181
330
1F
100
AcDbEntity
  8
LAY-1
  6
CONTINUOUS
 62
     3
100
AcDbCircle
 10
244.4206539999999
 20
516.579606620773
 30
0.0
 40
10.07909
100
AcDbArc
 50
338.1362567123911
 51
21.8544834669197
  0
ARC
  5
182
330
1F
100
AcDbEntity
  8
LAY-1
  6
CONTINUOUS
 62
     3
100
AcDbCircle
 10
249.6912229999999
 20
522.870195620773
 30
0.0
 40
4.809198
100
AcDbArc
 50
328.1328146798634
 51
359.5055198227083
  0
LINE
  5
183
330
1F
100
AcDbEntity
  8
LAY-1
  6
CONTINUOUS
 62
     3
100
AcDbLine
 10
253.7751460000001
 20
509.073075620773
 30
0.0
 11
248.0000610000001
 21
509.073075620773
 31
0.0
  0
LINE
  5
184
330
1F
100
AcDbEntity
  8
LAY-1
  6
CONTINUOUS
 62
     3
100
AcDbLine
 10
254.5000610000001
 20
510.3286916207729
 30
0.0
 11
253.7751159999999
 21
509.073075620773
 31
0.0
  0
ARC
  5
185
330
1F
100
AcDbEntity
  8
LAY-1
  6
CONTINUOUS
 62
     3
100
AcDbCircle
 10
249.6912229999999
 20
510.2871876207731
 30
0.0
 40
4.809198
100
AcDbArc
 50
0.4944625771979004
 51
31.86716772004272
  0
LINE
  5
186
330
1F
100
AcDbEntity
  8
LAY-1
  6
EXLTYPE2
 62
     1
100
AcDbLine
 10
233.118713
 20
516.5787526207731
 30
0.0
 11
261.0756829999999
 21
516.5787526207731
 31
0.0
  0
LINE
  5
187
330
1F
100
AcDbEntity
  8
LAY-1
  6
CONTINUOUS
 62
     3
100
AcDbLine
 10
257.299987
 20
520.5787526207731
 30
0.0
 11
257.299987
 21
512.5787526207731
 31
0.0
  0
ARC
  5
188
330
1F
100
AcDbEntity
  8
LAY-1
  6
CONTINUOUS
 62
     3
100
AcDbCircle
 10
251.232177
 20
516.578508620773
 30
0.0
 40
7.267864
100
AcDbArc
 50
326.6080593954615
 51
33.39499937644468
  0
LINE
  5
189
330
1F
100
AcDbEntity
  8
LAY-1
  6
CONTINUOUS
 62
     1
100
AcDbLine
 10
254.5000610000001
 20
513.2547776207731
 30
0.0
 11
257.6954950000001
 21
513.2547776207731
 31
0.0
  0
LINE
  5
18A
330
1F
100
AcDbEntity
  8
LAY-1
  6
CONTINUOUS
 62
     3
100
AcDbLine
 10
254.5000610000001
 20
512.5788136207731
 30
0.0
 11
257.299987
 21
512.5787526207731
 31
0.0
  0
LINE
  5
18B
330
1F
100
AcDbEntity
  8
LAY-1
  6
CONTINUOUS
 62
     3
100
AcDbLine
 10
254.5000610000001
 20
520.5786916207729
 30
0.0
 11
257.299987
 21
520.5787526207731
 31
0.0
  0
LINE
  5
18C
330
1F
100
AcDbEntity
  8
LAY-1
  6
CONTINUOUS
 62
     1
100
AcDbLine
 10
254.5000610000001
 20
519.902726620773
 30
0.0
 11
257.6954950000001
 21
519.902726620773
 31
0.0
  0
LINE
  5
18D
330
1F
100
AcDbEntity
  8
LAY-1
  6
CONTINUOUS
 62
     3
100
AcDbLine
 10
257.636322
 20
500.5787526207731
 30
0.0
 11
253.00003
 21
500.5787526207731
 31
0.0
  0
ARC
  5
18E
330
1F
100
AcDbEntity
  8
LAY-1
  6
CONTINUOUS
 62
     3
100
AcDbCircle
 10
253.00003
 20
505.5787526207731
 30
0.0
 40
5.0
100
AcDbArc
 50
180.0000198478429
 51
270.0000011238745
  0
ARC
  5
18F
330
1F
100
AcDbEntity
  8
LAY-1
  6
CONTINUOUS
 62
     3
100
AcDbCircle
 10
246.00003
 20
522.5787526207731
 30
0.0
 40
2.0
100
AcDbArc
 50
359.9999823999061
 51
90.00002097171735
  0
LINE
  5
190
330
1F
100
AcDbEntity
  8
LAY-1
  6
CONTINUOUS
 62
     3
100
AcDbLine
 10
201.500091
 20
524.5787526207731
 30
0.0
 11
246.00003
 21
524.5787526207731
 31
0.0
  0
LINE
  5
191
330
1F
100
AcDbEntity
  8
LAY-1
  6
CONTINUOUS
 62
     3
100
AcDbLine
 10
201.500091
 20
548.9126146207731
 30
0.0
 11
206.025573
 21
544.387101620773
 31
0.0
  0
LINE
  5
192
330
1F
100
AcDbEntity
  8
LAY-1
  6
CONTINUOUS
 62
     3
100
AcDbLine
 10
201.500091
 20
548.9126146207731
 30
0.0
 11
196.974578
 21
544.387101620773
 31
0.0
  0
ARC
  5
193
330
1F
100
AcDbEntity
  8
LAY-1
  6
CONTINUOUS
 62
     3
100
AcDbCircle
 10
150.000152
 20
505.5787526207731
 30
0.0
 40
5.0
100
AcDbArc
 50
269.9999988761256
 51
359.9999801521575
  0
ARC
  5
194
330
1F
100
AcDbEntity
  8
LAY-1
  6
CONTINUOUS
 62
     3
100
AcDbCircle
 10
150.000152
 20
505.5787526207731
 30
0.0
 40
5.0
100
AcDbArc
 50
269.9999988761256
 51
359.9999801521575
  0
ARC
  5
195
330
1F
100
AcDbEntity
  8
LAY-1
  6
CONTINUOUS
 62
     3
100
AcDbCircle
 10
150.000152
 20
505.5787526207731
 30
0.0
 40
5.0
100
AcDbArc
 50
269.9999988761256
 51
359.9999801521575
  0
ARC
  5
196
330
1F
100
AcDbEntity
  8
LAY-1
  6
CONTINUOUS
 62
     3
100
AcDbCircle
 10
291.50003
 20
484.0786916207729
 30
0.0
 40
37.500011
100
AcDbArc
 50
105.4660029273366
 51
179.4772122877423
  0
LINE
  5
197
330
1F
100
AcDbEntity
  8
LAY-1
  6
CONTINUOUS
 62
     3
100
AcDbLine
 10
199.804205
 20
544.387101620773
 30
0.0
 11
196.974578
 21
544.387101620773
 31
0.0
  0
LINE
  5
198
330
1F
100
AcDbEntity
  8
LAY-1
  6
CONTINUOUS
 62
     3
100
AcDbLine
 10
203.195977
 20
544.387101620773
 30
0.0
 11
206.025573
 21
544.387101620773
 31
0.0
  0
CIRCLE
  5
199
330
1F
100
AcDbEntity
  8
LAY-1
  6
CONTINUOUS
 62
     3
100
AcDbCircle
 10
201.500091
 20
471.7692905440133
 30
0.0
 40
11.0
  0
LINE
  5
19A
330
1F
100
AcDbEntity
  8
LAY-1
  6
CONTINUOUS
 62
     3
100
AcDbLine
 10
203.391916075679
 20
482.6053875296918
 30
0.0
 11
212.3361879856786
 21
473.6611156196923
 31
0.0
  0
LINE
  5
19B
330
1F
100
AcDbEntity
  8
LAY-1
  6
CONTINUOUS
 62
     3
100
AcDbLine
 10
190.6639940143211
 20
469.8774654683339
 30
0.0
 11
199.6082659243208
 21
460.9331935583343
 31
0.0
  0
LINE
  5
19C
330
1F
100
AcDbEntity
  8
LAY-1
  6
CONTINUOUS
 62
     3
100
AcDbLine
 10
190.6639940143215
 20
473.6611156196923
 30
0.0
 11
199.608265924321
 21
482.6053875296918
 31
0.0
  0
LINE
  5
19D
330
1F
100
AcDbEntity
  8
LAY-1
  6
CONTINUOUS
 62
     3
100
AcDbLine
 10
212.3361879856787
 20
469.8774654683343
 30
0.0
 11
203.3919160756791
 21
460.9331935583347
 31
0.0
  0
LINE
  5
19E
330
1F
100
AcDbEntity
  8
LAY-1
  6
CONTINUOUS
 62
     3
100
AcDbLine
 10
208.1051686343746
 20
477.8921349709963
 30
0.0
 11
199.500091
 21
472.9239910823924
 31
0.0
  0
LINE
  5
19F
330
1F
100
AcDbEntity
  8
LAY-1
  6
CONTINUOUS
 62
     3
100
AcDbLine
 10
211.0333718646501
 20
474.9639317407207
 30
0.0
 11
203.5000909999998
 21
470.6145900056338
 31
0.0
  0
LINE
  5
1A0
330
1F
100
AcDbEntity
  8
LAY-1
  6
CONTINUOUS
 62
     3
100
AcDbLine
 10
203.500091
 20
470.6145900056333
 30
0.0
 11
203.500091
 21
460.9331935583332
 31
0.0
  0
LINE
  5
1A1
330
1F
100
AcDbEntity
  8
LAY-1
  6
CONTINUOUS
 62
     3
100
AcDbLine
 10
199.500091
 20
472.9239910823933
 30
0.0
 11
199.500091
 21
460.9331935583332
 31
0.0
  0
LINE
  5
1A2
330
1F
100
AcDbEntity
  8
LAY-1
  6
EXLTYPE5
 62
     1
100
AcDbLine
 10
201.500091
 20
424.078691620773
 30
0.0
 11
201.500091
 21
525.078691620773
 31
0.0
  0
ARC
  5
1A3
330
1F
100
AcDbEntity
  8
LAY-1
  6
CONTINUOUS
 62
     3
100
AcDbCircle
 10
220.7616048854599
 20
436.1940762361577
 30
0.0
 40
10.0
100
AcDbArc
 50
116.949955927645
 51
164.3815017243516
  0
ARC
  5
1A4
330
1F
100
AcDbEntity
  8
LAY-1
  6
CONTINUOUS
 62
     3
100
AcDbCircle
 10
182.2385771145399
 20
511.9633070053884
 30
0.0
 40
10.0
100
AcDbArc
 50
296.949955927645
 51
344.3815017243516
  0
ARC
  5
1A5
330
1F
100
AcDbEntity
  8
LAY-1
  6
CONTINUOUS
 62
     3
100
AcDbCircle
 10
201.500091
 20
441.578691620773
 30
0.0
 40
10.0
100
AcDbArc
 50
195.6184982756485
 51
344.3815017243513
  0
ARC
  5
1A6
330
1F
100
AcDbEntity
  8
LAY-1
  6
CONTINUOUS
 62
     3
100
AcDbCircle
 10
201.500091
 20
506.5786916207732
 30
0.0
 40
10.0
100
AcDbArc
 50
15.61849827564843
 51
164.3815017243514
  0
CIRCLE
  5
1A7
330
1F
100
AcDbEntity
  8
LAY-1
  6
CONTINUOUS
 62
     3
100
AcDbCircle
 10
201.500091
 20
506.578691620773
 30
0.0
 40
8.0
  0
LINE
  5
1A8
330
1F
100
AcDbEntity
  8
LAY-1
  6
CONTINUOUS
 62
     3
100
AcDbLine
 10
201.500091
 20
511.19749377429
 30
0.0
 11
205.5000909999999
 21
508.8880926975316
 31
0.0
  0
LINE
  5
1A9
330
1F
100
AcDbEntity
  8
LAY-1
  6
CONTINUOUS
 62
     3
100
AcDbLine
 10
205.5000909999999
 20
504.2692905440144
 30
0.0
 11
205.5000909999999
 21
508.8880926975316
 31
0.0
  0
LINE
  5
1AA
330
1F
100
AcDbEntity
  8
LAY-1
  6
CONTINUOUS
 62
     3
100
AcDbLine
 10
201.500091
 20
501.9598894672561
 30
0.0
 11
205.5000909999999
 21
504.2692905440144
 31
0.0
  0
LINE
  5
1AB
330
1F
100
AcDbEntity
  8
LAY-1
  6
CONTINUOUS
 62
     3
100
AcDbLine
 10
201.500091
 20
501.9598894672561
 30
0.0
 11
197.500091
 21
504.2692905440144
 31
0.0
  0
LINE
  5
1AC
330
1F
100
AcDbEntity
  8
LAY-1
  6
CONTINUOUS
 62
     3
100
AcDbLine
 10
201.500091
 20
511.1974937742901
 30
0.0
 11
197.500091
 21
508.8880926975316
 31
0.0
  0
LINE
  5
1AD
330
1F
100
AcDbEntity
  8
LAY-1
  6
CONTINUOUS
 62
     3
100
AcDbLine
 10
197.500091
 20
504.2692905440144
 30
0.0
 11
197.500091
 21
508.8880926975316
 31
0.0
  0
CIRCLE
  5
1AE
330
1F
100
AcDbEntity
  8
LAY-1
  6
CONTINUOUS
 62
     3
100
AcDbCircle
 10
201.500091
 20
441.578691620773
 30
0.0
 40
8.0
  0
LINE
  5
1AF
330
1F
100
AcDbEntity
  8
LAY-1
  6
CONTINUOUS
 62
     3
100
AcDbLine
 10
201.500091
 20
436.9598894672561
 30
0.0
 11
205.5000909999999
 21
439.2692905440144
 31
0.0
  0
LINE
  5
1B0
330
1F
100
AcDbEntity
  8
LAY-1
  6
CONTINUOUS
 62
     3
100
AcDbLine
 10
205.5000909999999
 20
443.8880926975316
 30
0.0
 11
205.5000909999999
 21
439.2692905440144
 31
0.0
  0
LINE
  5
1B1
330
1F
100
AcDbEntity
  8
LAY-1
  6
CONTINUOUS
 62
     3
100
AcDbLine
 10
201.500091
 20
446.19749377429
 30
0.0
 11
205.5000909999999
 21
443.8880926975316
 31
0.0
  0
LINE
  5
1B2
330
1F
100
AcDbEntity
  8
LAY-1
  6
CONTINUOUS
 62
     3
100
AcDbLine
 10
201.500091
 20
446.19749377429
 30
0.0
 11
197.500091
 21
443.8880926975316
 31
0.0
  0
LINE
  5
1B3
330
1F
100
AcDbEntity
  8
LAY-1
  6
CONTINUOUS
 62
     3
100
AcDbLine
 10
201.500091
 20
436.9598894672559
 30
0.0
 11
197.500091
 21
439.2692905440144
 31
0.0
  0
LINE
  5
1B4
330
1F
100
AcDbEntity
  8
LAY-1
  6
CONTINUOUS
 62
     3
100
AcDbLine
 10
197.500091
 20
443.8880926975316
 30
0.0
 11
197.500091
 21
439.2692905440144
 31
0.0
  0
LINE
  5
1B5
330
1F
100
AcDbEntity
  8
LAY-1
  6
CONTINUOUS
 62
     3
100
AcDbLine
 10
216.5000565267336
 20
505.833009543016
 30
0.0
 11
221.5000746648867
 21
502.9461259767089
 31
0.0
  0
LINE
  5
1B6
330
1F
100
AcDbEntity
  8
LAY-1
  6
CONTINUOUS
 62
     3
100
AcDbLine
 10
216.5000565267336
 20
505.833009543016
 30
0.0
 11
191.5000573392336
 21
491.399271450021
 31
0.0
  0
LINE
  5
1B7
330
1F
100
AcDbEntity
  8
LAY-1
  6
CONTINUOUS
 62
     3
100
AcDbLine
 10
221.5000746648867
 20
502.9461259767089
 30
0.0
 11
221.5000746648867
 21
474.0786916207829
 31
0.0
  0
LINE
  5
1B8
330
1F
100
AcDbEntity
  8
LAY-1
  6
CONTINUOUS
 62
     3
100
AcDbLine
 10
181.5000262916859
 20
445.2112572648571
 30
0.0
 11
181.5000262916859
 21
474.0786916207829
 31
0.0
  0
LINE
  5
1B9
330
1F
100
AcDbEntity
  8
LAY-1
  6
CONTINUOUS
 62
     3
100
AcDbLine
 10
181.5000262916859
 20
445.2112572648571
 30
0.0
 11
186.5000418154597
 21
442.324454744299
 31
0.0
  0
LINE
  5
1BA
330
1F
100
AcDbEntity
  8
LAY-1
  6
CONTINUOUS
 62
     3
100
AcDbLine
 10
186.5000418154597
 20
442.324454744299
 30
0.0
 11
211.5000410029601
 21
456.75815100723
 31
0.0
  0
ARC
  5
1BB
330
1F
100
AcDbEntity
  8
LAY-1
  6
CONTINUOUS
 62
     3
100
AcDbCircle
 10
201.5000910011612
 20
474.0786916207829
 30
0.0
 40
19.99999935
100
AcDbArc
 50
119.9999687721015
 51
180.0
  0
ARC
  5
1BC
330
1F
100
AcDbEntity
  8
LAY-1
  6
CONTINUOUS
 62
     3
100
AcDbCircle
 10
201.5000909988393
 20
474.0786916207828
 30
0.0
 40
19.99999935
100
AcDbArc
 50
299.9999687721015
 51
0.0
  0
CIRCLE
  5
1BD
330
1F
100
AcDbEntity
  8
LAY-1
  6
CONTINUOUS
 62
     3
100
AcDbCircle
 10
201.500091
 20
474.078691620773
 30
0.0
 40
20.0
  0
LINE
  5
1BE
330
1F
100
AcDbEntity
  8
LAY-1
  6
EXLTYPE5
 62
     1
100
AcDbLine
 10
408.4557622448376
 20
354.5928118486664
 30
0.0
 11
201.500091
 21
474.0786916207729
 31
0.0
  0
LINE
  5
1BF
330
1F
100
AcDbEntity
  8
LAY-1
  6
CONTINUOUS
 62
     3
100
AcDbLine
 10
403.1859251509768
 20
363.4088551769833
 30
0.0
 11
398.1858742382913
 21
354.7486305330423
 31
0.0
  0
LINE
  5
1C0
330
1F
100
AcDbEntity
  8
LAY-1
  6
EXLTYPE5
 62
     1
100
AcDbLine
 10
216.104205
 20
506.578691620773
 30
0.0
 11
183.5000909999998
 21
506.578691620773
 31
0.0
  0
LINE
  5
1C1
330
1F
100
AcDbEntity
  8
LAY-1
  6
EXLTYPE5
 62
     1
100
AcDbLine
 10
215.704205
 20
441.578691620773
 30
0.0
 11
183.1000909999999
 21
441.578691620773
 31
0.0
  0
LINE
  5
1C2
330
1F
100
AcDbEntity
  8
LAY-1
  6
CONTINUOUS
 62
     3
100
AcDbLine
 10
155.000122
 20
444.0730766207729
 30
0.0
 11
155.000122
 21
459.0841846207728
 31
0.0
  0
LINE
  5
1C3
330
1F
100
AcDbEntity
  8
LAY-1
  6
CONTINUOUS
 62
     3
100
AcDbLine
 10
149.2250359999999
 20
444.0730766207729
 30
0.0
 11
155.000122
 21
444.0730766207729
 31
0.0
  0
LINE
  5
1C4
330
1F
100
AcDbEntity
  8
LAY-1
  6
CONTINUOUS
 62
     3
100
AcDbLine
 10
149.2250359999999
 20
447.8259456207728
 30
0.0
 11
155.000091
 21
447.8259456207728
 31
0.0
  0
LINE
  5
1C5
330
1F
100
AcDbEntity
  8
LAY-1
  6
CONTINUOUS
 62
     3
100
AcDbLine
 10
149.2250359999999
 20
455.3314386207729
 30
0.0
 11
155.000091
 21
455.3314386207729
 31
0.0
  0
LINE
  5
1C6
330
1F
100
AcDbEntity
  8
LAY-1
  6
CONTINUOUS
 62
     3
100
AcDbLine
 10
148.500122
 20
457.8286916207729
 30
0.0
 11
148.500122
 21
445.3286916207729
 31
0.0
  0
LINE
  5
1C7
330
1F
100
AcDbEntity
  8
LAY-1
  6
CONTINUOUS
 62
     3
100
AcDbLine
 10
148.500122
 20
445.3286916207729
 30
0.0
 11
149.2250359999999
 21
444.0730766207729
 31
0.0
  0
ARC
  5
1C8
330
1F
100
AcDbEntity
  8
LAY-1
  6
CONTINUOUS
 62
     3
100
AcDbCircle
 10
158.5795279999999
 20
451.5777766207729
 30
0.0
 40
10.07909
100
AcDbArc
 50
158.1362544646419
 51
201.8544239233915
  0
ARC
  5
1C9
330
1F
100
AcDbEntity
  8
LAY-1
  6
CONTINUOUS
 62
     3
100
AcDbCircle
 10
153.30896
 20
445.2871876207729
 30
0.0
 40
4.809198
100
AcDbArc
 50
148.132812432114
 51
179.505517574959
  0
LINE
  5
1CA
330
1F
100
AcDbEntity
  8
LAY-1
  6
CONTINUOUS
 62
     3
100
AcDbLine
 10
149.2250359999999
 20
459.0843076207728
 30
0.0
 11
155.000122
 21
459.0843076207728
 31
0.0
  0
LINE
  5
1CB
330
1F
100
AcDbEntity
  8
LAY-1
  6
CONTINUOUS
 62
     3
100
AcDbLine
 10
148.500122
 20
457.8286916207729
 30
0.0
 11
149.225067
 21
459.0843076207728
 31
0.0
  0
ARC
  5
1CC
330
1F
100
AcDbEntity
  8
LAY-1
  6
CONTINUOUS
 62
     3
100
AcDbCircle
 10
153.30896
 20
457.8701956207727
 30
0.0
 40
4.809198
100
AcDbArc
 50
180.4944427293551
 51
211.8671478722003
  0
LINE
  5
1CD
330
1F
100
AcDbEntity
  8
LAY-1
  6
CONTINUOUS
 62
     3
100
AcDbLine
 10
145.700195
 20
447.5786306207727
 30
0.0
 11
145.700195
 21
455.5786306207727
 31
0.0
  0
ARC
  5
1CE
330
1F
100
AcDbEntity
  8
LAY-1
  6
CONTINUOUS
 62
     3
100
AcDbCircle
 10
151.768005
 20
451.5788746207728
 30
0.0
 40
7.267864
100
AcDbArc
 50
146.6080571477122
 51
213.3949971286956
  0
LINE
  5
1CF
330
1F
100
AcDbEntity
  8
LAY-1
  6
CONTINUOUS
 62
     1
100
AcDbLine
 10
148.500122
 20
454.9026056207728
 30
0.0
 11
145.3046869999999
 21
454.9026056207728
 31
0.0
  0
LINE
  5
1D0
330
1F
100
AcDbEntity
  8
LAY-1
  6
CONTINUOUS
 62
     3
100
AcDbLine
 10
148.500122
 20
455.5785696207728
 30
0.0
 11
145.700195
 21
455.5786306207727
 31
0.0
  0
LINE
  5
1D1
330
1F
100
AcDbEntity
  8
LAY-1
  6
CONTINUOUS
 62
     3
100
AcDbLine
 10
148.500122
 20
447.5786916207729
 30
0.0
 11
145.700195
 21
447.5786306207727
 31
0.0
  0
LINE
  5
1D2
330
1F
100
AcDbEntity
  8
LAY-1
  6
CONTINUOUS
 62
     1
100
AcDbLine
 10
148.500122
 20
448.2546566207728
 30
0.0
 11
145.3046869999999
 21
448.2546566207728
 31
0.0
  0
LINE
  5
1D3
330
1F
100
AcDbEntity
  8
LAY-1
  6
CONTINUOUS
 62
     3
100
AcDbLine
 10
145.3638609999999
 20
467.5786306207727
 30
0.0
 11
150.000152
 21
467.5786306207727
 31
0.0
  0
ARC
  5
1D4
330
1F
100
AcDbEntity
  8
LAY-1
  6
CONTINUOUS
 62
     3
100
AcDbCircle
 10
150.000152
 20
462.5786306207727
 30
0.0
 40
5.0
100
AcDbArc
 50
0.0000176000937731
 51
89.9999988761255
  0
ARC
  5
1D5
330
1F
100
AcDbEntity
  8
LAY-1
  6
CONTINUOUS
 62
     3
100
AcDbCircle
 10
157.000152
 20
445.5786306207727
 30
0.0
 40
2.0
100
AcDbArc
 50
179.9999801521566
 51
270.000018723968
  0
ARC
  5
1D6
330
1F
100
AcDbEntity
  8
LAY-1
  6
CONTINUOUS
 62
     3
100
AcDbCircle
 10
150.000152
 20
462.5786306207727
 30
0.0
 40
5.0
100
AcDbArc
 50
0.0000198478427841
 51
90.00000112387455
  0
ARC
  5
1D7
330
1F
100
AcDbEntity
  8
LAY-1
  6
CONTINUOUS
 62
     3
100
AcDbCircle
 10
150.000152
 20
462.5786306207727
 30
0.0
 40
5.0
100
AcDbArc
 50
0.0000198478427841
 51
90.00000112387455
  0
ARC
  5
1D8
330
1F
100
AcDbEntity
  8
LAY-1
  6
CONTINUOUS
 62
     3
100
AcDbCircle
 10
150.000152
 20
462.5786306207727
 30
0.0
 40
5.0
100
AcDbArc
 50
0.0000198478427841
 51
90.00000112387455
  0
LINE
  5
1D9
330
1F
100
AcDbEntity
  8
LAY-1
  6
CONTINUOUS
 62
     3
100
AcDbLine
 10
253.7751460000001
 20
455.3314386207729
 30
0.0
 11
248.000091
 21
455.3314386207729
 31
0.0
  0
LINE
  5
1DA
330
1F
100
AcDbEntity
  8
LAY-1
  6
CONTINUOUS
 62
     3
100
AcDbLine
 10
253.7751460000001
 20
459.0843076207728
 30
0.0
 11
248.0000610000001
 21
459.0843076207728
 31
0.0
  0
LINE
  5
1DB
330
1F
100
AcDbEntity
  8
LAY-1
  6
CONTINUOUS
 62
     3
100
AcDbLine
 10
254.5000610000001
 20
457.8286916207729
 30
0.0
 11
253.7751159999999
 21
459.0843076207728
 31
0.0
  0
ARC
  5
1DC
330
1F
100
AcDbEntity
  8
LAY-1
  6
CONTINUOUS
 62
     3
100
AcDbCircle
 10
249.6912229999999
 20
457.8701956207727
 30
0.0
 40
4.809198
100
AcDbArc
 50
328.1328322799569
 51
359.505537422802
  0
LINE
  5
1DD
330
1F
100
AcDbEntity
  8
LAY-1
  6
CONTINUOUS
 62
     3
100
AcDbLine
 10
257.299987
 20
447.5786306207727
 30
0.0
 11
257.299987
 21
455.5786306207727
 31
0.0
  0
ARC
  5
1DE
330
1F
100
AcDbEntity
  8
LAY-1
  6
CONTINUOUS
 62
     3
100
AcDbCircle
 10
251.232177
 20
451.5788746207728
 30
0.0
 40
7.267864
100
AcDbArc
 50
326.6050006235557
 51
33.3919406045387
  0
LINE
  5
1DF
330
1F
100
AcDbEntity
  8
LAY-1
  6
CONTINUOUS
 62
     1
100
AcDbLine
 10
254.5000610000001
 20
454.9026056207728
 30
0.0
 11
257.6954950000001
 21
454.9026056207728
 31
0.0
  0
LINE
  5
1E0
330
1F
100
AcDbEntity
  8
LAY-1
  6
CONTINUOUS
 62
     3
100
AcDbLine
 10
254.5000610000001
 20
455.5785696207728
 30
0.0
 11
257.299987
 21
455.5786306207727
 31
0.0
  0
LINE
  5
1E1
330
1F
100
AcDbEntity
  8
LAY-1
  6
CONTINUOUS
 62
     3
100
AcDbLine
 10
257.636322
 20
467.5786306207727
 30
0.0
 11
253.00003
 21
467.5786306207727
 31
0.0
  0
ARC
  5
1E2
330
1F
100
AcDbEntity
  8
LAY-1
  6
CONTINUOUS
 62
     3
100
AcDbCircle
 10
253.00003
 20
462.5786306207727
 30
0.0
 40
5.0
100
AcDbArc
 50
89.9999988761255
 51
179.9999801521572
  0
LINE
  5
1E3
330
1F
100
AcDbEntity
  8
LAY-1
  6
CONTINUOUS
 62
     3
100
AcDbLine
 10
214.0185820810594
 20
443.5786306207727
 30
0.0
 11
244.3277587028
 21
443.5786306207727
 31
0.0
  0
LINE
  5
1E4
330
1F
100
AcDbEntity
  8
LAY-1
  6
CONTINUOUS
 62
     3
100
AcDbLine
 10
236.5000299999998
 20
443.5786306207727
 30
0.0
 11
236.5000299999998
 21
448.0979706564718
 31
0.0
  0
LINE
  5
1E5
330
1F
100
AcDbEntity
  8
LAY-1
  6
CONTINUOUS
 62
     3
100
AcDbLine
 10
236.5000299999998
 20
459.644975249481
 30
0.0
 11
236.5000299999998
 21
484.0786916207729
 31
0.0
  0
LINE
  5
1E6
330
1F
100
AcDbEntity
  8
LAY-1
  6
CONTINUOUS
 62
     3
100
AcDbLine
 10
238.0000299999998
 20
484.0786916207729
 30
0.0
 11
238.0000299999998
 21
458.7789500829316
 31
0.0
  0
LINE
  5
1E7
330
1F
100
AcDbEntity
  8
LAY-1
  6
CONTINUOUS
 62
     3
100
AcDbLine
 10
238.0000299999998
 20
447.2319454899225
 30
0.0
 11
238.0000299999998
 21
443.5786306207727
 31
0.0
  0
LINE
  5
1E8
330
1F
100
AcDbEntity
  8
LAY-1
  6
CONTINUOUS
 62
     3
100
AcDbLine
 10
248.0000610000001
 20
453.0054310747486
 30
0.0
 11
248.0000610000001
 21
459.0841846207728
 31
0.0
  0
ARC
  5
1E9
330
1F
100
AcDbEntity
  8
LAY-1
  6
CONTINUOUS
 62
     3
100
AcDbCircle
 10
244.4206539999999
 20
451.5777766207729
 30
0.0
 40
10.07909
100
AcDbArc
 50
338.1455165330804
 51
338.147952577457
  0
ARC
  5
1EA
330
1F
100
AcDbEntity
  8
LAY-1
  6
CONTINUOUS
 62
     3
100
AcDbCircle
 10
244.4206539999999
 20
451.5777766207729
 30
0.0
 40
10.07909
100
AcDbArc
 50
347.4716813384641
 51
21.86374328760908
  0
ARC
  5
1EB
330
1F
100
AcDbEntity
  8
LAY-1
  6
CONTINUOUS
 62
     3
100
AcDbCircle
 10
249.6912229999999
 20
445.2871876207729
 30
0.0
 40
4.809198
100
AcDbArc
 50
0.49448017729196
 51
0.7010601168091093
  0
LINE
  5
1EC
330
1F
100
AcDbEntity
  8
LAY-1
  6
CONTINUOUS
 62
     3
100
AcDbLine
 10
254.5000610000001
 20
445.3460305724293
 30
0.0
 11
254.5000610000001
 21
445.3286916207729
 31
0.0
  0
LINE
  5
1ED
330
1F
100
AcDbEntity
  8
LAY-1
  6
CONTINUOUS
 62
     1
100
AcDbLine
 10
256.2286459836868
 20
448.2546566207728
 30
0.0
 11
257.6954950000001
 21
448.2546566207728
 31
0.0
  0
LINE
  5
1EE
330
1F
100
AcDbEntity
  8
LAY-1
  6
CONTINUOUS
 62
     3
100
AcDbLine
 10
254.5000610000001
 20
457.8286916207729
 30
0.0
 11
254.5000610000001
 21
449.2526553530344
 31
0.0
  0
ARC
  5
1EF
330
1F
100
AcDbEntity
  8
LAY-1
  6
CONTINUOUS
 62
     3
100
AcDbCircle
 10
291.50003
 20
484.0786916207729
 30
0.0
 40
37.500011
100
AcDbArc
 50
179.4772122877377
 51
254.5339794725697
  0
LINE
  5
1F0
330
1F
100
AcDbEntity
  8
LAY-1
  6
CONTINUOUS
 62
     3
100
AcDbLine
 10
248.00003
 20
484.0786916207729
 30
0.0
 11
248.00003
 21
522.5787526207731
 31
0.0
  0
LINE
  5
1F1
330
1F
100
AcDbEntity
  8
LAY-1
  6
CONTINUOUS
 62
     3
100
AcDbLine
 10
248.00003
 20
484.078691620773
 30
0.0
 11
248.00003
 21
453.005448972602
 31
0.0
  0
LINE
  5
1F2
330
1F
100
AcDbEntity
  8
LAY-1
  6
CONTINUOUS
 62
     3
100
AcDbLine
 10
238.0000299999998
 20
484.0786916207729
 30
0.0
 11
238.0000299999998
 21
524.5787526207731
 31
0.0
  0
LINE
  5
1F3
330
1F
100
AcDbEntity
  8
LAY-1
  6
CONTINUOUS
 62
     3
100
AcDbLine
 10
236.5000299999998
 20
524.5787526207731
 30
0.0
 11
236.5000299999998
 21
484.078691620773
 31
0.0
  0
LINE
  5
1F4
330
1F
100
AcDbEntity
  8
LAY-1
  6
EXLTYPE5
 62
     1
100
AcDbLine
 10
360.3486630000001
 20
484.0786916207729
 30
0.0
 11
201.500091
 21
484.0786916207729
 31
0.0
  0
LINE
  5
1F5
330
1F
100
AcDbEntity
  8
LAY-1
  6
EXLTYPE5
 62
     1
100
AcDbLine
 10
52.80420500000002
 20
484.0786916207729
 30
0.0
 11
201.500091
 21
484.0786916207729
 31
0.0
  0
LINE
  5
1F6
330
1F
100
AcDbEntity
  8
LAY-1
  6
CONTINUOUS
 62
     3
100
AcDbLine
 10
166.500152
 20
524.5787526207731
 30
0.0
 11
166.500152
 21
484.0786916207729
 31
0.0
  0
LINE
  5
1F7
330
1F
100
AcDbEntity
  8
LAY-1
  6
CONTINUOUS
 62
     3
100
AcDbLine
 10
166.500152
 20
443.5786306207727
 30
0.0
 11
166.500152
 21
484.0786916207729
 31
0.0
  0
LINE
  5
1F8
330
1F
100
AcDbEntity
  8
LAY-1
  6
CONTINUOUS
 62
     3
100
AcDbLine
 10
165.000152
 20
484.0786916207729
 30
0.0
 11
165.000152
 21
524.5787526207731
 31
0.0
  0
LINE
  5
1F9
330
1F
100
AcDbEntity
  8
LAY-1
  6
CONTINUOUS
 62
     3
100
AcDbLine
 10
165.000152
 20
484.078691620773
 30
0.0
 11
165.000152
 21
443.5786306207727
 31
0.0
  0
LINE
  5
1FA
330
1F
100
AcDbEntity
  8
LAY-1
  6
CONTINUOUS
 62
     3
100
AcDbLine
 10
199.804205
 20
528.892553620773
 30
0.0
 11
201.500091
 21
528.892553620773
 31
0.0
  0
LINE
  5
1FB
330
1F
100
AcDbEntity
  8
LAY-1
  6
CONTINUOUS
 62
     3
100
AcDbLine
 10
203.195977
 20
528.892553620773
 30
0.0
 11
201.500091
 21
528.892553620773
 31
0.0
  0
LINE
  5
1FC
330
1F
100
AcDbEntity
  8
LAY-1
  6
CONTINUOUS
 62
     3
100
AcDbLine
 10
199.804205
 20
528.892553620773
 30
0.0
 11
199.804205
 21
544.387101620773
 31
0.0
  0
LINE
  5
1FD
330
1F
100
AcDbEntity
  8
LAY-1
  6
CONTINUOUS
 62
     3
100
AcDbLine
 10
203.195977
 20
528.892553620773
 30
0.0
 11
203.195977
 21
544.387101620773
 31
0.0
  0
LINE
  5
1FE
330
1F
100
AcDbEntity
  8
LAY-1
  6
CONTINUOUS
 62
     3
100
AcDbLine
 10
181.304205
 20
443.5786306207727
 30
0.0
 11
157.000152
 21
443.5786306207727
 31
0.0
  0
LINE
  5
1FF
330
1F
100
AcDbEntity
  8
LAY-1
  6
EXLTYPE5
 62
     1
100
AcDbLine
 10
218.304205
 20
474.078691620773
 30
0.0
 11
186.7042050000001
 21
474.078691620773
 31
0.0
  0
ARC
  5
200
330
1F
100
AcDbEntity
  8
LAY-1
  6
CONTINUOUS
 62
     3
100
AcDbCircle
 10
220.7616048854599
 20
511.9633070053884
 30
0.0
 40
10.0
100
AcDbArc
 50
195.6184982756485
 51
228.5312456199892
  0
ARC
  5
201
330
1F
100
AcDbEntity
  8
LAY-1
  6
CONTINUOUS
 62
     3
100
AcDbCircle
 10
201.500091
 20
474.078691620773
 30
0.0
 40
32.5
100
AcDbArc
 50
116.949955927645
 51
232.0199828285054
  0
ARC
  5
202
330
1F
100
AcDbEntity
  8
LAY-1
  6
CONTINUOUS
 62
     3
100
AcDbCircle
 10
182.2385771145399
 20
436.1940762361577
 30
0.0
 40
10.0
100
AcDbArc
 50
15.61849827564843
 51
48.53190185629421
  0
ARC
  5
203
330
1F
100
AcDbEntity
  8
LAY-1
  6
CONTINUOUS
 62
     3
100
AcDbCircle
 10
201.500091
 20
474.078691620773
 30
0.0
 40
32.5
100
AcDbArc
 50
338.8498898947116
 51
52.02016409022421
  0
ARC
  5
204
330
1F
100
AcDbEntity
  8
LAY-1
  6
CONTINUOUS
 62
     3
100
AcDbCircle
 10
201.500091
 20
474.078691620773
 30
0.0
 40
32.5
100
AcDbArc
 50
296.9499559276449
 51
321.1501236978538
  0
LINE
  5
205
330
1F
100
AcDbEntity
  8
LAY-1
  6
CONTINUOUS
 62
     3
100
AcDbLine
 10
403.1859251507403
 20
363.4088551765735
 30
0.0
 11
220.7706014661285
 21
468.7263625599966
 31
0.0
  0
LINE
  5
206
330
1F
100
AcDbEntity
  8
LAY-1
  6
CONTINUOUS
 62
     3
100
AcDbLine
 10
398.185874238289
 20
354.7486305330385
 30
0.0
 11
215.7706024933864
 21
460.0661079290649
 31
0.0
  0
LINE
  5
207
330
1F
100
AcDbEntity
  8
LAY-1
  6
CONTINUOUS
 62
     3
100
AcDbLine
 10
183.5571430000001
 20
551.7362846207731
 30
0.0
 11
185.0000910000001
 21
543.0786916207729
 31
0.0
  0
LINE
  5
208
330
1F
100
AcDbEntity
  8
LAY-1
  6
CONTINUOUS
 62
     3
100
AcDbLine
 10
219.4430380000001
 20
551.7362846207731
 30
0.0
 11
218.0000910000001
 21
543.0786916207729
 31
0.0
  0
ARC
  5
209
330
1F
100
AcDbEntity
  8
LAY-1
  6
CONTINUOUS
 62
     3
100
AcDbCircle
 10
179.6115720000001
 20
551.0786916207729
 30
0.0
 40
4.0
100
AcDbArc
 50
9.462399110460193
 51
89.99998239990613
  0
ARC
  5
20A
330
1F
100
AcDbEntity
  8
LAY-1
  6
CONTINUOUS
 62
     3
100
AcDbCircle
 10
223.3886100000001
 20
551.0786916207729
 30
0.0
 40
4.0
100
AcDbArc
 50
89.99998239990613
 51
170.5376229851318
  0
LINE
  5
20B
330
1F
100
AcDbEntity
  8
LAY-1
  6
CONTINUOUS
 62
     3
100
AcDbLine
 10
183.5571430000001
 20
416.4210986207729
 30
0.0
 11
185.0000910000001
 21
425.0786916207729
 31
0.0
  0
LINE
  5
20C
330
1F
100
AcDbEntity
  8
LAY-1
  6
CONTINUOUS
 62
     3
100
AcDbLine
 10
219.4430380000001
 20
416.4210986207729
 30
0.0
 11
218.0000910000001
 21
425.0786916207729
 31
0.0
  0
LINE
  5
20D
330
1F
100
AcDbEntity
  8
LAY-1
  6
CONTINUOUS
 62
     3
100
AcDbLine
 10
183.5571430000001
 20
416.4210986207726
 30
0.0
 11
185.0000910000001
 21
425.0786916207727
 31
0.0
  0
LINE
  5
20E
330
1F
100
AcDbEntity
  8
LAY-1
  6
CONTINUOUS
 62
     3
100
AcDbLine
 10
219.4430380000001
 20
416.4210986207726
 30
0.0
 11
218.0000910000001
 21
425.0786916207727
 31
0.0
  0
LINE
  5
20F
330
1F
100
AcDbEntity
  8
LAY-1
  6
CONTINUOUS
 62
     3
100
AcDbLine
 10
218.000091
 20
524.5787526207731
 30
0.0
 11
218.000091
 21
543.078691620773
 31
0.0
  0
LINE
  5
210
330
1F
100
AcDbEntity
  8
LAY-1
  6
CONTINUOUS
 62
     3
100
AcDbLine
 10
185.000091
 20
442.324454744303
 30
0.0
 11
185.000091
 21
425.078691620773
 31
0.0
  0
LINE
  5
211
330
1F
100
AcDbEntity
  8
LAY-1
  6
CONTINUOUS
 62
     3
100
AcDbLine
 10
218.000091
 20
443.5786306207727
 30
0.0
 11
218.000091
 21
425.078691620773
 31
0.0
  0
LINE
  5
212
330
1F
100
AcDbEntity
  8
LAY-1
  6
CONTINUOUS
 62
     3
100
AcDbLine
 10
123.4001460000001
 20
490.9491746207731
 30
0.0
 11
123.4001460000001
 21
477.2082076207731
 31
0.0
  0
LINE
  5
213
330
1F
100
AcDbEntity
  8
LAY-1
  6
CONTINUOUS
 62
     3
100
AcDbLine
 10
99.60015800000008
 20
477.208390620773
 30
0.0
 11
99.60015800000008
 21
490.9491746207731
 31
0.0
  0
LINE
  5
214
330
1F
100
AcDbEntity
  8
LAY-1
  6
CONTINUOUS
 62
     3
100
AcDbLine
 10
111.5002430000001
 20
497.819841620773
 30
0.0
 11
99.60015800000008
 21
490.9491746207731
 31
0.0
  0
LINE
  5
215
330
1F
100
AcDbEntity
  8
LAY-1
  6
CONTINUOUS
 62
     3
100
AcDbLine
 10
111.5002430000001
 20
497.819841620773
 30
0.0
 11
123.4002369999999
 21
490.9491746207731
 31
0.0
  0
LINE
  5
216
330
1F
100
AcDbEntity
  8
LAY-1
  6
CONTINUOUS
 62
     3
100
AcDbLine
 10
123.4002369999999
 20
477.2082076207731
 30
0.0
 11
111.500152
 21
470.337663620773
 31
0.0
  0
LINE
  5
217
330
1F
100
AcDbEntity
  8
LAY-1
  6
CONTINUOUS
 62
     3
100
AcDbLine
 10
111.500152
 20
470.3378466207731
 30
0.0
 11
99.60015800000008
 21
477.208390620773
 31
0.0
  0
CIRCLE
  5
218
330
1F
100
AcDbEntity
  8
LAY-1
  6
CONTINUOUS
 62
     3
100
AcDbCircle
 10
111.500152
 20
484.0787526207731
 30
0.0
 40
11.55
  0
LINE
  5
219
330
1F
100
AcDbEntity
  8
LAY-1
  6
CONTINUOUS
 62
     3
100
AcDbLine
 10
119.500152
 20
542.0786916207729
 30
0.0
 11
111.5001820000001
 21
542.0786916207729
 31
0.0
  0
ARC
  5
21A
330
1F
100
AcDbEntity
  8
LAY-1
  6
CONTINUOUS
 62
     3
100
AcDbCircle
 10
119.500152
 20
540.0786916207729
 30
0.0
 40
2.0
100
AcDbArc
 50
359.9999801521533
 51
90.00001872396794
  0
LINE
  5
21B
330
1F
100
AcDbEntity
  8
LAY-1
  6
CONTINUOUS
 62
     3
100
AcDbLine
 10
103.500152
 20
542.0786916207729
 30
0.0
 11
111.5001209999999
 21
542.0786916207729
 31
0.0
  0
ARC
  5
21C
330
1F
100
AcDbEntity
  8
LAY-1
  6
CONTINUOUS
 62
     3
100
AcDbCircle
 10
103.500152
 20
540.0786916207729
 30
0.0
 40
2.0
100
AcDbArc
 50
89.99997902828265
 51
180.0000176000924
  0
LINE
  5
21D
330
1F
100
AcDbEntity
  8
LAY-1
  6
CONTINUOUS
 62
     3
100
AcDbLine
 10
101.500152
 20
472.0371266207729
 30
0.0
 11
101.5001520000001
 21
428.0786916207729
 31
0.0
  0
ARC
  5
21E
330
1F
100
AcDbEntity
  8
LAY-1
  6
CONTINUOUS
 62
     3
100
AcDbCircle
 10
103.5001520000001
 20
428.0786916207729
 30
0.0
 40
2.0
100
AcDbArc
 50
180.0000176000941
 51
269.9999988761269
  0
ARC
  5
21F
330
1F
100
AcDbEntity
  8
LAY-1
  6
CONTINUOUS
 62
     3
100
AcDbCircle
 10
111.500152
 20
484.0786916207729
 30
0.0
 40
15.00000000000001
100
AcDbArc
 50
179.4851974210749
 51
359.9999801521572
  0
ARC
  5
220
330
1F
100
AcDbEntity
  8
LAY-1
  6
CONTINUOUS
 62
     3
100
AcDbCircle
 10
99.50015199999996
 20
472.0371266207729
 30
0.0
 40
2.0
100
AcDbArc
 50
359.9999801521533
 51
45.09829034781555
  0
ARC
  5
221
330
1F
100
AcDbEntity
  8
LAY-1
  6
CONTINUOUS
 62
     3
100
AcDbCircle
 10
103.500152
 20
469.0786916207729
 30
0.0
 40
2.0
100
AcDbArc
 50
359.9999801521533
 51
61.92795155153376
  0
ARC
  5
222
330
1F
100
AcDbEntity
  8
LAY-1
  6
CONTINUOUS
 62
     3
100
AcDbCircle
 10
123.500152
 20
472.0371266207729
 30
0.0
 40
2.0
100
AcDbArc
 50
134.9017074044341
 51
180.0000176000924
  0
ARC
  5
223
330
1F
100
AcDbEntity
  8
LAY-1
  6
CONTINUOUS
 62
     3
100
AcDbCircle
 10
119.500152
 20
469.0786916207729
 30
0.0
 40
2.0
100
AcDbArc
 50
118.0720462007186
 51
180.0000176000924
  0
LINE
  5
224
330
1F
100
AcDbEntity
  8
LAY-1
  6
CONTINUOUS
 62
     3
100
AcDbLine
 10
105.500152
 20
499.0786916207729
 30
0.0
 11
105.500152
 21
542.0786916207729
 31
0.0
  0
LINE
  5
225
330
1F
100
AcDbEntity
  8
LAY-1
  6
CONTINUOUS
 62
     3
100
AcDbLine
 10
101.500152
 20
496.1202566207729
 30
0.0
 11
101.500152
 21
540.0786916207729
 31
0.0
  0
ARC
  5
226
330
1F
100
AcDbEntity
  8
LAY-1
  6
CONTINUOUS
 62
     3
100
AcDbCircle
 10
111.500152
 20
484.0786916207729
 30
0.0
 40
15.00000000000001
100
AcDbArc
 50
359.9999977522506
 51
180.5147628832397
  0
ARC
  5
227
330
1F
100
AcDbEntity
  8
LAY-1
  6
CONTINUOUS
 62
     3
100
AcDbCircle
 10
99.50015199999996
 20
496.1202566207729
 30
0.0
 40
2.0
100
AcDbArc
 50
314.9016699564955
 51
359.9999801521533
  0
ARC
  5
228
330
1F
100
AcDbEntity
  8
LAY-1
  6
CONTINUOUS
 62
     3
100
AcDbCircle
 10
103.500152
 20
499.0786916207729
 30
0.0
 40
2.0
100
AcDbArc
 50
298.0720660485596
 51
359.9999801521533
  0
LINE
  5
229
330
1F
100
AcDbEntity
  8
LAY-1
  6
CONTINUOUS
 62
     3
100
AcDbLine
 10
121.500152
 20
496.1202566207729
 30
0.0
 11
121.500152
 21
540.0786916207729
 31
0.0
  0
ARC
  5
22A
330
1F
100
AcDbEntity
  8
LAY-1
  6
CONTINUOUS
 62
     3
100
AcDbCircle
 10
123.500152
 20
496.1202566207729
 30
0.0
 40
2.0
100
AcDbArc
 50
180.0000176000924
 51
225.0982704999734
  0
LINE
  5
22B
330
1F
100
AcDbEntity
  8
LAY-1
  6
CONTINUOUS
 62
     3
100
AcDbLine
 10
117.500152
 20
499.0786916207729
 30
0.0
 11
117.500152
 21
542.0786916207729
 31
0.0
  0
ARC
  5
22C
330
1F
100
AcDbEntity
  8
LAY-1
  6
CONTINUOUS
 62
     3
100
AcDbCircle
 10
119.500152
 20
499.0786916207729
 30
0.0
 40
2.0
100
AcDbArc
 50
180.0000176000924
 51
241.9279317036898
  0
ARC
  5
22D
330
1F
100
AcDbEntity
  8
LAY-1
  6
CONTINUOUS
 62
     3
100
AcDbCircle
 10
111.500152
 20
484.0786916207729
 30
0.0
 40
37.500011
100
AcDbArc
 50
105.4660006795876
 51
254.5339772248205
  0
LINE
  5
22E
330
1F
100
AcDbEntity
  8
LAY-1
  6
CONTINUOUS
 62
     3
100
AcDbLine
 10
122.500152
 20
530.5787526207731
 30
0.0
 11
122.500152
 21
519.9290946207731
 31
0.0
  0
LINE
  5
22F
330
1F
100
AcDbEntity
  8
LAY-1
  6
CONTINUOUS
 62
     3
100
AcDbLine
 10
96.50015199999996
 20
530.5786916207729
 30
0.0
 11
96.50015199999996
 21
518.448014620773
 31
0.0
  0
LINE
  5
230
330
1F
100
AcDbEntity
  8
LAY-1
  6
CONTINUOUS
 62
     3
100
AcDbLine
 10
97.50015199999996
 20
531.5786916207729
 30
0.0
 11
101.5001209999999
 21
531.5786916207729
 31
0.0
  0
LINE
  5
231
330
1F
100
AcDbEntity
  8
LAY-1
  6
CONTINUOUS
 62
     3
100
AcDbLine
 10
121.500091
 20
531.5787526207731
 30
0.0
 11
121.500152
 21
531.5787526207731
 31
0.0
  0
ARC
  5
232
330
1F
100
AcDbEntity
  8
LAY-1
  6
CONTINUOUS
 62
     3
100
AcDbCircle
 10
97.50015199999996
 20
530.5786916207729
 30
0.0
 40
1.0
100
AcDbArc
 50
90.00001872396959
 51
180.0
  0
ARC
  5
233
330
1F
100
AcDbEntity
  8
LAY-1
  6
CONTINUOUS
 62
     3
100
AcDbCircle
 10
121.500152
 20
530.5787526207731
 30
0.0
 40
1.0
100
AcDbArc
 50
359.9999801521598
 51
90.00001872396959
  0
LINE
  5
234
330
1F
100
AcDbEntity
  8
LAY-1
  6
CONTINUOUS
 62
     3
100
AcDbLine
 10
100.5001520000001
 20
437.578630620773
 30
0.0
 11
100.5001520000001
 21
448.228288620773
 31
0.0
  0
ARC
  5
235
330
1F
100
AcDbEntity
  8
LAY-1
  6
CONTINUOUS
 62
     3
100
AcDbCircle
 10
101.5001520000001
 20
437.578630620773
 30
0.0
 40
1.0
100
AcDbArc
 50
180.0000176000924
 51
269.9999988761261
  0
ARC
  5
236
330
1F
100
AcDbEntity
  8
LAY-1
  6
CONTINUOUS
 62
     3
100
AcDbCircle
 10
111.500152
 20
484.0786916207729
 30
0.0
 40
37.500011
100
AcDbArc
 50
0.5227877122577812
 51
74.53399707266342
  0
ARC
  5
237
330
1F
100
AcDbEntity
  8
LAY-1
  6
CONTINUOUS
 62
     3
100
AcDbCircle
 10
111.500152
 20
484.0786916207729
 30
0.0
 40
37.500011
100
AcDbArc
 50
285.4660205274303
 51
0.5227877122623076
  0
LINE
  5
238
330
1F
100
AcDbEntity
  8
LAY-1
  6
CONTINUOUS
 62
     3
100
AcDbLine
 10
77.58480407313778
 20
468.0786916207729
 30
0.0
 11
72.20724499999994
 21
468.0786916207729
 31
0.0
  0
LINE
  5
239
330
1F
100
AcDbEntity
  8
LAY-1
  6
CONTINUOUS
 62
     3
100
AcDbLine
 10
77.58480407313778
 20
500.0786916207729
 30
0.0
 11
72.20724499999994
 21
500.0786916207729
 31
0.0
  0
LINE
  5
23A
330
1F
100
AcDbEntity
  8
LAY-1
  6
CONTINUOUS
 62
     3
100
AcDbLine
 10
119.500152
 20
426.0786916207729
 30
0.0
 11
111.5001820000001
 21
426.0786916207729
 31
0.0
  0
ARC
  5
23B
330
1F
100
AcDbEntity
  8
LAY-1
  6
CONTINUOUS
 62
     3
100
AcDbCircle
 10
119.500152
 20
428.0786916207729
 30
0.0
 40
2.0
100
AcDbArc
 50
269.9999812760321
 51
0.0000198478467375
  0
LINE
  5
23C
330
1F
100
AcDbEntity
  8
LAY-1
  6
CONTINUOUS
 62
     3
100
AcDbLine
 10
103.500152
 20
426.0786916207729
 30
0.0
 11
111.5001209999999
 21
426.0786916207729
 31
0.0
  0
ARC
  5
23D
330
1F
100
AcDbEntity
  8
LAY-1
  6
CONTINUOUS
 62
     3
100
AcDbCircle
 10
103.500152
 20
428.0786916207729
 30
0.0
 40
2.0
100
AcDbArc
 50
179.9999823999076
 51
270.0000209717174
  0
LINE
  5
23E
330
1F
100
AcDbEntity
  8
LAY-1
  6
CONTINUOUS
 62
     3
100
AcDbLine
 10
125.5001520000002
 20
436.5786916207732
 30
0.0
 11
121.5001830000002
 21
436.5786916207732
 31
0.0
  0
ARC
  5
23F
330
1F
100
AcDbEntity
  8
LAY-1
  6
CONTINUOUS
 62
     3
100
AcDbCircle
 10
125.5001520000002
 20
437.5786916207732
 30
0.0
 40
1.0
100
AcDbArc
 50
270.0000187239696
 51
0.0
  0
LINE
  5
240
330
1F
100
AcDbEntity
  8
LAY-1
  6
CONTINUOUS
 62
     3
100
AcDbLine
 10
126.5001520000001
 20
437.578691620773
 30
0.0
 11
126.5001520000001
 21
449.7093676207729
 31
0.0
  0
LINE
  5
241
330
1F
100
AcDbEntity
  8
LAY-1
  6
CONTINUOUS
 62
     3
100
AcDbLine
 10
121.5001520000001
 20
428.078692313593
 30
0.0
 11
121.500152
 21
472.0371266207729
 31
0.0
  0
LINE
  5
242
330
1F
100
AcDbEntity
  8
LAY-1
  6
CONTINUOUS
 62
     3
100
AcDbLine
 10
105.5001520000001
 20
426.0786916207729
 30
0.0
 11
105.500152
 21
469.0786916207729
 31
0.0
  0
LINE
  5
243
330
1F
100
AcDbEntity
  8
LAY-1
  6
CONTINUOUS
 62
     3
100
AcDbLine
 10
117.5001520000001
 20
426.078691620773
 30
0.0
 11
117.500152
 21
469.0786916207729
 31
0.0
  0
LINE
  5
244
330
1F
100
AcDbEntity
  8
LAY-1
  6
EXLTYPE5
 62
     1
100
AcDbLine
 10
111.5001520000001
 20
555.812614620773
 30
0.0
 11
111.5001520000001
 21
414.412614620773
 31
0.0
  0
LINE
  5
245
330
1F
100
AcDbEntity
  8
LAY-1
  6
EXLTYPE5
 62
     1
100
AcDbLine
 10
201.500091
 20
394.212614620773
 30
0.0
 11
201.500091
 21
580.812614620773
 31
0.0
  0
LINE
  5
246
330
1F
100
AcDbEntity
  8
LAY-1
  6
CONTINUOUS
 62
     3
100
AcDbLine
 10
197.304205
 20
347.8367896207732
 30
0.0
 11
196.974578
 21
347.507162620773
 31
0.0
  0
LINE
  5
247
330
1F
100
AcDbEntity
  8
LAY-1
  6
CONTINUOUS
 62
     3
100
AcDbLine
 10
197.304205
 20
347.507162620773
 30
0.0
 11
196.974578
 21
347.507162620773
 31
0.0
  0
LINE
  5
248
330
1F
100
AcDbEntity
  8
LAY-1
  6
EXLTYPE5
 62
     1
100
AcDbLine
 10
291.50003
 20
550.212614620773
 30
0.0
 11
291.50003
 21
427.890719142673
 31
0.0
  0
LINE
  5
249
330
1F
100
AcDbEntity
  8
LAY-1
  6
EXLTYPE5
 62
     1
100
AcDbLine
 10
-5.45558024483762
 20
354.5928118486665
 30
0.0
 11
201.5000910000001
 21
474.0786916207729
 31
0.0
  0
LINE
  5
24A
330
1F
100
AcDbEntity
  8
LAY-1
  6
CONTINUOUS
 62
     1
100
AcDbLine
 10
-0.1857431509768048
 20
363.4088551769834
 30
0.0
 11
4.814307761708733
 21
354.7486305330424
 31
0.0
  0
LINE
  5
24B
330
1F
100
AcDbEntity
  8
LAY-1
  6
EXLTYPE6
 62
     1
100
AcDbLine
 10
-0.1857431507403362
 20
363.4088551765736
 30
0.0
 11
182.2295805338716
 21
468.7263625599966
 31
0.0
  0
LINE
  5
24C
330
1F
100
AcDbEntity
  8
LAY-1
  6
EXLTYPE6
 62
     1
100
AcDbLine
 10
4.814307761711007
 20
354.7486305330386
 30
0.0
 11
187.2295795066136
 21
460.0661079290649
 31
0.0
  0
LINE
  5
24D
330
1F
100
AcDbEntity
  8
LAY-1
  6
CONTINUOUS
 62
     3
100
AcDbLine
 10
255.66935815828
 20
444.5361129009101
 30
0.0
 11
254.16935815828
 21
441.9380366895567
 31
0.0
  0
LINE
  5
24E
330
1F
100
AcDbEntity
  8
LAY-1
  6
CONTINUOUS
 62
     3
100
AcDbLine
 10
264.5910858670992
 20
434.1889985838801
 30
0.0
 11
273.8853145011591
 21
432.2870747952335
 31
0.0
  0
LINE
  5
24F
330
1F
100
AcDbEntity
  8
LAY-1
  6
CONTINUOUS
 62
     3
100
AcDbLine
 10
273.8853145011591
 20
432.2870747952335
 30
0.0
 11
267.5910858670992
 21
439.3851510065866
 31
0.0
  0
LINE
  5
250
330
1F
100
AcDbEntity
  8
LAY-1
  6
CONTINUOUS
 62
     3
100
AcDbLine
 10
267.5910858670992
 20
439.3851510065866
 30
0.0
 11
266.8410858670992
 21
438.0861129009101
 31
0.0
  0
LINE
  5
251
330
1F
100
AcDbEntity
  8
LAY-1
  6
CONTINUOUS
 62
     3
100
AcDbLine
 10
265.3410858670992
 20
435.4880366895567
 30
0.0
 11
264.5910858670992
 21
434.1889985838801
 31
0.0
  0
LINE
  5
252
330
1F
100
AcDbEntity
  8
LAY-1
  6
CONTINUOUS
 62
     3
100
AcDbLine
 10
266.8410858670994
 20
438.0861129009098
 30
0.0
 11
255.66935815828
 21
444.5361129009101
 31
0.0
  0
LINE
  5
253
330
1F
100
AcDbEntity
  8
LAY-1
  6
CONTINUOUS
 62
     3
100
AcDbLine
 10
254.16935815828
 20
441.9380366895567
 30
0.0
 11
265.3410858670994
 21
435.4880366895567
 31
0.0
  0
LINE
  5
254
330
1F
100
AcDbEntity
  8
LAY-1
  6
EXLTYPE2
 62
     1
100
AcDbLine
 10
246.5042050000001
 20
451.5786306207727
 30
0.0
 11
261.0756829999999
 21
451.5786306207727
 31
0.0
  0
LINE
  5
255
330
1F
100
AcDbEntity
  8
LAY-1
  6
EXLTYPE2
 62
     1
100
AcDbLine
 10
157.7042050000001
 20
451.5786306207727
 30
0.0
 11
141.9244989999999
 21
451.5786306207727
 31
0.0
  0
TEXT
  5
257
330
1F
100
AcDbEntity
  8
LAY-1
  6
CONTINUOUS
 62
     3
100
AcDbText
 10
558.5042050000001
 20
492.462614620773
 30
0.0
 40
10.93758549931601
  1
型式：１０ＦＵＷ－１３Ａ
  7
EXCADTTF1
 72
     5
 11
750.5042050000001
 21
492.462614620773
 31
0.0
100
AcDbText
  0
TEXT
  5
258
330
1F
100
AcDbEntity
  8
LAY-1
  6
CONTINUOUS
 62
     3
100
AcDbText
 10
558.5042050000001
 20
470.462614620773
 30
0.0
 40
10.93758549931601
  1
口径：２５Ａ
  7
EXCADTTF1
 72
     5
 11
654.5042050000001
 21
470.462614620773
 31
0.0
100
AcDbText
  0
LINE
  5
259
330
1F
100
AcDbEntity
  8
LAY-1
  6
CONTINUOUS
 62
     3
100
AcDbLine
 10
201.500091
 20
555.0786916207729
 30
0.0
 11
140.0000909999999
 21
555.0786916207729
 31
0.0
  0
LINE
  5
25A
330
1F
100
AcDbEntity
  8
LAY-1
  6
CONTINUOUS
 62
     3
100
AcDbLine
 10
139.0000909999999
 20
556.0786916207729
 30
0.0
 11
139.0000909999999
 21
568.0786916207729
 31
0.0
  0
ARC
  5
25B
330
1F
100
AcDbEntity
  8
LAY-1
  6
CONTINUOUS
 62
     3
100
AcDbCircle
 10
140.0000909999999
 20
556.0786916207729
 30
0.0
 40
1.0
100
AcDbArc
 50
180.0
 51
270.0
  0
LINE
  5
25C
330
1F
100
AcDbEntity
  8
LAY-1
  6
EXLTYPE5
 62
     1
100
AcDbLine
 10
156.5000909999999
 20
547.4126146207731
 30
0.0
 11
156.5000909999999
 21
576.012614620773
 31
0.0
  0
LINE
  5
25D
330
1F
100
AcDbEntity
  8
LAY-1
  6
CONTINUOUS
 62
     3
100
AcDbLine
 10
185.000091
 20
524.5787526207731
 30
0.0
 11
185.000091
 21
543.078691620773
 31
0.0
  0
LINE
  5
25E
330
1F
100
AcDbEntity
  8
LAY-1
  6
CONTINUOUS
 62
     3
100
AcDbLine
 10
168.0000910000001
 20
569.078691620773
 30
0.0
 11
168.0000910000001
 21
568.0786916207729
 31
0.0
  0
LINE
  5
25F
330
1F
100
AcDbEntity
  8
LAY-1
  6
CONTINUOUS
 62
     3
100
AcDbLine
 10
201.5000909999986
 20
569.0786916207729
 30
0.0
 11
168.0000910000001
 21
569.0786916207729
 31
0.0
  0
LINE
  5
260
330
1F
100
AcDbEntity
  8
LAY-1
  6
CONTINUOUS
 62
     3
100
AcDbLine
 10
201.500091
 20
568.0786916207729
 30
0.0
 11
139.0000909999999
 21
568.0786916207729
 31
0.0
  0
LINE
  5
261
330
1F
100
AcDbEntity
  8
LAY-1
  6
CONTINUOUS
 62
     3
100
AcDbLine
 10
264.0000910000001
 20
556.0786916207729
 30
0.0
 11
264.0000910000001
 21
568.0786916207729
 31
0.0
  0
ARC
  5
262
330
1F
100
AcDbEntity
  8
LAY-1
  6
CONTINUOUS
 62
     3
100
AcDbCircle
 10
263.0000910000001
 20
556.0786916207729
 30
0.0
 40
1.0
100
AcDbArc
 50
270.0
 51
0.0
  0
LINE
  5
263
330
1F
100
AcDbEntity
  8
LAY-1
  6
EXLTYPE5
 62
     1
100
AcDbLine
 10
246.5000910000002
 20
547.4126146207731
 30
0.0
 11
246.5000910000002
 21
576.012614620773
 31
0.0
  0
LINE
  5
264
330
1F
100
AcDbEntity
  8
LAY-1
  6
CONTINUOUS
 62
     3
100
AcDbLine
 10
235.000091
 20
569.078691620773
 30
0.0
 11
235.000091
 21
568.0786916207729
 31
0.0
  0
LINE
  5
265
330
1F
100
AcDbEntity
  8
LAY-1
  6
CONTINUOUS
 62
     3
100
AcDbLine
 10
201.5000909999986
 20
569.0786916207729
 30
0.0
 11
235.0000910000001
 21
569.0786916207729
 31
0.0
  0
LINE
  5
266
330
1F
100
AcDbEntity
  8
LAY-1
  6
CONTINUOUS
 62
     3
100
AcDbLine
 10
201.500091
 20
568.078691620773
 30
0.0
 11
264.0000910000001
 21
568.0786916207733
 31
0.0
  0
LINE
  5
267
330
1F
100
AcDbEntity
  8
LAY-1
  6
CONTINUOUS
 62
     3
100
AcDbLine
 10
201.500091
 20
555.0786916207729
 30
0.0
 11
263.0000910000001
 21
555.0786916207729
 31
0.0
  0
ARC
  5
268
330
1F
100
AcDbEntity
  8
LAY-1
  6
CONTINUOUS
 62
     3
100
AcDbCircle
 10
179.6115720000001
 20
417.0786916207729
 30
0.0
 40
4.0
100
AcDbArc
 50
270.0000176000941
 51
350.53760088954
  0
ARC
  5
269
330
1F
100
AcDbEntity
  8
LAY-1
  6
CONTINUOUS
 62
     3
100
AcDbCircle
 10
223.3886100000001
 20
417.0786916207729
 30
0.0
 40
4.0
100
AcDbArc
 50
189.4623770148688
 51
270.0000176000941
  0
LINE
  5
26A
330
1F
100
AcDbEntity
  8
LAY-1
  6
CONTINUOUS
 62
     3
100
AcDbLine
 10
201.500091
 20
413.0786916207729
 30
0.0
 11
140.0000909999999
 21
413.0786916207729
 31
0.0
  0
LINE
  5
26B
330
1F
100
AcDbEntity
  8
LAY-1
  6
CONTINUOUS
 62
     3
100
AcDbLine
 10
139.0000909999999
 20
412.0786916207729
 30
0.0
 11
139.0000909999999
 21
400.0786916207729
 31
0.0
  0
ARC
  5
26C
330
1F
100
AcDbEntity
  8
LAY-1
  6
CONTINUOUS
 62
     3
100
AcDbCircle
 10
140.0000909999999
 20
412.0786916207729
 30
0.0
 40
1.0
100
AcDbArc
 50
90.00000000000001
 51
180.0
  0
LINE
  5
26D
330
1F
100
AcDbEntity
  8
LAY-1
  6
EXLTYPE5
 62
     1
100
AcDbLine
 10
156.5000909999999
 20
420.7447686207728
 30
0.0
 11
156.5000909999999
 21
392.1447686207729
 31
0.0
  0
LINE
  5
26E
330
1F
100
AcDbEntity
  8
LAY-1
  6
CONTINUOUS
 62
     3
100
AcDbLine
 10
168.0000910000001
 20
399.0786916207728
 30
0.0
 11
168.0000910000001
 21
400.0786916207729
 31
0.0
  0
LINE
  5
26F
330
1F
100
AcDbEntity
  8
LAY-1
  6
CONTINUOUS
 62
     3
100
AcDbLine
 10
201.5000909999986
 20
399.0786916207729
 30
0.0
 11
168.0000910000001
 21
399.0786916207729
 31
0.0
  0
LINE
  5
270
330
1F
100
AcDbEntity
  8
LAY-1
  6
CONTINUOUS
 62
     3
100
AcDbLine
 10
201.500091
 20
400.0786916207729
 30
0.0
 11
139.0000909999999
 21
400.0786916207729
 31
0.0
  0
LINE
  5
271
330
1F
100
AcDbEntity
  8
LAY-1
  6
CONTINUOUS
 62
     3
100
AcDbLine
 10
264.0000910000001
 20
412.0786916207729
 30
0.0
 11
264.0000910000001
 21
400.0786916207729
 31
0.0
  0
ARC
  5
272
330
1F
100
AcDbEntity
  8
LAY-1
  6
CONTINUOUS
 62
     3
100
AcDbCircle
 10
263.0000910000001
 20
412.0786916207729
 30
0.0
 40
1.0
100
AcDbArc
 50
0.0
 51
90.00000000000001
  0
LINE
  5
273
330
1F
100
AcDbEntity
  8
LAY-1
  6
EXLTYPE5
 62
     1
100
AcDbLine
 10
246.5000910000002
 20
420.7447686207728
 30
0.0
 11
246.5000910000002
 21
392.1447686207729
 31
0.0
  0
LINE
  5
274
330
1F
100
AcDbEntity
  8
LAY-1
  6
CONTINUOUS
 62
     3
100
AcDbLine
 10
235.000091
 20
399.0786916207728
 30
0.0
 11
235.000091
 21
400.0786916207729
 31
0.0
  0
LINE
  5
275
330
1F
100
AcDbEntity
  8
LAY-1
  6
CONTINUOUS
 62
     3
100
AcDbLine
 10
201.5000909999986
 20
399.0786916207729
 30
0.0
 11
235.0000910000001
 21
399.0786916207729
 31
0.0
  0
LINE
  5
276
330
1F
100
AcDbEntity
  8
LAY-1
  6
CONTINUOUS
 62
     3
100
AcDbLine
 10
201.500091
 20
400.0786916207728
 30
0.0
 11
264.0000910000001
 21
400.0786916207726
 31
0.0
  0
LINE
  5
277
330
1F
100
AcDbEntity
  8
LAY-1
  6
CONTINUOUS
 62
     3
100
AcDbLine
 10
201.500091
 20
413.0786916207729
 30
0.0
 11
263.0000910000001
 21
413.0786916207729
 31
0.0
  0
LINE
  5
278
330
1F
100
AcDbEntity
  8
LAY-1
  6
CONTINUOUS
 62
     3
100
AcDbLine
 10
201.5001520000001
 20
65.53909062077298
 30
0.0
 11
193.0396420000001
 21
65.53909062077298
 31
0.0
  0
LINE
  5
279
330
1F
100
AcDbEntity
  8
LAY-1
  6
CONTINUOUS
 62
     3
100
AcDbLine
 10
193.9951470000001
 20
65.53909062077298
 30
0.0
 11
193.9951470000001
 21
58.03408562077299
 31
0.0
  0
LINE
  5
27A
330
1F
100
AcDbEntity
  8
LAY-1
  6
CONTINUOUS
 62
     3
100
AcDbLine
 10
193.9951470000001
 20
58.03403962077299
 30
0.0
 11
201.5001520000001
 21
58.03403962077299
 31
0.0
  0
LINE
  5
27B
330
1F
100
AcDbEntity
  8
LAY-1
  6
CONTINUOUS
 62
     1
100
AcDbLine
 10
193.9951470000001
 20
58.03403962077299
 30
0.0
 11
201.5001520000001
 21
65.53909062077298
 31
0.0
  0
LINE
  5
27C
330
1F
100
AcDbEntity
  8
LAY-1
  6
CONTINUOUS
 62
     1
100
AcDbLine
 10
193.9951470000001
 20
65.53909062077298
 30
0.0
 11
201.5001520000001
 21
58.03408562077299
 31
0.0
  0
LINE
  5
27D
330
1F
100
AcDbEntity
  8
LAY-1
  6
CONTINUOUS
 62
     3
100
AcDbLine
 10
201.5001520000001
 20
65.53909062077298
 30
0.0
 11
209.9606630000001
 21
65.53909062077298
 31
0.0
  0
LINE
  5
27E
330
1F
100
AcDbEntity
  8
LAY-1
  6
CONTINUOUS
 62
     3
100
AcDbLine
 10
209.0051570000001
 20
65.53909062077298
 30
0.0
 11
209.0051570000001
 21
58.03408562077299
 31
0.0
  0
LINE
  5
27F
330
1F
100
AcDbEntity
  8
LAY-1
  6
CONTINUOUS
 62
     3
100
AcDbLine
 10
209.0051570000001
 20
58.03403962077299
 30
0.0
 11
201.5001520000001
 21
58.03403962077299
 31
0.0
  0
LINE
  5
280
330
1F
100
AcDbEntity
  8
LAY-1
  6
CONTINUOUS
 62
     1
100
AcDbLine
 10
209.0051570000001
 20
58.03403962077299
 30
0.0
 11
201.5001520000001
 21
65.53909062077298
 31
0.0
  0
LINE
  5
281
330
1F
100
AcDbEntity
  8
LAY-1
  6
CONTINUOUS
 62
     1
100
AcDbLine
 10
209.0051570000001
 20
65.53909062077298
 30
0.0
 11
201.5001520000001
 21
58.03408562077299
 31
0.0
  0
LINE
  5
282
330
1F
100
AcDbEntity
  8
LAY-1
  6
CONTINUOUS
 62
     3
100
AcDbLine
 10
185.5001520000001
 20
70.98619562077306
 30
0.0
 11
185.5001520000001
 21
79.28050662077294
 31
0.0
  0
LINE
  5
283
330
1F
100
AcDbEntity
  8
LAY-1
  6
CONTINUOUS
 62
     3
100
AcDbLine
 10
201.50003
 20
65.53909062077298
 30
0.0
 11
209.96054
 21
65.53909062077298
 31
0.0
  0
LINE
  5
284
330
1F
100
AcDbEntity
  8
LAY-1
  6
CONTINUOUS
 62
     3
100
AcDbLine
 10
209.005035
 20
65.53909062077298
 30
0.0
 11
209.005035
 21
58.03408562077299
 31
0.0
  0
LINE
  5
285
330
1F
100
AcDbEntity
  8
LAY-1
  6
CONTINUOUS
 62
     3
100
AcDbLine
 10
209.005035
 20
58.03403962077299
 30
0.0
 11
201.50003
 21
58.03403962077299
 31
0.0
  0
LINE
  5
286
330
1F
100
AcDbEntity
  8
LAY-1
  6
CONTINUOUS
 62
     1
100
AcDbLine
 10
209.005035
 20
58.03403962077299
 30
0.0
 11
201.50003
 21
65.53909062077298
 31
0.0
  0
LINE
  5
287
330
1F
100
AcDbEntity
  8
LAY-1
  6
CONTINUOUS
 62
     1
100
AcDbLine
 10
209.005035
 20
65.53909062077298
 30
0.0
 11
201.50003
 21
58.03408562077299
 31
0.0
  0
LINE
  5
288
330
1F
100
AcDbEntity
  8
LAY-1
  6
CONTINUOUS
 62
     3
100
AcDbLine
 10
201.50003
 20
65.53909062077298
 30
0.0
 11
193.03952
 21
65.53909062077298
 31
0.0
  0
LINE
  5
289
330
1F
100
AcDbEntity
  8
LAY-1
  6
CONTINUOUS
 62
     3
100
AcDbLine
 10
193.9950250000001
 20
65.53909062077298
 30
0.0
 11
193.9950250000001
 21
58.03408562077299
 31
0.0
  0
LINE
  5
28A
330
1F
100
AcDbEntity
  8
LAY-1
  6
CONTINUOUS
 62
     3
100
AcDbLine
 10
193.9950250000001
 20
58.03403962077299
 30
0.0
 11
201.50003
 21
58.03403962077299
 31
0.0
  0
LINE
  5
28B
330
1F
100
AcDbEntity
  8
LAY-1
  6
CONTINUOUS
 62
     1
100
AcDbLine
 10
193.9950250000001
 20
58.03403962077299
 30
0.0
 11
201.50003
 21
65.53909062077298
 31
0.0
  0
LINE
  5
28C
330
1F
100
AcDbEntity
  8
LAY-1
  6
CONTINUOUS
 62
     1
100
AcDbLine
 10
193.9950250000001
 20
65.53909062077298
 30
0.0
 11
201.50003
 21
58.03408562077299
 31
0.0
  0
ARC
  5
28D
330
1F
100
AcDbEntity
  8
LAY-1
  6
CONTINUOUS
 62
     3
100
AcDbCircle
 10
180.5001520000001
 20
79.28050662077294
 30
0.0
 40
5.0
100
AcDbArc
 50
0.0
 51
36.21677682177837
  0
LINE
  5
28E
330
1F
100
AcDbEntity
  8
LAY-1
  6
CONTINUOUS
 62
     3
100
AcDbLine
 10
186.2072450000001
 20
70.279087620773
 30
0.0
 11
185.5001520000001
 21
70.98619562077306
 31
0.0
  0
LINE
  5
28F
330
1F
100
AcDbEntity
  8
LAY-1
  6
CONTINUOUS
 62
     3
100
AcDbLine
 10
336.2400200000001
 20
54.27905762077307
 30
0.0
 11
336.2400200000001
 21
62.73956762077295
 31
0.0
  0
LINE
  5
290
330
1F
100
AcDbEntity
  8
LAY-1
  6
CONTINUOUS
 62
     3
100
AcDbLine
 10
336.2400200000001
 20
61.78406262077305
 30
0.0
 11
343.7450250000001
 21
61.78406262077305
 31
0.0
  0
LINE
  5
291
330
1F
100
AcDbEntity
  8
LAY-1
  6
CONTINUOUS
 62
     3
100
AcDbLine
 10
343.745086
 20
61.78406262077305
 30
0.0
 11
343.745086
 21
54.27905762077307
 31
0.0
  0
LINE
  5
292
330
1F
100
AcDbEntity
  8
LAY-1
  6
CONTINUOUS
 62
     1
100
AcDbLine
 10
343.745086
 20
61.78406262077305
 30
0.0
 11
336.2400200000001
 21
54.27905762077307
 31
0.0
  0
LINE
  5
293
330
1F
100
AcDbEntity
  8
LAY-1
  6
CONTINUOUS
 62
     1
100
AcDbLine
 10
336.2400200000001
 20
61.78406262077305
 30
0.0
 11
343.7450250000001
 21
54.27905762077307
 31
0.0
  0
LINE
  5
294
330
1F
100
AcDbEntity
  8
LAY-1
  6
CONTINUOUS
 62
     3
100
AcDbLine
 10
336.2400200000001
 20
54.27905762077307
 30
0.0
 11
336.2400200000001
 21
45.81854762077295
 31
0.0
  0
LINE
  5
295
330
1F
100
AcDbEntity
  8
LAY-1
  6
CONTINUOUS
 62
     3
100
AcDbLine
 10
336.2400200000001
 20
46.77405262077297
 30
0.0
 11
343.7450250000001
 21
46.77405262077297
 31
0.0
  0
LINE
  5
296
330
1F
100
AcDbEntity
  8
LAY-1
  6
CONTINUOUS
 62
     3
100
AcDbLine
 10
343.745086
 20
46.77405262077297
 30
0.0
 11
343.745086
 21
54.27905762077307
 31
0.0
  0
LINE
  5
297
330
1F
100
AcDbEntity
  8
LAY-1
  6
CONTINUOUS
 62
     1
100
AcDbLine
 10
343.745086
 20
46.77405262077297
 30
0.0
 11
336.2400200000001
 21
54.27905762077307
 31
0.0
  0
LINE
  5
298
330
1F
100
AcDbEntity
  8
LAY-1
  6
CONTINUOUS
 62
     1
100
AcDbLine
 10
336.2400200000001
 20
46.77405262077297
 30
0.0
 11
343.7450250000001
 21
54.27905762077307
 31
0.0
  0
LINE
  5
299
330
1F
100
AcDbEntity
  8
LAY-1
  6
CONTINUOUS
 62
     3
100
AcDbLine
 10
331.50003
 20
54.27907262077303
 30
0.0
 11
331.50003
 21
69.57196562077297
 31
0.0
  0
LINE
  5
29A
330
1F
100
AcDbEntity
  8
LAY-1
  6
CONTINUOUS
 62
     3
100
AcDbLine
 10
317.6742250000001
 20
70.27905762077296
 30
0.0
 11
330.792938
 21
70.27905762077296
 31
0.0
  0
LINE
  5
29B
330
1F
100
AcDbEntity
  8
LAY-1
  6
CONTINUOUS
 62
     3
100
AcDbLine
 10
336.2400200000001
 20
54.27917962077299
 30
0.0
 11
336.2400200000001
 21
45.81866962077299
 31
0.0
  0
LINE
  5
29C
330
1F
100
AcDbEntity
  8
LAY-1
  6
CONTINUOUS
 62
     3
100
AcDbLine
 10
336.2400200000001
 20
46.774174620773
 30
0.0
 11
343.7450250000001
 21
46.774174620773
 31
0.0
  0
LINE
  5
29D
330
1F
100
AcDbEntity
  8
LAY-1
  6
CONTINUOUS
 62
     3
100
AcDbLine
 10
343.745086
 20
46.774174620773
 30
0.0
 11
343.745086
 21
54.27917962077299
 31
0.0
  0
LINE
  5
29E
330
1F
100
AcDbEntity
  8
LAY-1
  6
CONTINUOUS
 62
     1
100
AcDbLine
 10
343.745086
 20
46.774174620773
 30
0.0
 11
336.2400200000001
 21
54.27917962077299
 31
0.0
  0
LINE
  5
29F
330
1F
100
AcDbEntity
  8
LAY-1
  6
CONTINUOUS
 62
     1
100
AcDbLine
 10
336.2400200000001
 20
46.774174620773
 30
0.0
 11
343.7450250000001
 21
54.27917962077299
 31
0.0
  0
LINE
  5
2A0
330
1F
100
AcDbEntity
  8
LAY-1
  6
CONTINUOUS
 62
     3
100
AcDbLine
 10
336.2400200000001
 20
54.27917962077299
 30
0.0
 11
336.2400200000001
 21
62.73968962077299
 31
0.0
  0
LINE
  5
2A1
330
1F
100
AcDbEntity
  8
LAY-1
  6
CONTINUOUS
 62
     3
100
AcDbLine
 10
331.500091
 20
62.57417762077306
 30
0.0
 11
336.2400200000001
 21
62.73968962077299
 31
0.0
  0
LINE
  5
2A2
330
1F
100
AcDbEntity
  8
LAY-1
  6
CONTINUOUS
 62
     1
100
AcDbLine
 10
331.5276180000001
 20
61.78514562077293
 30
0.0
 11
336.2400200000001
 21
61.94971162077297
 31
0.0
  0
LINE
  5
2A3
330
1F
100
AcDbEntity
  8
LAY-1
  6
CONTINUOUS
 62
     3
100
AcDbLine
 10
336.2400200000001
 20
61.78418462077297
 30
0.0
 11
343.7450250000001
 21
61.78418462077297
 31
0.0
  0
LINE
  5
2A4
330
1F
100
AcDbEntity
  8
LAY-1
  6
CONTINUOUS
 62
     3
100
AcDbLine
 10
343.745086
 20
61.78418462077297
 30
0.0
 11
343.745086
 21
54.27917962077299
 31
0.0
  0
LINE
  5
2A5
330
1F
100
AcDbEntity
  8
LAY-1
  6
CONTINUOUS
 62
     1
100
AcDbLine
 10
343.745086
 20
61.78418462077297
 30
0.0
 11
336.2400200000001
 21
54.27917962077299
 31
0.0
  0
LINE
  5
2A6
330
1F
100
AcDbEntity
  8
LAY-1
  6
CONTINUOUS
 62
     1
100
AcDbLine
 10
336.2400200000001
 20
61.78418462077297
 30
0.0
 11
343.7450250000001
 21
54.27917962077299
 31
0.0
  0
LINE
  5
2A7
330
1F
100
AcDbEntity
  8
LAY-1
  6
CONTINUOUS
 62
     3
100
AcDbLine
 10
331.50003
 20
54.27908062077301
 30
0.0
 11
331.50003
 21
38.98627162077297
 31
0.0
  0
LINE
  5
2A8
330
1F
100
AcDbEntity
  8
LAY-1
  6
CONTINUOUS
 62
     3
100
AcDbLine
 10
331.50003
 20
69.57196562077297
 30
0.0
 11
330.792938
 21
70.27905762077296
 31
0.0
  0
LINE
  5
2A9
330
1F
100
AcDbEntity
  8
LAY-1
  6
CONTINUOUS
 62
     3
100
AcDbLine
 10
331.50003
 20
38.98627162077297
 30
0.0
 11
330.792938
 21
38.27917962077299
 31
0.0
  0
LINE
  5
2AA
330
1F
100
AcDbEntity
  8
LAY-1
  6
CONTINUOUS
 62
     3
100
AcDbLine
 10
324.50003
 20
159.279087620773
 30
0.0
 11
324.50003
 21
75.27905762077296
 31
0.0
  0
LINE
  5
2AB
330
1F
100
AcDbEntity
  8
LAY-1
  6
CONTINUOUS
 62
     3
100
AcDbLine
 10
330.792938
 20
38.27907262077303
 30
0.0
 11
291.5000610000001
 21
38.27907262077303
 31
0.0
  0
ARC
  5
2AC
330
1F
100
AcDbEntity
  8
LAY-1
  6
CONTINUOUS
 62
     3
100
AcDbCircle
 10
329.50003
 20
75.27905762077296
 30
0.0
 40
5.0
100
AcDbArc
 50
180.0000198478429
 51
270.0000011238745
  0
LINE
  5
2AD
330
1F
100
AcDbEntity
  8
LAY-1
  6
CONTINUOUS
 62
     3
100
AcDbLine
 10
329.00003
 20
179.279087620773
 30
0.0
 11
329.00003
 21
161.279087620773
 31
0.0
  0
LINE
  5
2AE
330
1F
100
AcDbEntity
  8
LAY-1
  6
CONTINUOUS
 62
     3
100
AcDbLine
 10
302.500122
 20
160.279087620773
 30
0.0
 11
328.00003
 21
160.279087620773
 31
0.0
  0
LINE
  5
2AF
330
1F
100
AcDbEntity
  8
LAY-1
  6
CONTINUOUS
 62
     3
100
AcDbLine
 10
301.50003
 20
180.279087620773
 30
0.0
 11
328.00003
 21
180.279087620773
 31
0.0
  0
ARC
  5
2B0
330
1F
100
AcDbEntity
  8
LAY-1
  6
CONTINUOUS
 62
     3
100
AcDbCircle
 10
328.00003
 20
161.279087620773
 30
0.0
 40
1.0
100
AcDbArc
 50
270.0000011238745
 51
359.9999823999061
  0
ARC
  5
2B1
330
1F
100
AcDbEntity
  8
LAY-1
  6
CONTINUOUS
 62
     3
100
AcDbCircle
 10
325.50003
 20
159.279087620773
 30
0.0
 40
1.0
100
AcDbArc
 50
89.99998127603166
 51
180.0000198478429
  0
ARC
  5
2B2
330
1F
100
AcDbEntity
  8
LAY-1
  6
CONTINUOUS
 62
     3
100
AcDbCircle
 10
328.00003
 20
179.279087620773
 30
0.0
 40
1.0
100
AcDbArc
 50
359.9999823999061
 51
90.00002097171735
  0
LINE
  5
2B3
330
1F
100
AcDbEntity
  8
LAY-1
  6
CONTINUOUS
 62
     3
100
AcDbLine
 10
258.5000610000001
 20
87.95712762077301
 30
0.0
 11
258.5000610000001
 21
51.27907262077303
 31
0.0
  0
LINE
  5
2B4
330
1F
100
AcDbEntity
  8
LAY-1
  6
CONTINUOUS
 62
     3
100
AcDbLine
 10
271.5000610000001
 20
38.27907262077303
 30
0.0
 11
291.5000610000001
 21
38.27907262077303
 31
0.0
  0
LINE
  5
2B5
330
1F
100
AcDbEntity
  8
LAY-1
  6
CONTINUOUS
 62
     3
100
AcDbLine
 10
281.5000610000001
 20
180.279087620773
 30
0.0
 11
255.0000610000001
 21
180.279087620773
 31
0.0
  0
ARC
  5
2B6
330
1F
100
AcDbEntity
  8
LAY-1
  6
CONTINUOUS
 62
     3
100
AcDbCircle
 10
255.0000610000001
 20
179.279087620773
 30
0.0
 40
1.0
100
AcDbArc
 50
89.99998127603166
 51
180.0000198478429
  0
ARC
  5
2B7
330
1F
100
AcDbEntity
  8
LAY-1
  6
CONTINUOUS
 62
     3
100
AcDbCircle
 10
271.5000610000001
 20
51.27907262077303
 30
0.0
 40
13.00000000000001
100
AcDbArc
 50
180.0000198478429
 51
270.0000011238745
  0
LINE
  5
2B8
330
1F
100
AcDbEntity
  8
LAY-1
  6
CONTINUOUS
 62
     3
100
AcDbLine
 10
257.0355830000001
 20
91.49264962077302
 30
0.0
 11
250.713653
 21
97.81461062077301
 31
0.0
  0
ARC
  5
2B9
330
1F
100
AcDbEntity
  8
LAY-1
  6
CONTINUOUS
 62
     3
100
AcDbCircle
 10
247.1781000000001
 20
94.27907262077304
 30
0.0
 40
5.0
100
AcDbArc
 50
44.99999063801583
 51
89.99998127603166
  0
ARC
  5
2BA
330
1F
100
AcDbEntity
  8
LAY-1
  6
CONTINUOUS
 62
     3
100
AcDbCircle
 10
253.5000610000001
 20
87.95712762077301
 30
0.0
 40
5.0
100
AcDbArc
 50
359.9999823999061
 51
44.999973037922
  0
LINE
  5
2BB
330
1F
100
AcDbEntity
  8
LAY-1
  6
CONTINUOUS
 62
     3
100
AcDbLine
 10
209.005035
 20
70.279087620773
 30
0.0
 11
216.792938
 21
70.279087620773
 31
0.0
  0
LINE
  5
2BC
330
1F
100
AcDbEntity
  8
LAY-1
  6
CONTINUOUS
 62
     3
100
AcDbLine
 10
217.50003
 20
70.98619562077306
 30
0.0
 11
217.50003
 21
79.28050662077294
 31
0.0
  0
ARC
  5
2BD
330
1F
100
AcDbEntity
  8
LAY-1
  6
CONTINUOUS
 62
     3
100
AcDbCircle
 10
222.50003
 20
79.28050662077294
 30
0.0
 40
5.0
100
AcDbArc
 50
143.783185730285
 51
180.0000198478429
  0
LINE
  5
2BE
330
1F
100
AcDbEntity
  8
LAY-1
  6
CONTINUOUS
 62
     3
100
AcDbLine
 10
216.792938
 20
70.279087620773
 30
0.0
 11
217.50003
 21
70.98619562077306
 31
0.0
  0
LINE
  5
2BF
330
1F
100
AcDbEntity
  8
LAY-1
  6
CONTINUOUS
 62
     3
100
AcDbLine
 10
301.5000610000001
 20
204.973057620773
 30
0.0
 11
301.5000610000001
 21
153.279118620773
 31
0.0
  0
LINE
  5
2C0
330
1F
100
AcDbEntity
  8
LAY-1
  6
CONTINUOUS
 62
     3
100
AcDbLine
 10
281.5000610000001
 20
204.973057620773
 30
0.0
 11
281.5000610000001
 21
153.279118620773
 31
0.0
  0
LINE
  5
2C1
330
1F
100
AcDbEntity
  8
LAY-1
  6
CONTINUOUS
 62
     1
100
AcDbLine
 10
285.636779
 20
209.279087620773
 30
0.0
 11
285.636779
 21
215.844731620773
 31
0.0
  0
LINE
  5
2C2
330
1F
100
AcDbEntity
  8
LAY-1
  6
CONTINUOUS
 62
     3
100
AcDbLine
 10
276.5000910000001
 20
207.279118620773
 30
0.0
 11
276.5000910000001
 21
191.279103620773
 31
0.0
  0
LINE
  5
2C3
330
1F
100
AcDbEntity
  8
LAY-1
  6
CONTINUOUS
 62
     3
100
AcDbLine
 10
291.5000610000001
 20
209.279118620773
 30
0.0
 11
278.5000910000001
 21
209.279118620773
 31
0.0
  0
LINE
  5
2C4
330
1F
100
AcDbEntity
  8
LAY-1
  6
CONTINUOUS
 62
     3
100
AcDbLine
 10
281.5000610000001
 20
189.279103620773
 30
0.0
 11
278.5000910000001
 21
189.279103620773
 31
0.0
  0
ARC
  5
2C5
330
1F
100
AcDbEntity
  8
LAY-1
  6
CONTINUOUS
 62
     3
100
AcDbCircle
 10
278.5000910000001
 20
207.279118620773
 30
0.0
 40
2.0
100
AcDbArc
 50
89.99998127603166
 51
180.0000198478429
  0
ARC
  5
2C6
330
1F
100
AcDbEntity
  8
LAY-1
  6
CONTINUOUS
 62
     3
100
AcDbCircle
 10
278.5000910000001
 20
191.279103620773
 30
0.0
 40
2.0
100
AcDbArc
 50
180.0000198478429
 51
270.0000011238745
  0
LINE
  5
2C7
330
1F
100
AcDbEntity
  8
LAY-1
  6
CONTINUOUS
 62
     3
100
AcDbLine
 10
291.5000610000001
 20
209.279118620773
 30
0.0
 11
304.5000910000001
 21
209.279118620773
 31
0.0
  0
ARC
  5
2C8
330
1F
100
AcDbEntity
  8
LAY-1
  6
CONTINUOUS
 62
     3
100
AcDbCircle
 10
304.5000910000001
 20
207.279118620773
 30
0.0
 40
2.0
100
AcDbArc
 50
359.9999823999061
 51
90.00002097171735
  0
LINE
  5
2C9
330
1F
100
AcDbEntity
  8
LAY-1
  6
CONTINUOUS
 62
     3
100
AcDbLine
 10
301.5000610000001
 20
189.279103620773
 30
0.0
 11
304.5000910000001
 21
189.279103620773
 31
0.0
  0
LINE
  5
2CA
330
1F
100
AcDbEntity
  8
LAY-1
  6
CONTINUOUS
 62
     3
100
AcDbLine
 10
306.5000910000001
 20
207.279118620773
 30
0.0
 11
306.5000910000001
 21
191.279103620773
 31
0.0
  0
ARC
  5
2CB
330
1F
100
AcDbEntity
  8
LAY-1
  6
CONTINUOUS
 62
     3
100
AcDbCircle
 10
304.5000910000001
 20
191.279103620773
 30
0.0
 40
2.0
100
AcDbArc
 50
270.0000011238745
 51
359.9999823999061
  0
LINE
  5
2CC
330
1F
100
AcDbEntity
  8
LAY-1
  6
CONTINUOUS
 62
     3
100
AcDbLine
 10
305.2410580000001
 20
219.279118620773
 30
0.0
 11
277.759063
 21
219.279118620773
 31
0.0
  0
ARC
  5
2CD
330
1F
100
AcDbEntity
  8
LAY-1
  6
CONTINUOUS
 62
     3
100
AcDbCircle
 10
299.0599970000001
 20
218.719120620773
 30
0.0
 40
0.56
100
AcDbArc
 50
89.99998127603166
 51
180.0000198478429
  0
ARC
  5
2CE
330
1F
100
AcDbEntity
  8
LAY-1
  6
CONTINUOUS
 62
     3
100
AcDbCircle
 10
283.9399410000001
 20
218.719120620773
 30
0.0
 40
0.56
100
AcDbArc
 50
0.0
 51
90.00003857181116
  0
LINE
  5
2CF
330
1F
100
AcDbEntity
  8
LAY-1
  6
CONTINUOUS
 62
     3
100
AcDbLine
 10
279.949981
 20
229.079106620773
 30
0.0
 11
303.0499870000001
 21
229.079106620773
 31
0.0
  0
LINE
  5
2D0
330
1F
100
AcDbEntity
  8
LAY-1
  6
CONTINUOUS
 62
     3
100
AcDbLine
 10
303.0499870000001
 20
229.079106620773
 30
0.0
 11
305.2410580000001
 21
227.814091620773
 31
0.0
  0
ARC
  5
2D1
330
1F
100
AcDbEntity
  8
LAY-1
  6
CONTINUOUS
 62
     3
100
AcDbCircle
 10
291.5005180000001
 20
209.789433620773
 30
0.0
 40
19.289963
100
AcDbArc
 50
69.13641071569688
 51
110.8667604000192
  0
ARC
  5
2D2
330
1F
100
AcDbEntity
  8
LAY-1
  6
CONTINUOUS
 62
     3
100
AcDbCircle
 10
303.1134340000001
 20
219.549015620773
 30
0.0
 40
9.530660000000003
100
AcDbArc
 50
90.38145657602976
 51
119.8500510783163
  0
LINE
  5
2D3
330
1F
100
AcDbEntity
  8
LAY-1
  6
CONTINUOUS
 62
     3
100
AcDbLine
 10
279.949981
 20
229.079106620773
 30
0.0
 11
277.7588800000001
 21
227.814091620773
 31
0.0
  0
ARC
  5
2D4
330
1F
100
AcDbEntity
  8
LAY-1
  6
CONTINUOUS
 62
     3
100
AcDbCircle
 10
279.8865350000001
 20
219.549015620773
 30
0.0
 40
9.530660000000003
100
AcDbArc
 50
60.14996876952651
 51
89.61856327181307
  0
LINE
  5
2D5
330
1F
100
AcDbEntity
  8
LAY-1
  6
CONTINUOUS
 62
     3
100
AcDbLine
 10
305.2410580000001
 20
219.279118620773
 30
0.0
 11
305.241119
 21
227.814030620773
 31
0.0
  0
LINE
  5
2D6
330
1F
100
AcDbEntity
  8
LAY-1
  6
CONTINUOUS
 62
     3
100
AcDbLine
 10
298.370361
 20
219.279179620773
 30
0.0
 11
298.370361
 21
227.814091620773
 31
0.0
  0
LINE
  5
2D7
330
1F
100
AcDbEntity
  8
LAY-1
  6
CONTINUOUS
 62
     3
100
AcDbLine
 10
284.629547
 20
219.279179620773
 30
0.0
 11
284.629547
 21
227.814091620773
 31
0.0
  0
LINE
  5
2D8
330
1F
100
AcDbEntity
  8
LAY-1
  6
CONTINUOUS
 62
     3
100
AcDbLine
 10
277.7588800000001
 20
219.279118620773
 30
0.0
 11
277.7588500000001
 21
227.814030620773
 31
0.0
  0
LINE
  5
2D9
330
1F
100
AcDbEntity
  8
LAY-1
  6
CONTINUOUS
 62
     3
100
AcDbLine
 10
284.499939
 20
209.279118620773
 30
0.0
 11
284.499939
 21
218.719120620773
 31
0.0
  0
LINE
  5
2DA
330
1F
100
AcDbEntity
  8
LAY-1
  6
CONTINUOUS
 62
     3
100
AcDbLine
 10
284.499939
 20
215.844731620773
 30
0.0
 11
298.50003
 21
215.844731620773
 31
0.0
  0
LINE
  5
2DB
330
1F
100
AcDbEntity
  8
LAY-1
  6
CONTINUOUS
 62
     1
100
AcDbLine
 10
298.50003
 20
218.994755620773
 30
0.0
 11
297.363189
 21
215.844731620773
 31
0.0
  0
LINE
  5
2DC
330
1F
100
AcDbEntity
  8
LAY-1
  6
CONTINUOUS
 62
     1
100
AcDbLine
 10
284.499939
 20
218.994755620773
 30
0.0
 11
285.636749
 21
215.844731620773
 31
0.0
  0
LINE
  5
2DD
330
1F
100
AcDbEntity
  8
LAY-1
  6
CONTINUOUS
 62
     3
100
AcDbLine
 10
283.5000610000001
 20
151.279118620773
 30
0.0
 11
299.5000610000001
 21
151.279118620773
 31
0.0
  0
LINE
  5
2DE
330
1F
100
AcDbEntity
  8
LAY-1
  6
CONTINUOUS
 62
     1
100
AcDbLine
 10
297.3633420000001
 20
209.279087620773
 30
0.0
 11
297.3633420000001
 21
215.844731620773
 31
0.0
  0
LINE
  5
2DF
330
1F
100
AcDbEntity
  8
LAY-1
  6
CONTINUOUS
 62
     3
100
AcDbLine
 10
298.5001830000001
 20
209.279118620773
 30
0.0
 11
298.5001830000001
 21
218.719120620773
 31
0.0
  0
LINE
  5
2E0
330
1F
100
AcDbEntity
  8
LAY-1
  6
CONTINUOUS
 62
     3
100
AcDbLine
 10
301.5000610000001
 20
177.279103620773
 30
0.0
 11
301.50003
 21
177.279103620773
 31
0.0
  0
LINE
  5
2E1
330
1F
100
AcDbEntity
  8
LAY-1
  6
CONTINUOUS
 62
     3
100
AcDbLine
 10
301.5000610000001
 20
169.279087620773
 30
0.0
 11
301.50003
 21
169.279087620773
 31
0.0
  0
ARC
  5
2E2
330
1F
100
AcDbEntity
  8
LAY-1
  6
CONTINUOUS
 62
     3
100
AcDbCircle
 10
283.5000610000001
 20
153.279118620773
 30
0.0
 40
2.0
100
AcDbArc
 50
180.0000198478429
 51
270.0000011238745
  0
ARC
  5
2E3
330
1F
100
AcDbEntity
  8
LAY-1
  6
CONTINUOUS
 62
     3
100
AcDbCircle
 10
299.5000610000001
 20
153.279118620773
 30
0.0
 40
2.0
100
AcDbArc
 50
270.0000011238745
 51
0.0
  0
ARC
  5
2E4
330
1F
100
AcDbEntity
  8
LAY-1
  6
CONTINUOUS
 62
     3
100
AcDbCircle
 10
279.1046140000001
 20
204.906407620773
 30
0.0
 40
2.396373
100
AcDbArc
 50
1.593739402935898
 51
70.818614802201
  0
ARC
  5
2E5
330
1F
100
AcDbEntity
  8
LAY-1
  6
CONTINUOUS
 62
     3
100
AcDbCircle
 10
303.8955080000001
 20
204.906407620773
 30
0.0
 40
2.396373
100
AcDbArc
 50
109.1814050456419
 51
178.4063377406866
  0
LINE
  5
2E6
330
1F
100
AcDbEntity
  8
LAY-1
  6
CONTINUOUS
 62
     3
100
AcDbLine
 10
286.7958370000001
 20
179.475788620773
 30
0.0
 11
286.7958370000001
 21
203.168644620773
 31
0.0
  0
LINE
  5
2E7
330
1F
100
AcDbEntity
  8
LAY-1
  6
CONTINUOUS
 62
     3
100
AcDbLine
 10
296.204284
 20
179.475788620773
 30
0.0
 11
296.204284
 21
203.168644620773
 31
0.0
  0
LINE
  5
2E8
330
1F
100
AcDbEntity
  8
LAY-1
  6
CONTINUOUS
 62
     3
100
AcDbLine
 10
331.50003
 20
54.27907262077303
 30
0.0
 11
331.50003
 21
38.98618062077298
 31
0.0
  0
LINE
  5
2E9
330
1F
100
AcDbEntity
  8
LAY-1
  6
CONTINUOUS
 62
     3
100
AcDbLine
 10
331.500091
 20
45.98396762077299
 30
0.0
 11
336.2400200000001
 21
45.81845562077296
 31
0.0
  0
LINE
  5
2EA
330
1F
100
AcDbEntity
  8
LAY-1
  6
CONTINUOUS
 62
     1
100
AcDbLine
 10
331.5276180000001
 20
46.77299962077301
 30
0.0
 11
336.2400200000001
 21
46.60843362077298
 31
0.0
  0
LINE
  5
2EB
330
1F
100
AcDbEntity
  8
LAY-1
  6
CONTINUOUS
 62
     3
100
AcDbLine
 10
282.5000610000001
 20
48.27907262077303
 30
0.0
 11
291.5000610000001
 21
48.27907262077303
 31
0.0
  0
LINE
  5
2EC
330
1F
100
AcDbEntity
  8
LAY-1
  6
CONTINUOUS
 62
     3
100
AcDbLine
 10
281.5000610000001
 20
47.27907262077303
 30
0.0
 11
281.5000610000001
 21
39.27907262077303
 31
0.0
  0
ARC
  5
2ED
330
1F
100
AcDbEntity
  8
LAY-1
  6
CONTINUOUS
 62
     3
100
AcDbCircle
 10
282.5000610000001
 20
47.27907262077303
 30
0.0
 40
1.0
100
AcDbArc
 50
89.99998127603166
 51
180.0000198478429
  0
ARC
  5
2EE
330
1F
100
AcDbEntity
  8
LAY-1
  6
CONTINUOUS
 62
     3
100
AcDbCircle
 10
282.5000610000001
 20
39.27907262077303
 30
0.0
 40
1.0
100
AcDbArc
 50
180.0000198478429
 51
270.0000011238745
  0
LINE
  5
2EF
330
1F
100
AcDbEntity
  8
LAY-1
  6
CONTINUOUS
 62
     3
100
AcDbLine
 10
300.5000610000001
 20
48.27907262077303
 30
0.0
 11
291.5000610000001
 21
48.27907262077303
 31
0.0
  0
ARC
  5
2F0
330
1F
100
AcDbEntity
  8
LAY-1
  6
CONTINUOUS
 62
     3
100
AcDbCircle
 10
300.5000610000001
 20
47.27907262077303
 30
0.0
 40
1.0
100
AcDbArc
 50
359.9999823999061
 51
90.00002097171735
  0
LINE
  5
2F1
330
1F
100
AcDbEntity
  8
LAY-1
  6
CONTINUOUS
 62
     3
100
AcDbLine
 10
300.5000610000001
 20
38.27907262077303
 30
0.0
 11
291.5000610000001
 21
38.27907262077303
 31
0.0
  0
LINE
  5
2F2
330
1F
100
AcDbEntity
  8
LAY-1
  6
CONTINUOUS
 62
     3
100
AcDbLine
 10
301.5000610000001
 20
47.27907262077303
 30
0.0
 11
301.5000610000001
 21
39.27907262077303
 31
0.0
  0
ARC
  5
2F3
330
1F
100
AcDbEntity
  8
LAY-1
  6
CONTINUOUS
 62
     3
100
AcDbCircle
 10
300.5000610000001
 20
39.27907262077303
 30
0.0
 40
1.0
100
AcDbArc
 50
270.0000011238745
 51
359.9999823999061
  0
ARC
  5
2F4
330
1F
100
AcDbEntity
  8
LAY-1
  6
CONTINUOUS
 62
     3
100
AcDbCircle
 10
311.5000610000001
 20
51.27907262077303
 30
0.0
 40
13.00000000000001
100
AcDbArc
 50
270.0000011238745
 51
359.9999823999061
  0
LINE
  5
2F5
330
1F
100
AcDbEntity
  8
LAY-1
  6
CONTINUOUS
 62
     3
100
AcDbLine
 10
301.5000610000001
 20
170.279087620773
 30
0.0
 11
329.00003
 21
170.279087620773
 31
0.0
  0
LINE
  5
2F6
330
1F
100
AcDbEntity
  8
LAY-1
  6
CONTINUOUS
 62
     3
100
AcDbLine
 10
302.500122
 20
166.279087620773
 30
0.0
 11
302.500122
 21
160.279072620773
 31
0.0
  0
ARC
  5
2F7
330
1F
100
AcDbEntity
  8
LAY-1
  6
CONTINUOUS
 62
     3
100
AcDbCircle
 10
301.500122
 20
166.279087620773
 30
0.0
 40
1.0
100
AcDbArc
 50
0.0
 51
89.99998127603166
  0
ARC
  5
2F8
330
1F
100
AcDbEntity
  8
LAY-1
  6
CONTINUOUS
 62
     3
100
AcDbCircle
 10
301.500122
 20
160.279072620773
 30
0.0
 40
1.0
100
AcDbArc
 50
270.0000011238745
 51
359.9999823999061
  0
LINE
  5
2F9
330
1F
100
AcDbEntity
  8
LAY-1
  6
CONTINUOUS
 62
     3
100
AcDbLine
 10
277.5000910000001
 20
167.279087620773
 30
0.0
 11
281.5000910000001
 21
167.279087620773
 31
0.0
  0
LINE
  5
2FA
330
1F
100
AcDbEntity
  8
LAY-1
  6
CONTINUOUS
 62
     3
100
AcDbLine
 10
276.5000910000001
 20
149.279087620773
 30
0.0
 11
280.500122
 21
149.279087620773
 31
0.0
  0
LINE
  5
2FB
330
1F
100
AcDbEntity
  8
LAY-1
  6
CONTINUOUS
 62
     3
100
AcDbLine
 10
276.5000910000001
 20
149.279087620773
 30
0.0
 11
276.5000910000001
 21
166.279087620773
 31
0.0
  0
LINE
  5
2FC
330
1F
100
AcDbEntity
  8
LAY-1
  6
CONTINUOUS
 62
     3
100
AcDbLine
 10
280.500122
 20
149.279087620773
 30
0.0
 11
280.500122
 21
158.279087620773
 31
0.0
  0
ARC
  5
2FD
330
1F
100
AcDbEntity
  8
LAY-1
  6
CONTINUOUS
 62
     3
100
AcDbCircle
 10
273.250732
 20
150.4099166207729
 30
0.0
 40
3.440512000000002
100
AcDbArc
 50
263.8601853912526
 51
340.8112820662978
  0
ARC
  5
2FE
330
1F
100
AcDbEntity
  8
LAY-1
  6
CONTINUOUS
 62
     3
100
AcDbCircle
 10
283.74945
 20
150.4099166207729
 30
0.0
 40
3.440512000000002
100
AcDbArc
 50
199.1887201814513
 51
266.102971384513
  0
ARC
  5
2FF
330
1F
100
AcDbEntity
  8
LAY-1
  6
CONTINUOUS
 62
     3
100
AcDbCircle
 10
277.5000910000001
 20
166.279087620773
 30
0.0
 40
1.0
100
AcDbArc
 50
89.99998127603166
 51
180.0000198478429
  0
ARC
  5
300
330
1F
100
AcDbEntity
  8
LAY-1
  6
CONTINUOUS
 62
     3
100
AcDbCircle
 10
281.500122
 20
158.279087620773
 30
0.0
 40
1.0
100
AcDbArc
 50
89.99998127603166
 51
180.0000198478429
  0
LINE
  5
301
330
1F
100
AcDbEntity
  8
LAY-1
  6
CONTINUOUS
 62
     3
100
AcDbLine
 10
201.5000910000001
 20
227.279072620773
 30
0.0
 11
203.5000910000002
 21
229.279072620773
 31
0.0
  0
LINE
  5
302
330
1F
100
AcDbEntity
  8
LAY-1
  6
CONTINUOUS
 62
     3
100
AcDbLine
 10
201.500091
 20
227.279072620773
 30
0.0
 11
199.500091
 21
229.279072620773
 31
0.0
  0
LINE
  5
303
330
1F
100
AcDbEntity
  8
LAY-1
  6
CONTINUOUS
 62
     3
100
AcDbLine
 10
190.500091
 20
229.279072620773
 30
0.0
 11
199.500091
 21
229.279072620773
 31
0.0
  0
LINE
  5
304
330
1F
100
AcDbEntity
  8
LAY-1
  6
CONTINUOUS
 62
     3
100
AcDbLine
 10
203.500091
 20
229.279072620773
 30
0.0
 11
212.500091
 21
229.279072620773
 31
0.0
  0
LINE
  5
305
330
1F
100
AcDbEntity
  8
LAY-1
  6
CONTINUOUS
 62
     3
100
AcDbLine
 10
190.500091
 20
229.279072620773
 30
0.0
 11
190.500091
 21
224.2790726207729
 31
0.0
  0
LINE
  5
306
330
1F
100
AcDbEntity
  8
LAY-1
  6
CONTINUOUS
 62
     3
100
AcDbLine
 10
212.500091
 20
229.279072620773
 30
0.0
 11
212.500091
 21
224.2790726207729
 31
0.0
  0
LINE
  5
307
330
1F
100
AcDbEntity
  8
LAY-1
  6
CONTINUOUS
 62
     3
100
AcDbLine
 10
201.5000910000002
 20
227.279072620773
 30
0.0
 11
203.5000910000002
 21
229.279072620773
 31
0.0
  0
LINE
  5
308
330
1F
100
AcDbEntity
  8
LAY-1
  6
CONTINUOUS
 62
     3
100
AcDbLine
 10
203.500091
 20
229.279072620773
 30
0.0
 11
212.500091
 21
229.279072620773
 31
0.0
  0
LINE
  5
309
330
1F
100
AcDbEntity
  8
LAY-1
  6
CONTINUOUS
 62
     3
100
AcDbLine
 10
212.500091
 20
229.279072620773
 30
0.0
 11
212.500091
 21
224.2790726207729
 31
0.0
  0
LINE
  5
30A
330
1F
100
AcDbEntity
  8
LAY-1
  6
CONTINUOUS
 62
     3
100
AcDbLine
 10
213.3991630000002
 20
222.929072620773
 30
0.0
 11
213.3991630000002
 21
224.279072620773
 31
0.0
  0
LINE
  5
30B
330
1F
100
AcDbEntity
  8
LAY-1
  6
CONTINUOUS
 62
     1
100
AcDbLine
 10
203.500091
 20
229.279072620773
 30
0.0
 11
204.6843015263158
 21
224.279072620773
 31
0.0
  0
LINE
  5
30C
330
1F
100
AcDbEntity
  8
LAY-1
  6
CONTINUOUS
 62
     1
100
AcDbLine
 10
211.3158804736842
 20
224.279072620773
 30
0.0
 11
212.500091
 21
229.279072620773
 31
0.0
  0
LINE
  5
30D
330
1F
100
AcDbEntity
  8
LAY-1
  6
CONTINUOUS
 62
     3
100
AcDbLine
 10
189.6010190000001
 20
222.929072620773
 30
0.0
 11
189.6010190000001
 21
224.279072620773
 31
0.0
  0
LINE
  5
30E
330
1F
100
AcDbEntity
  8
LAY-1
  6
CONTINUOUS
 62
     3
100
AcDbLine
 10
189.6010190000001
 20
224.279072620773
 30
0.0
 11
213.3991630000002
 21
224.279072620773
 31
0.0
  0
LINE
  5
30F
330
1F
100
AcDbEntity
  8
LAY-1
  6
CONTINUOUS
 62
     3
100
AcDbLine
 10
189.6010190000001
 20
222.929072620773
 30
0.0
 11
213.399163
 21
222.929072620773
 31
0.0
  0
LINE
  5
310
330
1F
100
AcDbEntity
  8
LAY-1
  6
CONTINUOUS
 62
     1
100
AcDbLine
 10
203.500091
 20
229.279072620773
 30
0.0
 11
204.6843015263158
 21
224.279072620773
 31
0.0
  0
LINE
  5
311
330
1F
100
AcDbEntity
  8
LAY-1
  6
CONTINUOUS
 62
     1
100
AcDbLine
 10
198.3158804736843
 20
224.279072620773
 30
0.0
 11
199.500091
 21
229.279072620773
 31
0.0
  0
LINE
  5
312
330
1F
100
AcDbEntity
  8
LAY-1
  6
CONTINUOUS
 62
     1
100
AcDbLine
 10
190.500091
 20
229.279072620773
 30
0.0
 11
191.6843015263158
 21
224.279072620773
 31
0.0
  0
LINE
  5
313
330
1F
100
AcDbEntity
  8
LAY-1
  6
CONTINUOUS
 62
     3
100
AcDbLine
 10
295.500091
 20
205.779057620773
 30
0.0
 11
284.500091
 21
205.779057620773
 31
0.0
  0
ARC
  5
314
330
1F
100
AcDbEntity
  8
LAY-1
  6
CONTINUOUS
 62
     3
100
AcDbCircle
 10
261.8206145297949
 20
235.2790636401382
 30
0.0
 40
19.99999935
100
AcDbArc
 50
89.99998127603179
 51
150.0000069905729
  0
ARC
  5
315
330
1F
100
AcDbEntity
  8
LAY-1
  6
CONTINUOUS
 62
     3
100
AcDbCircle
 10
261.8206145297949
 20
235.2791028558231
 30
0.0
 40
29.99999902500001
100
AcDbArc
 50
89.99998127603179
 51
149.9999496947929
  0
LINE
  5
316
330
1F
100
AcDbEntity
  8
LAY-1
  6
CONTINUOUS
 62
     3
100
AcDbLine
 10
244.5001131319267
 20
245.2790554720013
 30
0.0
 11
221.5000746637419
 21
205.4418489235732
 31
0.0
  0
LINE
  5
317
330
1F
100
AcDbEntity
  8
LAY-1
  6
CONTINUOUS
 62
     3
100
AcDbLine
 10
218.5193244338187
 20
220.2790562845012
 30
0.0
 11
235.8398376431809
 21
250.279095982146
 31
0.0
  0
LINE
  5
318
330
1F
100
AcDbEntity
  8
LAY-1
  6
CONTINUOUS
 62
     3
100
AcDbLine
 10
403.18592515074
 20
265.2789953148218
 30
0.0
 11
261.82063215148
 21
265.2790783514019
 31
0.0
  0
LINE
  5
319
330
1F
100
AcDbEntity
  8
LAY-1
  6
CONTINUOUS
 62
     3
100
AcDbLine
 10
403.18592515074
 20
255.2790054738001
 30
0.0
 11
261.8206145297949
 21
255.2790054738002
 31
0.0
  0
LINE
  5
31A
330
1F
100
AcDbEntity
  8
LAY-1
  6
CONTINUOUS
 62
     3
100
AcDbLine
 10
403.18592515074
 20
265.278995314833
 30
0.0
 11
403.18592515074
 21
255.2790054738001
 31
0.0
  0
LINE
  5
31B
330
1F
100
AcDbEntity
  8
LAY-1
  6
EXLTYPE5
 62
     1
100
AcDbLine
 10
201.5000910000001
 20
48.81261462077304
 30
0.0
 11
201.5000910000001
 21
237.812614620773
 31
0.0
  0
LINE
  5
31C
330
1F
100
AcDbEntity
  8
LAY-1
  6
EXLTYPE5
 62
     1
100
AcDbLine
 10
331.5042050000001
 20
143.2790726207745
 30
0.0
 11
62.70420500000012
 21
143.2790726207729
 31
0.0
  0
LINE
  5
31D
330
1F
100
AcDbEntity
  8
LAY-1
  6
CONTINUOUS
 62
     3
100
AcDbLine
 10
66.76016200000015
 20
54.27905762077307
 30
0.0
 11
66.76016200000015
 21
62.73956762077295
 31
0.0
  0
LINE
  5
31E
330
1F
100
AcDbEntity
  8
LAY-1
  6
CONTINUOUS
 62
     3
100
AcDbLine
 10
66.76016200000015
 20
61.78406262077305
 30
0.0
 11
59.25515700000017
 21
61.78406262077305
 31
0.0
  0
LINE
  5
31F
330
1F
100
AcDbEntity
  8
LAY-1
  6
CONTINUOUS
 62
     3
100
AcDbLine
 10
59.25509600000021
 20
61.78406262077305
 30
0.0
 11
59.25509600000021
 21
54.27905762077307
 31
0.0
  0
LINE
  5
320
330
1F
100
AcDbEntity
  8
LAY-1
  6
CONTINUOUS
 62
     1
100
AcDbLine
 10
59.25509600000021
 20
61.78406262077305
 30
0.0
 11
66.76016200000015
 21
54.27905762077307
 31
0.0
  0
LINE
  5
321
330
1F
100
AcDbEntity
  8
LAY-1
  6
CONTINUOUS
 62
     1
100
AcDbLine
 10
66.76016200000015
 20
61.78406262077305
 30
0.0
 11
59.25515700000017
 21
54.27905762077307
 31
0.0
  0
LINE
  5
322
330
1F
100
AcDbEntity
  8
LAY-1
  6
CONTINUOUS
 62
     3
100
AcDbLine
 10
66.76016200000015
 20
54.27905762077307
 30
0.0
 11
66.76016200000015
 21
45.81854762077295
 31
0.0
  0
LINE
  5
323
330
1F
100
AcDbEntity
  8
LAY-1
  6
CONTINUOUS
 62
     3
100
AcDbLine
 10
66.76016200000015
 20
46.77405262077297
 30
0.0
 11
59.25515700000017
 21
46.77405262077297
 31
0.0
  0
LINE
  5
324
330
1F
100
AcDbEntity
  8
LAY-1
  6
CONTINUOUS
 62
     3
100
AcDbLine
 10
59.25509600000021
 20
46.77405262077297
 30
0.0
 11
59.25509600000021
 21
54.27905762077307
 31
0.0
  0
LINE
  5
325
330
1F
100
AcDbEntity
  8
LAY-1
  6
CONTINUOUS
 62
     1
100
AcDbLine
 10
59.25509600000021
 20
46.77405262077297
 30
0.0
 11
66.76016200000015
 21
54.27905762077307
 31
0.0
  0
LINE
  5
326
330
1F
100
AcDbEntity
  8
LAY-1
  6
CONTINUOUS
 62
     1
100
AcDbLine
 10
66.76016200000015
 20
46.77405262077297
 30
0.0
 11
59.25515700000017
 21
54.27905762077307
 31
0.0
  0
LINE
  5
327
330
1F
100
AcDbEntity
  8
LAY-1
  6
CONTINUOUS
 62
     3
100
AcDbLine
 10
71.50015200000018
 20
54.27907262077303
 30
0.0
 11
71.50015200000018
 21
69.57196562077297
 31
0.0
  0
LINE
  5
328
330
1F
100
AcDbEntity
  8
LAY-1
  6
CONTINUOUS
 62
     3
100
AcDbLine
 10
85.32595700000013
 20
70.27905762077296
 30
0.0
 11
72.20724400000017
 21
70.27905762077296
 31
0.0
  0
LINE
  5
329
330
1F
100
AcDbEntity
  8
LAY-1
  6
CONTINUOUS
 62
     3
100
AcDbLine
 10
66.76016200000015
 20
54.27917962077299
 30
0.0
 11
66.76016200000015
 21
45.81866962077299
 31
0.0
  0
LINE
  5
32A
330
1F
100
AcDbEntity
  8
LAY-1
  6
CONTINUOUS
 62
     3
100
AcDbLine
 10
66.76016200000015
 20
46.774174620773
 30
0.0
 11
59.25515700000017
 21
46.774174620773
 31
0.0
  0
LINE
  5
32B
330
1F
100
AcDbEntity
  8
LAY-1
  6
CONTINUOUS
 62
     3
100
AcDbLine
 10
59.25509600000021
 20
46.774174620773
 30
0.0
 11
59.25509600000021
 21
54.27917962077299
 31
0.0
  0
LINE
  5
32C
330
1F
100
AcDbEntity
  8
LAY-1
  6
CONTINUOUS
 62
     1
100
AcDbLine
 10
59.25509600000021
 20
46.774174620773
 30
0.0
 11
66.76016200000015
 21
54.27917962077299
 31
0.0
  0
LINE
  5
32D
330
1F
100
AcDbEntity
  8
LAY-1
  6
CONTINUOUS
 62
     1
100
AcDbLine
 10
66.76016200000015
 20
46.774174620773
 30
0.0
 11
59.25515700000017
 21
54.27917962077299
 31
0.0
  0
LINE
  5
32E
330
1F
100
AcDbEntity
  8
LAY-1
  6
CONTINUOUS
 62
     3
100
AcDbLine
 10
66.76016200000015
 20
54.27917962077299
 30
0.0
 11
66.76016200000015
 21
62.73968962077299
 31
0.0
  0
LINE
  5
32F
330
1F
100
AcDbEntity
  8
LAY-1
  6
CONTINUOUS
 62
     3
100
AcDbLine
 10
71.50009100000022
 20
62.57417762077306
 30
0.0
 11
66.76016200000015
 21
62.73968962077299
 31
0.0
  0
LINE
  5
330
330
1F
100
AcDbEntity
  8
LAY-1
  6
CONTINUOUS
 62
     1
100
AcDbLine
 10
71.47256400000015
 20
61.78514562077293
 30
0.0
 11
66.76016200000015
 21
61.94971162077297
 31
0.0
  0
LINE
  5
331
330
1F
100
AcDbEntity
  8
LAY-1
  6
CONTINUOUS
 62
     3
100
AcDbLine
 10
66.76016200000015
 20
61.78418462077297
 30
0.0
 11
59.25515700000017
 21
61.78418462077297
 31
0.0
  0
LINE
  5
332
330
1F
100
AcDbEntity
  8
LAY-1
  6
CONTINUOUS
 62
     3
100
AcDbLine
 10
59.25509600000021
 20
61.78418462077297
 30
0.0
 11
59.25509600000021
 21
54.27917962077299
 31
0.0
  0
LINE
  5
333
330
1F
100
AcDbEntity
  8
LAY-1
  6
CONTINUOUS
 62
     1
100
AcDbLine
 10
59.25509600000021
 20
61.78418462077297
 30
0.0
 11
66.76016200000015
 21
54.27917962077299
 31
0.0
  0
LINE
  5
334
330
1F
100
AcDbEntity
  8
LAY-1
  6
CONTINUOUS
 62
     1
100
AcDbLine
 10
66.76016200000015
 20
61.78418462077297
 30
0.0
 11
59.25515700000017
 21
54.27917962077299
 31
0.0
  0
LINE
  5
335
330
1F
100
AcDbEntity
  8
LAY-1
  6
CONTINUOUS
 62
     3
100
AcDbLine
 10
71.50015200000018
 20
54.27908062077301
 30
0.0
 11
71.50015200000018
 21
38.98627162077297
 31
0.0
  0
LINE
  5
336
330
1F
100
AcDbEntity
  8
LAY-1
  6
CONTINUOUS
 62
     3
100
AcDbLine
 10
71.50015200000018
 20
69.57196562077297
 30
0.0
 11
72.20724400000017
 21
70.27905762077296
 31
0.0
  0
LINE
  5
337
330
1F
100
AcDbEntity
  8
LAY-1
  6
CONTINUOUS
 62
     3
100
AcDbLine
 10
71.50015200000018
 20
38.98627162077297
 30
0.0
 11
72.20724400000017
 21
38.27917962077299
 31
0.0
  0
LINE
  5
338
330
1F
100
AcDbEntity
  8
LAY-1
  6
CONTINUOUS
 62
     3
100
AcDbLine
 10
78.50015200000018
 20
159.279087620773
 30
0.0
 11
78.50015200000018
 21
75.27905762077296
 31
0.0
  0
LINE
  5
339
330
1F
100
AcDbEntity
  8
LAY-1
  6
CONTINUOUS
 62
     3
100
AcDbLine
 10
72.20724400000017
 20
38.27907262077303
 30
0.0
 11
111.5001210000001
 21
38.27907262077303
 31
0.0
  0
LINE
  5
33A
330
1F
100
AcDbEntity
  8
LAY-1
  6
EXLTYPE2
 62
     1
100
AcDbLine
 10
78.79080100000022
 20
54.27907262077303
 30
0.0
 11
55.18679700000018
 21
54.27907262077303
 31
0.0
  0
ARC
  5
33B
330
1F
100
AcDbEntity
  8
LAY-1
  6
CONTINUOUS
 62
     3
100
AcDbCircle
 10
73.50015200000018
 20
75.27905762077296
 30
0.0
 40
5.0
100
AcDbArc
 50
269.9999988761256
 51
359.9999801521572
  0
LINE
  5
33C
330
1F
100
AcDbEntity
  8
LAY-1
  6
CONTINUOUS
 62
     3
100
AcDbLine
 10
74.00015200000018
 20
179.279087620773
 30
0.0
 11
74.00015200000018
 21
161.279087620773
 31
0.0
  0
LINE
  5
33D
330
1F
100
AcDbEntity
  8
LAY-1
  6
CONTINUOUS
 62
     3
100
AcDbLine
 10
101.5001520000002
 20
180.279087620773
 30
0.0
 11
75.00015200000018
 21
180.279087620773
 31
0.0
  0
ARC
  5
33E
330
1F
100
AcDbEntity
  8
LAY-1
  6
CONTINUOUS
 62
     3
100
AcDbCircle
 10
75.00015200000018
 20
161.279087620773
 30
0.0
 40
1.0
100
AcDbArc
 50
180.0000176000924
 51
269.9999988761261
  0
ARC
  5
33F
330
1F
100
AcDbEntity
  8
LAY-1
  6
CONTINUOUS
 62
     3
100
AcDbCircle
 10
77.50015200000018
 20
159.279087620773
 30
0.0
 40
1.0
100
AcDbArc
 50
359.9999801521565
 51
90.00001872396959
  0
ARC
  5
340
330
1F
100
AcDbEntity
  8
LAY-1
  6
CONTINUOUS
 62
     3
100
AcDbCircle
 10
75.00015200000018
 20
179.279087620773
 30
0.0
 40
1.0
100
AcDbArc
 50
89.99997902828265
 51
180.0000176000924
  0
LINE
  5
341
330
1F
100
AcDbEntity
  8
LAY-1
  6
CONTINUOUS
 62
     3
100
AcDbLine
 10
144.5001210000001
 20
87.95712762077301
 30
0.0
 11
144.5001210000001
 21
51.27907262077303
 31
0.0
  0
LINE
  5
342
330
1F
100
AcDbEntity
  8
LAY-1
  6
CONTINUOUS
 62
     3
100
AcDbLine
 10
131.5001210000001
 20
38.27907262077303
 30
0.0
 11
111.5001210000001
 21
38.27907262077303
 31
0.0
  0
LINE
  5
343
330
1F
100
AcDbEntity
  8
LAY-1
  6
CONTINUOUS
 62
     3
100
AcDbLine
 10
121.5001210000001
 20
180.279087620773
 30
0.0
 11
148.0001210000001
 21
180.279087620773
 31
0.0
  0
ARC
  5
344
330
1F
100
AcDbEntity
  8
LAY-1
  6
CONTINUOUS
 62
     3
100
AcDbCircle
 10
148.0001210000001
 20
179.279087620773
 30
0.0
 40
1.0
100
AcDbArc
 50
359.9999801521565
 51
90.00001872396959
  0
ARC
  5
345
330
1F
100
AcDbEntity
  8
LAY-1
  6
CONTINUOUS
 62
     3
100
AcDbCircle
 10
131.5001210000001
 20
51.27907262077303
 30
0.0
 40
13.00000000000001
100
AcDbArc
 50
269.9999988761256
 51
359.9999801521572
  0
LINE
  5
346
330
1F
100
AcDbEntity
  8
LAY-1
  6
CONTINUOUS
 62
     3
100
AcDbLine
 10
145.9645990000001
 20
91.49264962077302
 30
0.0
 11
152.2865290000002
 21
97.81461062077301
 31
0.0
  0
ARC
  5
347
330
1F
100
AcDbEntity
  8
LAY-1
  6
CONTINUOUS
 62
     3
100
AcDbCircle
 10
155.8220820000001
 20
94.27907262077304
 30
0.0
 40
5.0
100
AcDbArc
 50
90.00001872396828
 51
135.0000093619842
  0
ARC
  5
348
330
1F
100
AcDbEntity
  8
LAY-1
  6
CONTINUOUS
 62
     3
100
AcDbCircle
 10
149.5001210000001
 20
87.95712762077301
 30
0.0
 40
5.0
100
AcDbArc
 50
135.000026962078
 51
180.0000176000938
  0
LINE
  5
349
330
1F
100
AcDbEntity
  8
LAY-1
  6
CONTINUOUS
 62
     3
100
AcDbLine
 10
149.2250360000002
 20
99.773503620773
 30
0.0
 11
155.0001210000001
 21
99.773503620773
 31
0.0
  0
LINE
  5
34A
330
1F
100
AcDbEntity
  8
LAY-1
  6
CONTINUOUS
 62
     3
100
AcDbLine
 10
148.5001210000001
 20
101.029118620773
 30
0.0
 11
149.2250360000002
 21
99.773503620773
 31
0.0
  0
ARC
  5
34B
330
1F
100
AcDbEntity
  8
LAY-1
  6
CONTINUOUS
 62
     3
100
AcDbCircle
 10
153.3089590000002
 20
100.987614620773
 30
0.0
 40
4.809198
100
AcDbArc
 50
148.1328322799575
 51
179.505537422802
  0
LINE
  5
34C
330
1F
100
AcDbEntity
  8
LAY-1
  6
CONTINUOUS
 62
     3
100
AcDbLine
 10
145.7001950000001
 20
103.279057620773
 30
0.0
 11
145.7001950000001
 21
111.279057620773
 31
0.0
  0
ARC
  5
34D
330
1F
100
AcDbEntity
  8
LAY-1
  6
CONTINUOUS
 62
     3
100
AcDbCircle
 10
151.7680050000001
 20
107.279301620773
 30
0.0
 40
7.267864
100
AcDbArc
 50
146.6080372998696
 51
213.394977280853
  0
LINE
  5
34E
330
1F
100
AcDbEntity
  8
LAY-1
  6
CONTINUOUS
 62
     3
100
AcDbLine
 10
148.5001210000001
 20
103.279118620773
 30
0.0
 11
145.7001950000001
 21
103.279087620773
 31
0.0
  0
LINE
  5
34F
330
1F
100
AcDbEntity
  8
LAY-1
  6
CONTINUOUS
 62
     1
100
AcDbLine
 10
148.5001210000001
 20
103.955113620773
 30
0.0
 11
145.3046870000002
 21
103.955113620773
 31
0.0
  0
LINE
  5
350
330
1F
100
AcDbEntity
  8
LAY-1
  6
CONTINUOUS
 62
     3
100
AcDbLine
 10
101.5001210000001
 20
204.973057620773
 30
0.0
 11
101.5001210000001
 21
153.279118620773
 31
0.0
  0
LINE
  5
351
330
1F
100
AcDbEntity
  8
LAY-1
  6
CONTINUOUS
 62
     3
100
AcDbLine
 10
121.5001210000001
 20
204.973057620773
 30
0.0
 11
121.5001210000001
 21
153.279118620773
 31
0.0
  0
LINE
  5
352
330
1F
100
AcDbEntity
  8
LAY-1
  6
CONTINUOUS
 62
     1
100
AcDbLine
 10
117.3634030000002
 20
209.279087620773
 30
0.0
 11
117.3634030000002
 21
215.844731620773
 31
0.0
  0
LINE
  5
353
330
1F
100
AcDbEntity
  8
LAY-1
  6
CONTINUOUS
 62
     3
100
AcDbLine
 10
126.5000910000001
 20
207.279118620773
 30
0.0
 11
126.5000910000001
 21
191.279103620773
 31
0.0
  0
LINE
  5
354
330
1F
100
AcDbEntity
  8
LAY-1
  6
CONTINUOUS
 62
     3
100
AcDbLine
 10
111.5001210000001
 20
209.279118620773
 30
0.0
 11
124.5000910000001
 21
209.279118620773
 31
0.0
  0
LINE
  5
355
330
1F
100
AcDbEntity
  8
LAY-1
  6
CONTINUOUS
 62
     3
100
AcDbLine
 10
121.5001210000001
 20
189.279103620773
 30
0.0
 11
124.5000910000001
 21
189.279103620773
 31
0.0
  0
ARC
  5
356
330
1F
100
AcDbEntity
  8
LAY-1
  6
CONTINUOUS
 62
     3
100
AcDbCircle
 10
124.5000910000001
 20
207.279118620773
 30
0.0
 40
2.0
100
AcDbArc
 50
359.9999801521565
 51
90.00001872396794
  0
ARC
  5
357
330
1F
100
AcDbEntity
  8
LAY-1
  6
CONTINUOUS
 62
     3
100
AcDbCircle
 10
124.5000910000001
 20
191.279103620773
 30
0.0
 40
2.0
100
AcDbArc
 50
269.9999988761261
 51
359.9999801521565
  0
LINE
  5
358
330
1F
100
AcDbEntity
  8
LAY-1
  6
CONTINUOUS
 62
     3
100
AcDbLine
 10
111.5001210000001
 20
209.279118620773
 30
0.0
 11
98.50009100000011
 21
209.279118620773
 31
0.0
  0
ARC
  5
359
330
1F
100
AcDbEntity
  8
LAY-1
  6
CONTINUOUS
 62
     3
100
AcDbCircle
 10
98.50009100000011
 20
207.279118620773
 30
0.0
 40
2.0
100
AcDbArc
 50
89.99997902828265
 51
180.0000176000941
  0
LINE
  5
35A
330
1F
100
AcDbEntity
  8
LAY-1
  6
CONTINUOUS
 62
     3
100
AcDbLine
 10
101.5001210000001
 20
189.279103620773
 30
0.0
 11
98.50009100000011
 21
189.279103620773
 31
0.0
  0
LINE
  5
35B
330
1F
100
AcDbEntity
  8
LAY-1
  6
CONTINUOUS
 62
     3
100
AcDbLine
 10
96.50009100000011
 20
207.279118620773
 30
0.0
 11
96.50009100000011
 21
191.279103620773
 31
0.0
  0
ARC
  5
35C
330
1F
100
AcDbEntity
  8
LAY-1
  6
CONTINUOUS
 62
     3
100
AcDbCircle
 10
98.50009100000011
 20
191.279103620773
 30
0.0
 40
2.0
100
AcDbArc
 50
180.0000176000941
 51
269.9999988761261
  0
LINE
  5
35D
330
1F
100
AcDbEntity
  8
LAY-1
  6
CONTINUOUS
 62
     3
100
AcDbLine
 10
97.75912400000016
 20
219.279118620773
 30
0.0
 11
125.2411190000003
 21
219.279118620773
 31
0.0
  0
ARC
  5
35E
330
1F
100
AcDbEntity
  8
LAY-1
  6
CONTINUOUS
 62
     3
100
AcDbCircle
 10
103.9401850000002
 20
218.719120620773
 30
0.0
 40
0.56
100
AcDbArc
 50
359.9999801521582
 51
90.0000187239712
  0
ARC
  5
35F
330
1F
100
AcDbEntity
  8
LAY-1
  6
CONTINUOUS
 62
     3
100
AcDbCircle
 10
119.0602410000001
 20
218.719120620773
 30
0.0
 40
0.56
100
AcDbArc
 50
89.99996142818699
 51
180.0
  0
LINE
  5
360
330
1F
100
AcDbEntity
  8
LAY-1
  6
CONTINUOUS
 62
     3
100
AcDbLine
 10
123.0502010000002
 20
229.079106620773
 30
0.0
 11
99.95019500000012
 21
229.079106620773
 31
0.0
  0
LINE
  5
361
330
1F
100
AcDbEntity
  8
LAY-1
  6
CONTINUOUS
 62
     3
100
AcDbLine
 10
99.95019500000012
 20
229.079106620773
 30
0.0
 11
97.75912400000016
 21
227.814091620773
 31
0.0
  0
ARC
  5
362
330
1F
100
AcDbEntity
  8
LAY-1
  6
CONTINUOUS
 62
     3
100
AcDbCircle
 10
111.4996640000002
 20
209.789433620773
 30
0.0
 40
19.289963
100
AcDbArc
 50
69.13323959998083
 51
110.863589284303
  0
ARC
  5
363
330
1F
100
AcDbEntity
  8
LAY-1
  6
CONTINUOUS
 62
     3
100
AcDbCircle
 10
99.88674800000013
 20
219.549015620773
 30
0.0
 40
9.530660000000003
100
AcDbArc
 50
60.14994892168352
 51
89.61854342397041
  0
LINE
  5
364
330
1F
100
AcDbEntity
  8
LAY-1
  6
CONTINUOUS
 62
     3
100
AcDbLine
 10
123.0502010000002
 20
229.079106620773
 30
0.0
 11
125.2413020000001
 21
227.814091620773
 31
0.0
  0
ARC
  5
365
330
1F
100
AcDbEntity
  8
LAY-1
  6
CONTINUOUS
 62
     3
100
AcDbCircle
 10
123.1136470000001
 20
219.549015620773
 30
0.0
 40
9.530660000000003
100
AcDbArc
 50
90.38143672818681
 51
119.8500312304734
  0
LINE
  5
366
330
1F
100
AcDbEntity
  8
LAY-1
  6
CONTINUOUS
 62
     3
100
AcDbLine
 10
97.75912400000016
 20
219.279118620773
 30
0.0
 11
97.7590630000002
 21
227.814030620773
 31
0.0
  0
LINE
  5
367
330
1F
100
AcDbEntity
  8
LAY-1
  6
CONTINUOUS
 62
     3
100
AcDbLine
 10
104.6298210000002
 20
219.279179620773
 30
0.0
 11
104.6298210000002
 21
227.814091620773
 31
0.0
  0
LINE
  5
368
330
1F
100
AcDbEntity
  8
LAY-1
  6
CONTINUOUS
 62
     3
100
AcDbLine
 10
118.3706350000002
 20
219.279179620773
 30
0.0
 11
118.3706350000002
 21
227.814091620773
 31
0.0
  0
LINE
  5
369
330
1F
100
AcDbEntity
  8
LAY-1
  6
CONTINUOUS
 62
     3
100
AcDbLine
 10
125.2413020000001
 20
219.279118620773
 30
0.0
 11
125.2413320000002
 21
227.814030620773
 31
0.0
  0
LINE
  5
36A
330
1F
100
AcDbEntity
  8
LAY-1
  6
CONTINUOUS
 62
     3
100
AcDbLine
 10
118.5002430000002
 20
209.279118620773
 30
0.0
 11
118.5002430000002
 21
218.719120620773
 31
0.0
  0
LINE
  5
36B
330
1F
100
AcDbEntity
  8
LAY-1
  6
CONTINUOUS
 62
     3
100
AcDbLine
 10
118.5002430000002
 20
215.844731620773
 30
0.0
 11
104.5001520000002
 21
215.844731620773
 31
0.0
  0
LINE
  5
36C
330
1F
100
AcDbEntity
  8
LAY-1
  6
CONTINUOUS
 62
     1
100
AcDbLine
 10
104.5001520000002
 20
218.994755620773
 30
0.0
 11
105.6369930000002
 21
215.844731620773
 31
0.0
  0
LINE
  5
36D
330
1F
100
AcDbEntity
  8
LAY-1
  6
CONTINUOUS
 62
     1
100
AcDbLine
 10
118.5002430000002
 20
218.994755620773
 30
0.0
 11
117.3634330000002
 21
215.844731620773
 31
0.0
  0
LINE
  5
36E
330
1F
100
AcDbEntity
  8
LAY-1
  6
CONTINUOUS
 62
     1
100
AcDbLine
 10
105.6368400000001
 20
209.279087620773
 30
0.0
 11
105.6368400000001
 21
215.844731620773
 31
0.0
  0
LINE
  5
36F
330
1F
100
AcDbEntity
  8
LAY-1
  6
CONTINUOUS
 62
     3
100
AcDbLine
 10
104.4999990000001
 20
209.279118620773
 30
0.0
 11
104.4999990000001
 21
218.719120620773
 31
0.0
  0
LINE
  5
370
330
1F
100
AcDbEntity
  8
LAY-1
  6
CONTINUOUS
 62
     3
100
AcDbLine
 10
101.5001210000001
 20
177.279103620773
 30
0.0
 11
101.5001520000002
 21
177.279103620773
 31
0.0
  0
ARC
  5
371
330
1F
100
AcDbEntity
  8
LAY-1
  6
CONTINUOUS
 62
     3
100
AcDbCircle
 10
123.8955680000001
 20
204.906407620773
 30
0.0
 40
2.396373
100
AcDbArc
 50
109.1813851977996
 51
178.4062605970643
  0
ARC
  5
372
330
1F
100
AcDbEntity
  8
LAY-1
  6
CONTINUOUS
 62
     3
100
AcDbCircle
 10
99.10467400000016
 20
204.906407620773
 30
0.0
 40
2.396373
100
AcDbArc
 50
1.593662259312856
 51
70.81859495435866
  0
LINE
  5
373
330
1F
100
AcDbEntity
  8
LAY-1
  6
CONTINUOUS
 62
     3
100
AcDbLine
 10
116.2043450000001
 20
179.475788620773
 30
0.0
 11
116.2043450000001
 21
203.168644620773
 31
0.0
  0
LINE
  5
374
330
1F
100
AcDbEntity
  8
LAY-1
  6
CONTINUOUS
 62
     3
100
AcDbLine
 10
106.7958980000002
 20
179.475788620773
 30
0.0
 11
106.7958980000002
 21
203.168644620773
 31
0.0
  0
LINE
  5
375
330
1F
100
AcDbEntity
  8
LAY-1
  6
CONTINUOUS
 62
     3
100
AcDbLine
 10
71.50015200000018
 20
54.27907262077303
 30
0.0
 11
71.50015200000018
 21
38.98618062077298
 31
0.0
  0
LINE
  5
376
330
1F
100
AcDbEntity
  8
LAY-1
  6
CONTINUOUS
 62
     3
100
AcDbLine
 10
71.50009100000022
 20
45.98396762077299
 30
0.0
 11
66.76016200000015
 21
45.81845562077296
 31
0.0
  0
LINE
  5
377
330
1F
100
AcDbEntity
  8
LAY-1
  6
CONTINUOUS
 62
     1
100
AcDbLine
 10
71.47256400000015
 20
46.77299962077301
 30
0.0
 11
66.76016200000015
 21
46.60843362077298
 31
0.0
  0
LINE
  5
378
330
1F
100
AcDbEntity
  8
LAY-1
  6
CONTINUOUS
 62
     3
100
AcDbLine
 10
120.5001210000001
 20
48.27907262077303
 30
0.0
 11
111.5001210000001
 21
48.27907262077303
 31
0.0
  0
LINE
  5
379
330
1F
100
AcDbEntity
  8
LAY-1
  6
CONTINUOUS
 62
     3
100
AcDbLine
 10
121.5001210000001
 20
47.27907262077303
 30
0.0
 11
121.5001210000001
 21
39.27907262077303
 31
0.0
  0
ARC
  5
37A
330
1F
100
AcDbEntity
  8
LAY-1
  6
CONTINUOUS
 62
     3
100
AcDbCircle
 10
120.5001210000001
 20
47.27907262077303
 30
0.0
 40
1.0
100
AcDbArc
 50
359.9999801521565
 51
90.00001872396959
  0
ARC
  5
37B
330
1F
100
AcDbEntity
  8
LAY-1
  6
CONTINUOUS
 62
     3
100
AcDbCircle
 10
120.5001210000001
 20
39.27907262077303
 30
0.0
 40
1.0
100
AcDbArc
 50
269.9999988761261
 51
359.9999801521565
  0
LINE
  5
37C
330
1F
100
AcDbEntity
  8
LAY-1
  6
CONTINUOUS
 62
     3
100
AcDbLine
 10
102.5001210000001
 20
48.27907262077303
 30
0.0
 11
111.5001210000001
 21
48.27907262077303
 31
0.0
  0
ARC
  5
37D
330
1F
100
AcDbEntity
  8
LAY-1
  6
CONTINUOUS
 62
     3
100
AcDbCircle
 10
102.5001210000001
 20
47.27907262077303
 30
0.0
 40
1.0
100
AcDbArc
 50
89.99997902828265
 51
180.0000176000941
  0
LINE
  5
37E
330
1F
100
AcDbEntity
  8
LAY-1
  6
CONTINUOUS
 62
     3
100
AcDbLine
 10
102.5001210000001
 20
38.27907262077303
 30
0.0
 11
111.5001210000001
 21
38.27907262077303
 31
0.0
  0
LINE
  5
37F
330
1F
100
AcDbEntity
  8
LAY-1
  6
CONTINUOUS
 62
     3
100
AcDbLine
 10
101.5001210000001
 20
47.27907262077303
 30
0.0
 11
101.5001210000001
 21
39.27907262077303
 31
0.0
  0
ARC
  5
380
330
1F
100
AcDbEntity
  8
LAY-1
  6
CONTINUOUS
 62
     3
100
AcDbCircle
 10
102.5001210000001
 20
39.27907262077303
 30
0.0
 40
1.0
100
AcDbArc
 50
180.0000176000941
 51
269.9999988761261
  0
ARC
  5
381
330
1F
100
AcDbEntity
  8
LAY-1
  6
CONTINUOUS
 62
     3
100
AcDbCircle
 10
91.50012100000015
 20
51.27907262077303
 30
0.0
 40
13.00000000000001
100
AcDbArc
 50
180.0000176000938
 51
269.9999988761256
  0
LINE
  5
382
330
1F
100
AcDbEntity
  8
LAY-1
  6
CONTINUOUS
 62
     3
100
AcDbLine
 10
101.5001210000001
 20
170.279087620773
 30
0.0
 11
74.00015200000018
 21
170.279087620773
 31
0.0
  0
LINE
  5
383
330
1F
100
AcDbEntity
  8
LAY-1
  6
CONTINUOUS
 62
     3
100
AcDbLine
 10
107.5000910000002
 20
205.779057620773
 30
0.0
 11
118.5000910000002
 21
205.779057620773
 31
0.0
  0
LINE
  5
384
330
1F
100
AcDbEntity
  8
LAY-1
  6
CONTINUOUS
 62
     3
100
AcDbLine
 10
181.500026290541
 20
220.2790562845012
 30
0.0
 11
201.5000910000001
 21
220.2790562845012
 31
0.0
  0
LINE
  5
385
330
1F
100
AcDbEntity
  8
LAY-1
  6
CONTINUOUS
 62
     3
100
AcDbLine
 10
221.5001557094591
 20
220.2790562845012
 30
0.0
 11
201.500091
 21
220.2790562845012
 31
0.0
  0
LINE
  5
386
330
1F
100
AcDbEntity
  8
LAY-1
  6
CONTINUOUS
 62
     3
100
AcDbLine
 10
190.5000910000001
 20
222.929072620774
 30
0.0
 11
190.5000910000001
 21
220.279056284503
 31
0.0
  0
LINE
  5
387
330
1F
100
AcDbEntity
  8
LAY-1
  6
CONTINUOUS
 62
     3
100
AcDbLine
 10
212.500091
 20
222.929072620774
 30
0.0
 11
212.500091
 21
220.279056284503
 31
0.0
  0
LINE
  5
388
330
1F
100
AcDbEntity
  8
LAY-1
  6
CONTINUOUS
 62
     3
100
AcDbLine
 10
199.500091
 20
229.279072620773
 30
0.0
 11
199.500091
 21
220.279056284503
 31
0.0
  0
LINE
  5
389
330
1F
100
AcDbEntity
  8
LAY-1
  6
CONTINUOUS
 62
     3
100
AcDbLine
 10
203.500091
 20
229.279072620773
 30
0.0
 11
203.500091
 21
220.279056284503
 31
0.0
  0
LINE
  5
38A
330
1F
100
AcDbEntity
  8
LAY-1
  6
CONTINUOUS
 62
     3
100
AcDbLine
 10
212.500091
 20
222.929072620774
 30
0.0
 11
212.500091
 21
220.2790562845012
 31
0.0
  0
LINE
  5
38B
330
1F
100
AcDbEntity
  8
LAY-1
  6
CONTINUOUS
 62
     3
100
AcDbLine
 10
190.5000910000001
 20
222.929072620774
 30
0.0
 11
190.5000910000001
 21
220.2790562845012
 31
0.0
  0
LINE
  5
38C
330
1F
100
AcDbEntity
  8
LAY-1
  6
CONTINUOUS
 62
     3
100
AcDbLine
 10
203.500091
 20
229.279072620773
 30
0.0
 11
203.500091
 21
220.2790562845012
 31
0.0
  0
LINE
  5
38D
330
1F
100
AcDbEntity
  8
LAY-1
  6
CONTINUOUS
 62
     1
100
AcDbLine
 10
197.3685081835148
 20
220.2790562845019
 30
0.0
 11
197.996143631579
 21
222.929072620773
 31
0.0
  0
LINE
  5
38E
330
1F
100
AcDbEntity
  8
LAY-1
  6
CONTINUOUS
 62
     1
100
AcDbLine
 10
192.0040383684211
 20
222.929072620773
 30
0.0
 11
192.6316738164853
 21
220.2790562845019
 31
0.0
  0
LINE
  5
38F
330
1F
100
AcDbEntity
  8
LAY-1
  6
CONTINUOUS
 62
     1
100
AcDbLine
 10
205.0040383684211
 20
222.929072620773
 30
0.0
 11
205.6316738164853
 21
220.2790562845019
 31
0.0
  0
LINE
  5
390
330
1F
100
AcDbEntity
  8
LAY-1
  6
CONTINUOUS
 62
     1
100
AcDbLine
 10
210.3685081835148
 20
220.2790562845019
 30
0.0
 11
210.996143631579
 21
222.929072620773
 31
0.0
  0
LINE
  5
391
330
1F
100
AcDbEntity
  8
LAY-1
  6
CONTINUOUS
 62
     1
100
AcDbLine
 10
205.0040383684212
 20
222.929072620773
 30
0.0
 11
205.6316738164854
 21
220.2790562845019
 31
0.0
  0
LINE
  5
392
330
1F
100
AcDbEntity
  8
LAY-1
  6
CONTINUOUS
 62
     3
100
AcDbLine
 10
201.5000910000001
 20
70.279087620773
 30
0.0
 11
186.2072450000001
 21
70.279087620773
 31
0.0
  0
LINE
  5
393
330
1F
100
AcDbEntity
  8
LAY-1
  6
CONTINUOUS
 62
     3
100
AcDbLine
 10
201.500091
 20
70.279087620773
 30
0.0
 11
216.792938
 21
70.279087620773
 31
0.0
  0
LINE
  5
394
330
1F
100
AcDbEntity
  8
LAY-1
  6
CONTINUOUS
 62
     3
100
AcDbLine
 10
193.03952
 20
65.53909062077298
 30
0.0
 11
193.2050390602788
 21
70.27908762077311
 31
0.0
  0
LINE
  5
395
330
1F
100
AcDbEntity
  8
LAY-1
  6
CONTINUOUS
 62
     1
100
AcDbLine
 10
193.82962
 20
65.53909062077298
 30
0.0
 11
193.9951471231731
 21
70.27908762077288
 31
0.0
  0
LINE
  5
396
330
1F
100
AcDbEntity
  8
LAY-1
  6
CONTINUOUS
 62
     3
100
AcDbLine
 10
193.0396420000001
 20
65.53909062077298
 30
0.0
 11
193.2051610602788
 21
70.27908762077311
 31
0.0
  0
LINE
  5
397
330
1F
100
AcDbEntity
  8
LAY-1
  6
CONTINUOUS
 62
     1
100
AcDbLine
 10
193.8294980000001
 20
65.53909062077298
 30
0.0
 11
193.9950251231731
 21
70.27908762077288
 31
0.0
  0
LINE
  5
398
330
1F
100
AcDbEntity
  8
LAY-1
  6
CONTINUOUS
 62
     1
100
AcDbLine
 10
209.170562
 20
65.53909062077298
 30
0.0
 11
209.0050348768269
 21
70.279087620773
 31
0.0
  0
LINE
  5
399
330
1F
100
AcDbEntity
  8
LAY-1
  6
CONTINUOUS
 62
     1
100
AcDbLine
 10
209.170685
 20
65.53909062077298
 30
0.0
 11
209.0051574768272
 21
70.279087620773
 31
0.0
  0
LINE
  5
39A
330
1F
100
AcDbEntity
  8
LAY-1
  6
CONTINUOUS
 62
     3
100
AcDbLine
 10
209.96054
 20
65.53909062077298
 30
0.0
 11
209.7950213697661
 21
70.279087620773
 31
0.0
  0
LINE
  5
39B
330
1F
100
AcDbEntity
  8
LAY-1
  6
CONTINUOUS
 62
     3
100
AcDbLine
 10
209.9606630000001
 20
65.53909062077298
 30
0.0
 11
209.7951439397214
 21
70.279087620773
 31
0.0
  0
LINE
  5
39C
330
1F
100
AcDbEntity
  8
LAY-1
  6
EXLTYPE3
 62
     1
100
AcDbLine
 10
324.209381
 20
54.27907262077303
 30
0.0
 11
348.5042050000001
 21
54.27907262077303
 31
0.0
  0
CIRCLE
  5
39D
330
1F
100
AcDbEntity
  8
LAY-1
  6
CONTINUOUS
 62
     3
100
AcDbCircle
 10
201.500091
 20
143.279072620773
 30
0.0
 40
62.5
  0
CIRCLE
  5
39E
330
1F
100
AcDbEntity
  8
LAY-1
  6
EXLTYPE5
 62
     1
100
AcDbCircle
 10
201.500091
 20
143.279072620773
 30
0.0
 40
45.0
  0
CIRCLE
  5
39F
330
1F
100
AcDbEntity
  8
LAY-1
  6
CONTINUOUS
 62
     3
100
AcDbCircle
 10
169.68028584661
 20
175.098877774173
 30
0.0
 40
9.5
  0
CIRCLE
  5
3A0
330
1F
100
AcDbEntity
  8
LAY-1
  6
CONTINUOUS
 62
     3
100
AcDbCircle
 10
233.3198961533901
 20
175.098877774173
 30
0.0
 40
9.5
  0
CIRCLE
  5
3A1
330
1F
100
AcDbEntity
  8
LAY-1
  6
CONTINUOUS
 62
     3
100
AcDbCircle
 10
233.3198961533906
 20
111.4592674673748
 30
0.0
 40
9.5
  0
CIRCLE
  5
3A2
330
1F
100
AcDbEntity
  8
LAY-1
  6
CONTINUOUS
 62
     3
100
AcDbCircle
 10
169.6802858466104
 20
111.4592674673741
 30
0.0
 40
9.5
  0
CIRCLE
  5
3A3
330
1F
100
AcDbEntity
  8
LAY-1
  6
CONTINUOUS
 62
     3
100
AcDbCircle
 10
201.500091
 20
143.279072620773
 30
0.0
 40
33.5
  0
CIRCLE
  5
3A4
330
1F
100
AcDbEntity
  8
LAY-1
  6
CONTINUOUS
 62
     3
100
AcDbCircle
 10
201.500091
 20
143.279072620773
 30
0.0
 40
12.5
  0
LINE
  5
3A5
330
1F
100
AcDbEntity
  8
LAY-1
  6
EXLTYPE5
 62
     1
100
AcDbLine
 10
245.6942648241588
 20
187.4732464449327
 30
0.0
 11
225.1881681697489
 21
166.9671497905228
 31
0.0
  0
LINE
  5
3A6
330
1F
100
AcDbEntity
  8
LAY-1
  6
EXLTYPE5
 62
     1
100
AcDbLine
 10
157.3059171758413
 20
187.4732464449327
 30
0.0
 11
177.8120138302512
 21
166.9671497905229
 31
0.0
  0
LINE
  5
3A7
330
1F
100
AcDbEntity
  8
LAY-1
  6
EXLTYPE5
 62
     1
100
AcDbLine
 10
157.3059171758409
 20
99.08489879661366
 30
0.0
 11
176.39780026788
 21
118.176781888653
 31
0.0
  0
LINE
  5
3A8
330
1F
100
AcDbEntity
  8
LAY-1
  6
EXLTYPE5
 62
     1
100
AcDbLine
 10
245.69426482416
 20
99.08489879661454
 30
0.0
 11
225.1881681697506
 21
119.5909954510236
 31
0.0
  0
LINE
  5
3A9
330
1F
100
AcDbEntity
  8
LAY-1
  6
CONTINUOUS
 62
     3
100
AcDbLine
 10
169.000091
 20
200.2790726207729
 30
0.0
 11
169.000091
 21
196.6644638809296
 31
0.0
  0
LINE
  5
3AA
330
1F
100
AcDbEntity
  8
LAY-1
  6
CONTINUOUS
 62
     3
100
AcDbLine
 10
234.0000910000002
 20
200.279072620773
 30
0.0
 11
234.0000910000002
 21
196.6644638809295
 31
0.0
  0
LINE
  5
3AB
330
1F
100
AcDbEntity
  8
LAY-1
  6
CONTINUOUS
 62
     3
100
AcDbLine
 10
234.0000910000002
 20
200.2790726207753
 30
0.0
 11
227.1369784865836
 21
200.2790726207753
 31
0.0
  0
LINE
  5
3AC
330
1F
100
AcDbEntity
  8
LAY-1
  6
CONTINUOUS
 62
     3
100
AcDbLine
 10
169.000091
 20
200.2790726207752
 30
0.0
 11
175.8632035134164
 21
200.2790726207752
 31
0.0
  0
LINE
  5
3AD
330
1F
100
AcDbEntity
  8
LAY-1
  6
CONTINUOUS
 62
     3
100
AcDbLine
 10
181.500026290541
 20
202.4926471760847
 30
0.0
 11
181.500026290541
 21
220.2790562845012
 31
0.0
  0
LINE
  5
3AE
330
1F
100
AcDbEntity
  8
LAY-1
  6
CONTINUOUS
 62
     3
100
AcDbLine
 10
221.5001557094591
 20
202.4926471760847
 30
0.0
 11
221.5001557094591
 21
220.2790562845012
 31
0.0
  0
LINE
  5
3AF
330
1F
100
AcDbEntity
  8
LAY-1
  6
CONTINUOUS
 62
     3
100
AcDbLine
 10
276.5000610000001
 20
160.279087620773
 30
0.0
 11
261.6436649709553
 21
160.279087620773
 31
0.0
  0
LINE
  5
3B0
330
1F
100
AcDbEntity
  8
LAY-1
  6
CONTINUOUS
 62
     3
100
AcDbLine
 10
281.5000610000001
 20
170.279087620773
 30
0.0
 11
257.8671841483945
 21
170.279087620773
 31
0.0
  0
LINE
  5
3B1
330
1F
100
AcDbEntity
  8
LAY-1
  6
CONTINUOUS
 62
     3
100
AcDbLine
 10
254.0000610000001
 20
177.1907689805705
 30
0.0
 11
254.0000610000001
 21
179.279087620773
 31
0.0
  0
LINE
  5
3B2
330
1F
100
AcDbEntity
  8
LAY-1
  6
CONTINUOUS
 62
     3
100
AcDbLine
 10
121.5001210000001
 20
170.279087620773
 30
0.0
 11
145.1329978516055
 21
170.279087620773
 31
0.0
  0
LINE
  5
3B3
330
1F
100
AcDbEntity
  8
LAY-1
  6
CONTINUOUS
 62
     3
100
AcDbLine
 10
149.0001210000001
 20
177.1907689805706
 30
0.0
 11
149.0001210000001
 21
179.279087620773
 31
0.0
  0
LINE
  5
3B4
330
1F
100
AcDbEntity
  8
LAY-1
  6
CONTINUOUS
 62
     3
100
AcDbLine
 10
155.0001210000001
 20
101.517813180963
 30
0.0
 11
155.0001210000001
 21
99.27907262077304
 31
0.0
  0
LINE
  5
3B5
330
1F
100
AcDbEntity
  8
LAY-1
  6
CONTINUOUS
 62
     3
100
AcDbLine
 10
149.2250360000002
 20
103.526387620773
 30
0.0
 11
153.27173797721
 21
103.526387620773
 31
0.0
  0
ARC
  5
3B6
330
1F
100
AcDbEntity
  8
LAY-1
  6
CONTINUOUS
 62
     3
100
AcDbCircle
 10
158.5795280000002
 20
107.278233620773
 30
0.0
 40
10.07909
100
AcDbArc
 50
166.1564624553216
 51
201.8544040755485
  0
LINE
  5
3B7
330
1F
100
AcDbEntity
  8
LAY-1
  6
CONTINUOUS
 62
     3
100
AcDbLine
 10
147.8135233828126
 20
111.2790342225904
 30
0.0
 11
145.7001950000001
 21
111.279057620773
 31
0.0
  0
LINE
  5
3B8
330
1F
100
AcDbEntity
  8
LAY-1
  6
CONTINUOUS
 62
     3
100
AcDbLine
 10
148.5001210000001
 20
110.1542604703757
 30
0.0
 11
148.5001210000001
 21
101.029118620773
 31
0.0
  0
LINE
  5
3B9
330
1F
100
AcDbEntity
  8
LAY-1
  6
CONTINUOUS
 62
     1
100
AcDbLine
 10
148.2222687418943
 20
110.603031620773
 30
0.0
 11
145.3046870000002
 21
110.603031620773
 31
0.0
  0
LINE
  5
3BA
330
1F
100
AcDbEntity
  8
LAY-1
  6
EXLTYPE2
 62
     1
100
AcDbLine
 10
152.964205
 20
107.279072620773
 30
0.0
 11
141.9244990000002
 21
107.279072620773
 31
0.0
  0
LINE
  5
3BB
330
1F
100
AcDbEntity
  8
LAY-1
  6
CONTINUOUS
 62
     3
100
AcDbLine
 10
157.11259276007
 20
99.27907262077304
 30
0.0
 11
155.822082
 21
99.27907262077304
 31
0.0
  0
ARC
  5
3BC
330
1F
100
AcDbEntity
  8
LAY-1
  6
CONTINUOUS
 62
     3
100
AcDbCircle
 10
247.1781000000001
 20
94.27907262077304
 30
0.0
 40
5.0
100
AcDbArc
 50
44.99999063801555
 51
89.99998127603172
  0
LINE
  5
3BD
330
1F
100
AcDbEntity
  8
LAY-1
  6
CONTINUOUS
 62
     3
100
AcDbLine
 10
253.7751460000001
 20
99.773503620773
 30
0.0
 11
248.0000610000001
 21
99.773503620773
 31
0.0
  0
LINE
  5
3BE
330
1F
100
AcDbEntity
  8
LAY-1
  6
CONTINUOUS
 62
     3
100
AcDbLine
 10
254.5000610000001
 20
101.029118620773
 30
0.0
 11
253.7751460000001
 21
99.773503620773
 31
0.0
  0
ARC
  5
3BF
330
1F
100
AcDbEntity
  8
LAY-1
  6
CONTINUOUS
 62
     3
100
AcDbCircle
 10
249.691223
 20
100.987614620773
 30
0.0
 40
4.809198
100
AcDbArc
 50
0.4944625771980151
 51
31.86716772004249
  0
LINE
  5
3C0
330
1F
100
AcDbEntity
  8
LAY-1
  6
CONTINUOUS
 62
     3
100
AcDbLine
 10
257.2999870000001
 20
103.279057620773
 30
0.0
 11
257.2999870000001
 21
111.279057620773
 31
0.0
  0
ARC
  5
3C1
330
1F
100
AcDbEntity
  8
LAY-1
  6
CONTINUOUS
 62
     3
100
AcDbCircle
 10
251.2321770000001
 20
107.279301620773
 30
0.0
 40
7.267864
100
AcDbArc
 50
326.605022719147
 51
33.39196270013049
  0
LINE
  5
3C2
330
1F
100
AcDbEntity
  8
LAY-1
  6
CONTINUOUS
 62
     3
100
AcDbLine
 10
254.5000610000001
 20
103.279118620773
 30
0.0
 11
257.2999870000001
 21
103.279087620773
 31
0.0
  0
LINE
  5
3C3
330
1F
100
AcDbEntity
  8
LAY-1
  6
CONTINUOUS
 62
     1
100
AcDbLine
 10
254.5000610000001
 20
103.955113620773
 30
0.0
 11
257.6954950000001
 21
103.955113620773
 31
0.0
  0
LINE
  5
3C4
330
1F
100
AcDbEntity
  8
LAY-1
  6
CONTINUOUS
 62
     3
100
AcDbLine
 10
248.0000610000001
 20
101.517813180963
 30
0.0
 11
248.0000610000001
 21
99.27907262077304
 31
0.0
  0
LINE
  5
3C5
330
1F
100
AcDbEntity
  8
LAY-1
  6
CONTINUOUS
 62
     3
100
AcDbLine
 10
253.7751460000001
 20
103.526387620773
 30
0.0
 11
249.7284440227901
 21
103.526387620773
 31
0.0
  0
ARC
  5
3C6
330
1F
100
AcDbEntity
  8
LAY-1
  6
CONTINUOUS
 62
     3
100
AcDbCircle
 10
244.420654
 20
107.278233620773
 30
0.0
 40
10.07909
100
AcDbArc
 50
338.1455959244515
 51
13.84353754467842
  0
LINE
  5
3C7
330
1F
100
AcDbEntity
  8
LAY-1
  6
CONTINUOUS
 62
     3
100
AcDbLine
 10
255.1866586171876
 20
111.2790342225904
 30
0.0
 11
257.2999870000001
 21
111.279057620773
 31
0.0
  0
LINE
  5
3C8
330
1F
100
AcDbEntity
  8
LAY-1
  6
CONTINUOUS
 62
     3
100
AcDbLine
 10
254.5000610000001
 20
110.1542604703757
 30
0.0
 11
254.5000610000001
 21
101.029118620773
 31
0.0
  0
LINE
  5
3C9
330
1F
100
AcDbEntity
  8
LAY-1
  6
CONTINUOUS
 62
     1
100
AcDbLine
 10
254.777913258106
 20
110.603031620773
 30
0.0
 11
257.6954950000001
 21
110.603031620773
 31
0.0
  0
LINE
  5
3CA
330
1F
100
AcDbEntity
  8
LAY-1
  6
EXLTYPE2
 62
     1
100
AcDbLine
 10
250.0359770000001
 20
107.279072620773
 30
0.0
 11
261.075683
 21
107.279072620773
 31
0.0
  0
LINE
  5
3CB
330
1F
100
AcDbEntity
  8
LAY-1
  6
CONTINUOUS
 62
     3
100
AcDbLine
 10
245.8875892399301
 20
99.27907262077304
 30
0.0
 11
247.1781000000002
 21
99.27907262077304
 31
0.0
  0
ARC
  5
3CC
330
1F
100
AcDbEntity
  8
LAY-1
  6
CONTINUOUS
 62
     3
100
AcDbCircle
 10
198.2469780000001
 20
92.27788262077297
 30
0.0
 40
16.997299
100
AcDbArc
 50
211.7203671728757
 51
216.2186301345658
  0
ARC
  5
3CD
330
1F
100
AcDbEntity
  8
LAY-1
  6
CONTINUOUS
 62
     3
100
AcDbCircle
 10
204.7532040000001
 20
92.27788262077297
 30
0.0
 40
16.997299
100
AcDbArc
 50
323.7813721131835
 51
328.2796328271244
  0
LINE
  5
3CE
330
1F
100
AcDbEntity
  8
LAY-1
  6
CONTINUOUS
 62
     3
100
AcDbLine
 10
541.8474789999999
 20
161.222020620773
 30
0.0
 11
550.505072
 21
159.779072620773
 31
0.0
  0
LINE
  5
3CF
330
1F
100
AcDbEntity
  8
LAY-1
  6
CONTINUOUS
 62
     3
100
AcDbLine
 10
541.8474789999999
 20
125.336125620773
 30
0.0
 11
550.505072
 21
126.779072620773
 31
0.0
  0
LINE
  5
3D0
330
1F
100
AcDbEntity
  8
LAY-1
  6
CONTINUOUS
 62
     3
100
AcDbLine
 10
677.1626650000002
 20
161.222020620773
 30
0.0
 11
668.505072
 21
159.779072620773
 31
0.0
  0
LINE
  5
3D1
330
1F
100
AcDbEntity
  8
LAY-1
  6
CONTINUOUS
 62
     3
100
AcDbLine
 10
677.1626650000002
 20
125.336125620773
 30
0.0
 11
668.505072
 21
126.779072620773
 31
0.0
  0
LINE
  5
3D2
330
1F
100
AcDbEntity
  8
LAY-1
  6
CONTINUOUS
 62
     3
100
AcDbLine
 10
655.431952
 20
126.779072620773
 30
0.0
 11
668.505072
 21
126.779072620773
 31
0.0
  0
ARC
  5
3D3
330
1F
100
AcDbEntity
  8
LAY-1
  6
CONTINUOUS
 62
     3
100
AcDbCircle
 10
655.431952
 20
116.779072620773
 30
0.0
 40
10.0
100
AcDbArc
 50
89.99998127603166
 51
174.9999317612953
  0
LINE
  5
3D4
330
1F
100
AcDbEntity
  8
LAY-1
  6
CONTINUOUS
 62
     3
100
AcDbLine
 10
668.5051330000002
 20
38.27907262077303
 30
0.0
 11
609.5051330000002
 21
38.27907262077303
 31
0.0
  0
LINE
  5
3D5
330
1F
100
AcDbEntity
  8
LAY-1
  6
CONTINUOUS
 62
     3
100
AcDbLine
 10
642.505072
 20
48.27907262077303
 30
0.0
 11
668.5051330000002
 21
48.27907262077303
 31
0.0
  0
LINE
  5
3D6
330
1F
100
AcDbEntity
  8
LAY-1
  6
CONTINUOUS
 62
     3
100
AcDbLine
 10
669.5051330000002
 20
39.27907262077303
 30
0.0
 11
669.5051330000002
 21
47.27907262077303
 31
0.0
  0
LINE
  5
3D7
330
1F
100
AcDbEntity
  8
LAY-1
  6
EXLTYPE2
 62
     1
100
AcDbLine
 10
659.5051330000002
 20
30.27477762077296
 30
0.0
 11
659.5051330000002
 21
58.10503062077304
 31
0.0
  0
ARC
  5
3D8
330
1F
100
AcDbEntity
  8
LAY-1
  6
CONTINUOUS
 62
     3
100
AcDbCircle
 10
629.5051330000002
 20
51.27907262077303
 30
0.0
 40
13.00000000000001
100
AcDbArc
 50
270.0000011238745
 51
359.9999823999061
  0
ARC
  5
3D9
330
1F
100
AcDbEntity
  8
LAY-1
  6
CONTINUOUS
 62
     3
100
AcDbCircle
 10
668.5051330000002
 20
47.27907262077303
 30
0.0
 40
1.0
100
AcDbArc
 50
359.9999823999061
 51
90.00002097171735
  0
ARC
  5
3DA
330
1F
100
AcDbEntity
  8
LAY-1
  6
CONTINUOUS
 62
     3
100
AcDbCircle
 10
668.5051330000002
 20
39.27907262077303
 30
0.0
 40
1.0
100
AcDbArc
 50
270.0000011238745
 51
359.9999823999061
  0
LINE
  5
3DB
330
1F
100
AcDbEntity
  8
LAY-1
  6
CONTINUOUS
 62
     3
100
AcDbLine
 10
550.5051330000002
 20
38.27907262077303
 30
0.0
 11
609.5051330000002
 21
38.27907262077303
 31
0.0
  0
LINE
  5
3DC
330
1F
100
AcDbEntity
  8
LAY-1
  6
CONTINUOUS
 62
     3
100
AcDbLine
 10
576.5051940000002
 20
48.27907262077303
 30
0.0
 11
550.5051330000002
 21
48.27907262077303
 31
0.0
  0
LINE
  5
3DD
330
1F
100
AcDbEntity
  8
LAY-1
  6
CONTINUOUS
 62
     3
100
AcDbLine
 10
549.5051330000002
 20
39.27907262077303
 30
0.0
 11
549.5051330000002
 21
47.27907262077303
 31
0.0
  0
LINE
  5
3DE
330
1F
100
AcDbEntity
  8
LAY-1
  6
EXLTYPE2
 62
     1
100
AcDbLine
 10
559.5051330000002
 20
30.27477762077296
 30
0.0
 11
559.5051330000002
 21
58.10503062077304
 31
0.0
  0
ARC
  5
3DF
330
1F
100
AcDbEntity
  8
LAY-1
  6
CONTINUOUS
 62
     3
100
AcDbCircle
 10
589.5051330000002
 20
51.27907262077303
 30
0.0
 40
13.00000000000001
100
AcDbArc
 50
180.0000198478429
 51
270.0000011238745
  0
ARC
  5
3E0
330
1F
100
AcDbEntity
  8
LAY-1
  6
CONTINUOUS
 62
     3
100
AcDbCircle
 10
550.5051330000002
 20
47.27907262077303
 30
0.0
 40
1.0
100
AcDbArc
 50
89.99998127603166
 51
180.0000198478429
  0
ARC
  5
3E1
330
1F
100
AcDbEntity
  8
LAY-1
  6
CONTINUOUS
 62
     3
100
AcDbCircle
 10
550.5051330000002
 20
39.27907262077303
 30
0.0
 40
1.0
100
AcDbArc
 50
180.0000198478429
 51
270.0000011238745
  0
LINE
  5
3E2
330
1F
100
AcDbEntity
  8
LAY-1
  6
CONTINUOUS
 62
     3
100
AcDbLine
 10
556.5050498680733
 20
245.2790554720013
 30
0.0
 11
579.5050883362582
 21
205.4418489235732
 31
0.0
  0
LINE
  5
3E3
330
1F
100
AcDbEntity
  8
LAY-1
  6
CONTINUOUS
 62
     3
100
AcDbLine
 10
573.0804401790464
 20
216.5697544442692
 30
0.0
 11
581.7407327080442
 21
221.5697281379791
 31
0.0
  0
ARC
  5
3E4
330
1F
100
AcDbEntity
  8
LAY-1
  6
CONTINUOUS
 62
     3
100
AcDbCircle
 10
539.1845484702052
 20
235.2790636401382
 30
0.0
 40
19.99999935
100
AcDbArc
 50
29.99999300942715
 51
90.00001872396828
  0
ARC
  5
3E5
330
1F
100
AcDbEntity
  8
LAY-1
  6
CONTINUOUS
 62
     3
100
AcDbCircle
 10
539.1845484702052
 20
235.2791028558231
 30
0.0
 40
29.99999902500001
100
AcDbArc
 50
30.00005030520712
 51
90.00001872396828
  0
LINE
  5
3E6
330
1F
100
AcDbEntity
  8
LAY-1
  6
CONTINUOUS
 62
     3
100
AcDbLine
 10
582.4858385661813
 20
220.2790562845012
 30
0.0
 11
565.1653253568192
 21
250.279095982146
 31
0.0
  0
LINE
  5
3E7
330
1F
100
AcDbEntity
  8
LAY-1
  6
CONTINUOUS
 62
     3
100
AcDbLine
 10
541.8474789999997
 20
125.336125620773
 30
0.0
 11
550.5050719999998
 21
126.779072620773
 31
0.0
  0
LINE
  5
3E8
330
1F
100
AcDbEntity
  8
LAY-1
  6
CONTINUOUS
 62
     3
100
AcDbLine
 10
470.505072
 20
255.279005473803
 30
0.0
 11
470.505072
 21
265.2790380097646
 31
0.0
  0
LINE
  5
3E9
330
1F
100
AcDbEntity
  8
LAY-1
  6
CONTINUOUS
 62
     3
100
AcDbLine
 10
470.505072
 20
265.2790380097646
 30
0.0
 11
539.18453084852
 21
265.2790783514019
 31
0.0
  0
LINE
  5
3EA
330
1F
100
AcDbEntity
  8
LAY-1
  6
CONTINUOUS
 62
     3
100
AcDbLine
 10
470.505072
 20
255.2790054738002
 30
0.0
 11
539.1845484702052
 21
255.2790054738002
 31
0.0
  0
LINE
  5
3EB
330
1F
100
AcDbEntity
  8
LAY-1
  6
EXLTYPE5
 62
     1
100
AcDbLine
 10
702.604144
 20
143.2790726207745
 30
0.0
 11
518.404144
 21
143.2790726207745
 31
0.0
  0
ARC
  5
3EC
330
1F
100
AcDbEntity
  8
LAY-1
  6
CONTINUOUS
 62
     3
100
AcDbCircle
 10
646.005072
 20
179.279087620773
 30
0.0
 40
1.0
100
AcDbArc
 50
359.9999823999061
 51
90.00002097171735
  0
LINE
  5
3ED
330
1F
100
AcDbEntity
  8
LAY-1
  6
CONTINUOUS
 62
     3
100
AcDbLine
 10
594.5051330000002
 20
207.279118620773
 30
0.0
 11
594.5051330000002
 21
191.279103620773
 31
0.0
  0
LINE
  5
3EE
330
1F
100
AcDbEntity
  8
LAY-1
  6
CONTINUOUS
 62
     3
100
AcDbLine
 10
609.5051030000001
 20
209.279118620773
 30
0.0
 11
596.5051330000002
 21
209.279118620773
 31
0.0
  0
LINE
  5
3EF
330
1F
100
AcDbEntity
  8
LAY-1
  6
CONTINUOUS
 62
     3
100
AcDbLine
 10
599.5051030000001
 20
189.279103620773
 30
0.0
 11
596.5051330000002
 21
189.279103620773
 31
0.0
  0
LINE
  5
3F0
330
1F
100
AcDbEntity
  8
LAY-1
  6
CONTINUOUS
 62
     3
100
AcDbLine
 10
609.5051030000001
 20
209.279118620773
 30
0.0
 11
622.5051330000002
 21
209.279118620773
 31
0.0
  0
LINE
  5
3F1
330
1F
100
AcDbEntity
  8
LAY-1
  6
CONTINUOUS
 62
     3
100
AcDbLine
 10
619.5051030000001
 20
189.279103620773
 30
0.0
 11
622.5051330000002
 21
189.279103620773
 31
0.0
  0
LINE
  5
3F2
330
1F
100
AcDbEntity
  8
LAY-1
  6
CONTINUOUS
 62
     3
100
AcDbLine
 10
624.5051330000002
 20
207.279118620773
 30
0.0
 11
624.5051330000002
 21
191.279103620773
 31
0.0
  0
LINE
  5
3F3
330
1F
100
AcDbEntity
  8
LAY-1
  6
CONTINUOUS
 62
     3
100
AcDbLine
 10
623.2461000000002
 20
219.279118620773
 30
0.0
 11
595.7641050000001
 21
219.279118620773
 31
0.0
  0
ARC
  5
3F4
330
1F
100
AcDbEntity
  8
LAY-1
  6
CONTINUOUS
 62
     3
100
AcDbCircle
 10
617.0650390000002
 20
218.719120620773
 30
0.0
 40
0.56
100
AcDbArc
 50
89.99998127603166
 51
180.0000198478429
  0
ARC
  5
3F5
330
1F
100
AcDbEntity
  8
LAY-1
  6
CONTINUOUS
 62
     3
100
AcDbCircle
 10
601.9449830000002
 20
218.719120620773
 30
0.0
 40
0.56
100
AcDbArc
 50
0.0
 51
90.00003857181116
  0
LINE
  5
3F6
330
1F
100
AcDbEntity
  8
LAY-1
  6
CONTINUOUS
 62
     3
100
AcDbLine
 10
597.9550230000001
 20
229.079106620773
 30
0.0
 11
621.0550290000002
 21
229.079106620773
 31
0.0
  0
LINE
  5
3F7
330
1F
100
AcDbEntity
  8
LAY-1
  6
CONTINUOUS
 62
     3
100
AcDbLine
 10
621.0550290000002
 20
229.079106620773
 30
0.0
 11
623.2461000000002
 21
227.814091620773
 31
0.0
  0
ARC
  5
3F8
330
1F
100
AcDbEntity
  8
LAY-1
  6
CONTINUOUS
 62
     3
100
AcDbCircle
 10
609.5055600000002
 20
209.789433620773
 30
0.0
 40
19.289963
100
AcDbArc
 50
69.13641071569688
 51
110.8667604000192
  0
ARC
  5
3F9
330
1F
100
AcDbEntity
  8
LAY-1
  6
CONTINUOUS
 62
     3
100
AcDbCircle
 10
621.1184760000002
 20
219.549015620773
 30
0.0
 40
9.530660000000003
100
AcDbArc
 50
90.38145657602976
 51
119.8500510783163
  0
LINE
  5
3FA
330
1F
100
AcDbEntity
  8
LAY-1
  6
CONTINUOUS
 62
     3
100
AcDbLine
 10
597.9550230000001
 20
229.079106620773
 30
0.0
 11
595.7639220000002
 21
227.814091620773
 31
0.0
  0
ARC
  5
3FB
330
1F
100
AcDbEntity
  8
LAY-1
  6
CONTINUOUS
 62
     3
100
AcDbCircle
 10
597.8915770000002
 20
219.549015620773
 30
0.0
 40
9.530660000000003
100
AcDbArc
 50
60.14996876952651
 51
89.61856327181307
  0
LINE
  5
3FC
330
1F
100
AcDbEntity
  8
LAY-1
  6
CONTINUOUS
 62
     3
100
AcDbLine
 10
623.2461000000002
 20
219.279118620773
 30
0.0
 11
623.2461610000001
 21
227.814030620773
 31
0.0
  0
LINE
  5
3FD
330
1F
100
AcDbEntity
  8
LAY-1
  6
CONTINUOUS
 62
     3
100
AcDbLine
 10
616.3754030000001
 20
219.279179620773
 30
0.0
 11
616.3754030000001
 21
227.814091620773
 31
0.0
  0
LINE
  5
3FE
330
1F
100
AcDbEntity
  8
LAY-1
  6
CONTINUOUS
 62
     3
100
AcDbLine
 10
602.6345890000001
 20
219.279179620773
 30
0.0
 11
602.6345890000001
 21
227.814091620773
 31
0.0
  0
LINE
  5
3FF
330
1F
100
AcDbEntity
  8
LAY-1
  6
CONTINUOUS
 62
     3
100
AcDbLine
 10
595.7639220000002
 20
219.279118620773
 30
0.0
 11
595.763892
 21
227.814030620773
 31
0.0
  0
LINE
  5
400
330
1F
100
AcDbEntity
  8
LAY-1
  6
CONTINUOUS
 62
     3
100
AcDbLine
 10
602.5049810000002
 20
215.844731620773
 30
0.0
 11
616.505072
 21
215.844731620773
 31
0.0
  0
LINE
  5
401
330
1F
100
AcDbEntity
  8
LAY-1
  6
CONTINUOUS
 62
     1
100
AcDbLine
 10
616.505072
 20
218.994755620773
 30
0.0
 11
615.368231
 21
215.844731620773
 31
0.0
  0
LINE
  5
402
330
1F
100
AcDbEntity
  8
LAY-1
  6
CONTINUOUS
 62
     1
100
AcDbLine
 10
602.5049810000002
 20
218.994755620773
 30
0.0
 11
603.6417910000001
 21
215.844731620773
 31
0.0
  0
LINE
  5
403
330
1F
100
AcDbEntity
  8
LAY-1
  6
CONTINUOUS
 62
     3
100
AcDbLine
 10
619.5051030000001
 20
170.279087620773
 30
0.0
 11
647.005072
 21
170.279087620773
 31
0.0
  0
ARC
  5
404
330
1F
100
AcDbEntity
  8
LAY-1
  6
CONTINUOUS
 62
     3
100
AcDbCircle
 10
568.5051030000001
 20
158.2791186207733
 30
0.0
 40
1.0
100
AcDbArc
 50
0.0
 51
90.00000000000001
  0
LINE
  5
405
330
1F
100
AcDbEntity
  8
LAY-1
  6
CONTINUOUS
 62
     3
100
AcDbLine
 10
569.5051030000001
 20
152.2791186207729
 30
0.0
 11
569.5051030000001
 21
158.2791186207733
 31
0.0
  0
ARC
  5
406
330
1F
100
AcDbEntity
  8
LAY-1
  6
CONTINUOUS
 62
     3
100
AcDbCircle
 10
568.5051030000001
 20
152.2791186207729
 30
0.0
 40
1.0
100
AcDbArc
 50
270.0
 51
0.0
  0
LINE
  5
407
330
1F
100
AcDbEntity
  8
LAY-1
  6
CONTINUOUS
 62
     3
100
AcDbLine
 10
568.5051030000001
 20
151.2791186207733
 30
0.0
 11
553.5051030000001
 21
151.2791186207733
 31
0.0
  0
ARC
  5
408
330
1F
100
AcDbEntity
  8
LAY-1
  6
CONTINUOUS
 62
     3
100
AcDbCircle
 10
553.5051030000001
 20
153.2791186207733
 30
0.0
 40
2.0
100
AcDbArc
 50
180.0
 51
270.0
  0
LINE
  5
409
330
1F
100
AcDbEntity
  8
LAY-1
  6
CONTINUOUS
 62
     3
100
AcDbLine
 10
568.5051030000001
 20
159.2791186207733
 30
0.0
 11
560.5051030000001
 21
159.2791186207733
 31
0.0
  0
ARC
  5
40A
330
1F
100
AcDbEntity
  8
LAY-1
  6
CONTINUOUS
 62
     3
100
AcDbCircle
 10
560.5051030000001
 20
160.2791186207733
 30
0.0
 40
1.0
100
AcDbArc
 50
180.0
 51
270.0
  0
ARC
  5
40B
330
1F
100
AcDbEntity
  8
LAY-1
  6
CONTINUOUS
 62
     3
100
AcDbCircle
 10
579.5051030000001
 20
169.9325788611941
 30
0.0
 40
20.0
100
AcDbArc
 50
105.0000000000004
 51
179.9999999999999
  0
ARC
  5
40C
330
1F
100
AcDbEntity
  8
LAY-1
  6
CONTINUOUS
 62
     3
100
AcDbCircle
 10
579.5051030000001
 20
169.9325788611941
 30
0.0
 40
28.0
100
AcDbArc
 50
105.0000000000004
 51
179.9999999999999
  0
LINE
  5
40D
330
1F
100
AcDbEntity
  8
LAY-1
  6
CONTINUOUS
 62
     3
100
AcDbLine
 10
595.5051030000001
 20
209.2791186207731
 30
0.0
 11
609.5051030000001
 21
209.279118620773
 31
0.0
  0
ARC
  5
40E
330
1F
100
AcDbEntity
  8
LAY-1
  6
CONTINUOUS
 62
     3
100
AcDbCircle
 10
595.5051030000001
 20
208.2791186207731
 30
0.0
 40
1.0
100
AcDbArc
 50
90.00000000000001
 51
180.0
  0
ARC
  5
40F
330
1F
100
AcDbEntity
  8
LAY-1
  6
CONTINUOUS
 62
     3
100
AcDbCircle
 10
595.5051030000001
 20
190.2791186207731
 30
0.0
 40
1.0
100
AcDbArc
 50
180.0
 51
270.0
  0
LINE
  5
410
330
1F
100
AcDbEntity
  8
LAY-1
  6
CONTINUOUS
 62
     3
100
AcDbLine
 10
572.2581697371294
 20
196.9785019972879
 30
0.0
 11
593.7639220451027
 21
202.7409509608333
 31
0.0
  0
ARC
  5
411
330
1F
100
AcDbEntity
  8
LAY-1
  6
CONTINUOUS
 62
     3
100
AcDbCircle
 10
593.5051030000001
 20
203.7068767871224
 30
0.0
 40
1.0
100
AcDbArc
 50
285.0000000000004
 51
0.0
  0
LINE
  5
412
330
1F
100
AcDbEntity
  8
LAY-1
  6
CONTINUOUS
 62
     3
100
AcDbLine
 10
594.5051030000001
 20
190.2791186207731
 30
0.0
 11
594.5051030000001
 21
193.3541149830215
 31
0.0
  0
ARC
  5
413
330
1F
100
AcDbEntity
  8
LAY-1
  6
CONTINUOUS
 62
     3
100
AcDbCircle
 10
593.5051030000001
 20
193.3541149830215
 30
0.0
 40
1.0
100
AcDbArc
 50
0.0
 51
105.0000000000004
  0
LINE
  5
414
330
1F
100
AcDbEntity
  8
LAY-1
  6
CONTINUOUS
 62
     3
100
AcDbLine
 10
594.5051030000001
 20
208.2791186207731
 30
0.0
 11
594.5051030000001
 21
203.7068767871232
 31
0.0
  0
LINE
  5
415
330
1F
100
AcDbEntity
  8
LAY-1
  6
CONTINUOUS
 62
     3
100
AcDbLine
 10
572.2581697371294
 20
202.078501997288
 30
0.0
 11
593.7639220451027
 21
207.8409509608333
 31
0.0
  0
ARC
  5
416
330
1F
100
AcDbEntity
  8
LAY-1
  6
CONTINUOUS
 62
     3
100
AcDbCircle
 10
579.5051030000001
 20
175.032578861194
 30
0.0
 40
28.0
100
AcDbArc
 50
105.0000000000004
 51
179.9999999999999
  0
LINE
  5
417
330
1F
100
AcDbEntity
  8
LAY-1
  6
CONTINUOUS
 62
     3
100
AcDbLine
 10
551.5051030000001
 20
175.0325788611941
 30
0.0
 11
551.5051030000001
 21
153.2791186207733
 31
0.0
  0
LINE
  5
418
330
1F
100
AcDbEntity
  8
LAY-1
  6
CONTINUOUS
 62
     3
100
AcDbLine
 10
559.5051030000001
 20
171.0791186207731
 30
0.0
 11
559.5051030000001
 21
160.2791186207733
 31
0.0
  0
LINE
  5
419
330
1F
100
AcDbEntity
  8
LAY-1
  6
CONTINUOUS
 62
     3
100
AcDbLine
 10
593.2462839548976
 20
194.3200408093106
 30
0.0
 11
574.3287220979495
 21
189.2510953869754
 31
0.0
  0
ARC
  5
41A
330
1F
100
AcDbEntity
  8
LAY-1
  6
CONTINUOUS
 62
     3
100
AcDbCircle
 10
665.5051030000001
 20
153.2791186207731
 30
0.0
 40
2.0
100
AcDbArc
 50
270.0
 51
0.0
  0
LINE
  5
41B
330
1F
100
AcDbEntity
  8
LAY-1
  6
CONTINUOUS
 62
     3
100
AcDbLine
 10
650.5051030000001
 20
159.2791186207731
 30
0.0
 11
658.5051030000001
 21
159.2791186207731
 31
0.0
  0
ARC
  5
41C
330
1F
100
AcDbEntity
  8
LAY-1
  6
CONTINUOUS
 62
     3
100
AcDbCircle
 10
639.5051030000001
 20
169.932578861194
 30
0.0
 40
20.0
100
AcDbArc
 50
0.0
 51
74.99999999999949
  0
ARC
  5
41D
330
1F
100
AcDbEntity
  8
LAY-1
  6
CONTINUOUS
 62
     3
100
AcDbCircle
 10
639.5051030000001
 20
169.932578861194
 30
0.0
 40
28.0
100
AcDbArc
 50
0.0
 51
74.99999999999953
  0
ARC
  5
41E
330
1F
100
AcDbEntity
  8
LAY-1
  6
CONTINUOUS
 62
     3
100
AcDbCircle
 10
623.5051030000001
 20
208.279118620773
 30
0.0
 40
1.0
100
AcDbArc
 50
0.0
 51
90.00000000000001
  0
ARC
  5
41F
330
1F
100
AcDbEntity
  8
LAY-1
  6
CONTINUOUS
 62
     3
100
AcDbCircle
 10
623.5051030000001
 20
190.2791186207731
 30
0.0
 40
1.0
100
AcDbArc
 50
270.0
 51
0.0
  0
LINE
  5
420
330
1F
100
AcDbEntity
  8
LAY-1
  6
CONTINUOUS
 62
     3
100
AcDbLine
 10
624.5051030000001
 20
190.2791186207731
 30
0.0
 11
624.5051030000001
 21
193.3541149830215
 31
0.0
  0
ARC
  5
421
330
1F
100
AcDbEntity
  8
LAY-1
  6
CONTINUOUS
 62
     3
100
AcDbCircle
 10
625.5051030000001
 20
193.3541149830215
 30
0.0
 40
1.0
100
AcDbArc
 50
75.0000000000004
 51
180.0
  0
LINE
  5
422
330
1F
100
AcDbEntity
  8
LAY-1
  6
CONTINUOUS
 62
     3
100
AcDbLine
 10
624.5051030000001
 20
208.2791186207731
 30
0.0
 11
624.5051030000001
 21
203.7068767871231
 31
0.0
  0
LINE
  5
423
330
1F
100
AcDbEntity
  8
LAY-1
  6
CONTINUOUS
 62
     3
100
AcDbLine
 10
646.752036262871
 20
196.9785019972878
 30
0.0
 11
625.2462839548976
 21
202.7409509608333
 31
0.0
  0
ARC
  5
424
330
1F
100
AcDbEntity
  8
LAY-1
  6
CONTINUOUS
 62
     3
100
AcDbCircle
 10
625.5051030000001
 20
203.7068767871223
 30
0.0
 40
1.0
100
AcDbArc
 50
180.0
 51
254.9999999999989
  0
LINE
  5
425
330
1F
100
AcDbEntity
  8
LAY-1
  6
CONTINUOUS
 62
     3
100
AcDbLine
 10
646.752036262871
 20
202.0785019972878
 30
0.0
 11
625.2462839548976
 21
207.8409509608332
 31
0.0
  0
ARC
  5
426
330
1F
100
AcDbEntity
  8
LAY-1
  6
CONTINUOUS
 62
     3
100
AcDbCircle
 10
639.5051030000001
 20
175.032578861194
 30
0.0
 40
28.0
100
AcDbArc
 50
0.0
 51
74.99999999999949
  0
LINE
  5
427
330
1F
100
AcDbEntity
  8
LAY-1
  6
CONTINUOUS
 62
     3
100
AcDbLine
 10
667.5051030000001
 20
175.032578861194
 30
0.0
 11
667.5051030000001
 21
153.2791186207731
 31
0.0
  0
LINE
  5
428
330
1F
100
AcDbEntity
  8
LAY-1
  6
CONTINUOUS
 62
     3
100
AcDbLine
 10
659.5051030000001
 20
171.079118620773
 30
0.0
 11
659.5051030000001
 21
160.2791186207731
 31
0.0
  0
LINE
  5
429
330
1F
100
AcDbEntity
  8
LAY-1
  6
CONTINUOUS
 62
     3
100
AcDbLine
 10
625.7639220451025
 20
194.3200408093105
 30
0.0
 11
644.6814839020507
 21
189.2510953869753
 31
0.0
  0
LINE
  5
42A
330
1F
100
AcDbEntity
  8
LAY-1
  6
CONTINUOUS
 62
     3
100
AcDbLine
 10
623.5051030000001
 20
209.279118620773
 30
0.0
 11
609.5051030000001
 21
209.279118620773
 31
0.0
  0
LINE
  5
42B
330
1F
100
AcDbEntity
  8
LAY-1
  6
CONTINUOUS
 62
     3
100
AcDbLine
 10
644.5768997697302
 20
189.2791186207731
 30
0.0
 11
574.4333062302752
 21
189.2791186207733
 31
0.0
  0
ARC
  5
42C
330
1F
100
AcDbEntity
  8
LAY-1
  6
CONTINUOUS
 62
     3
100
AcDbCircle
 10
593.5051030000001
 20
208.8068767871223
 30
0.0
 40
1.0
100
AcDbArc
 50
285.0000000000015
 51
343.3837327452725
  0
ARC
  5
42D
330
1F
100
AcDbEntity
  8
LAY-1
  6
CONTINUOUS
 62
     3
100
AcDbCircle
 10
625.5051030000001
 20
208.8068767871223
 30
0.0
 40
1.0
100
AcDbArc
 50
196.9308453198353
 51
254.9999999999984
  0
LINE
  5
42E
330
1F
100
AcDbEntity
  8
LAY-1
  6
CONTINUOUS
 62
     3
100
AcDbLine
 10
647.005133
 20
170.279072620773
 30
0.0
 11
572.005133
 21
170.279072620773
 31
0.0
  0
LINE
  5
42F
330
1F
100
AcDbEntity
  8
LAY-1
  6
CONTINUOUS
 62
     3
100
AcDbLine
 10
647.005133
 20
168.279072620773
 30
0.0
 11
647.005133
 21
170.279072620773
 31
0.0
  0
ARC
  5
430
330
1F
100
AcDbEntity
  8
LAY-1
  6
CONTINUOUS
 62
     3
100
AcDbCircle
 10
648.005133
 20
168.279072620773
 30
0.0
 40
1.0
100
AcDbArc
 50
180.0
 51
270.0
  0
ARC
  5
431
330
1F
100
AcDbEntity
  8
LAY-1
  6
CONTINUOUS
 62
     3
100
AcDbCircle
 10
656.005133
 20
166.279072620773
 30
0.0
 40
1.0
100
AcDbArc
 50
0.0
 51
90.00000000000001
  0
LINE
  5
432
330
1F
100
AcDbEntity
  8
LAY-1
  6
CONTINUOUS
 62
     3
100
AcDbLine
 10
657.005133
 20
160.279072620773
 30
0.0
 11
657.005133
 21
166.279072620773
 31
0.0
  0
ARC
  5
433
330
1F
100
AcDbEntity
  8
LAY-1
  6
CONTINUOUS
 62
     3
100
AcDbCircle
 10
571.0051330000002
 20
168.279072620773
 30
0.0
 40
1.0
100
AcDbArc
 50
270.0
 51
0.0
  0
ARC
  5
434
330
1F
100
AcDbEntity
  8
LAY-1
  6
CONTINUOUS
 62
     3
100
AcDbCircle
 10
563.0051330000002
 20
166.279072620773
 30
0.0
 40
1.0
100
AcDbArc
 50
90.00000000000001
 51
180.0
  0
ARC
  5
435
330
1F
100
AcDbEntity
  8
LAY-1
  6
CONTINUOUS
 62
     3
100
AcDbCircle
 10
563.0051330000002
 20
166.279072620773
 30
0.0
 40
1.0
100
AcDbArc
 50
90.00000000000001
 51
180.0
  0
LINE
  5
436
330
1F
100
AcDbEntity
  8
LAY-1
  6
CONTINUOUS
 62
     3
100
AcDbLine
 10
562.0051330000002
 20
160.279072620773
 30
0.0
 11
562.0051330000002
 21
166.279072620773
 31
0.0
  0
ARC
  5
437
330
1F
100
AcDbEntity
  8
LAY-1
  6
CONTINUOUS
 62
     3
100
AcDbCircle
 10
563.0051330000002
 20
160.279072620773
 30
0.0
 40
1.0
100
AcDbArc
 50
180.0
 51
270.0
  0
LINE
  5
438
330
1F
100
AcDbEntity
  8
LAY-1
  6
CONTINUOUS
 62
     3
100
AcDbLine
 10
572.005133
 20
167.8790726207731
 30
0.0
 11
572.005133
 21
170.279072620773
 31
0.0
  0
LINE
  5
439
330
1F
100
AcDbEntity
  8
LAY-1
  6
CONTINUOUS
 62
     3
100
AcDbLine
 10
647.0051330000002
 20
168.279072620773
 30
0.0
 11
647.0051330000002
 21
170.279072620773
 31
0.0
  0
ARC
  5
43A
330
1F
100
AcDbEntity
  8
LAY-1
  6
CONTINUOUS
 62
     3
100
AcDbCircle
 10
564.0051330000002
 20
150.813726596734
 30
0.0
 40
2.0
100
AcDbArc
 50
180.0
 51
255.0000000000008
  0
LINE
  5
43B
330
1F
100
AcDbEntity
  8
LAY-1
  6
CONTINUOUS
 62
     3
100
AcDbLine
 10
575.0227710902051
 20
145.7910070071453
 30
0.0
 11
563.4874949097951
 21
148.8818749441559
 31
0.0
  0
ARC
  5
43C
330
1F
100
AcDbEntity
  8
LAY-1
  6
CONTINUOUS
 62
     3
100
AcDbCircle
 10
574.5051330000002
 20
143.8591553545671
 30
0.0
 40
2.0
100
AcDbArc
 50
0.0
 51
75.0000000000008
  0
LINE
  5
43D
330
1F
100
AcDbEntity
  8
LAY-1
  6
EXLTYPE5
 62
     1
100
AcDbLine
 10
567.005133
 20
143.2790726207731
 30
0.0
 11
634.6051330000001
 21
143.2790726207731
 31
0.0
  0
LINE
  5
43E
330
1F
100
AcDbEntity
  8
LAY-1
  6
CONTINUOUS
 62
     3
100
AcDbLine
 10
569.4133840679389
 20
147.2940377297929
 30
0.0
 11
574.0051330000002
 21
107.279072620773
 31
0.0
  0
ARC
  5
43F
330
1F
100
AcDbEntity
  8
LAY-1
  6
CONTINUOUS
 62
     3
100
AcDbCircle
 10
582.0051330000002
 20
107.279072620773
 30
0.0
 40
8.0
100
AcDbArc
 50
179.9999999999992
 51
226.5674634422035
  0
ARC
  5
440
330
1F
100
AcDbEntity
  8
LAY-1
  6
CONTINUOUS
 62
     3
100
AcDbCircle
 10
573.005072
 20
179.279087620773
 30
0.0
 40
1.0
100
AcDbArc
 50
89.99997902828592
 51
180.0000176000924
  0
LINE
  5
441
330
1F
100
AcDbEntity
  8
LAY-1
  6
CONTINUOUS
 62
     3
100
AcDbLine
 10
562.0051330000002
 20
159.279072620773
 30
0.0
 11
562.0051330000002
 21
159.2791186207733
 31
0.0
  0
LINE
  5
442
330
1F
100
AcDbEntity
  8
LAY-1
  6
CONTINUOUS
 62
     3
100
AcDbLine
 10
562.0051330000002
 20
151.2791186207733
 30
0.0
 11
562.0051330000002
 21
150.813726596734
 31
0.0
  0
LINE
  5
443
330
1F
100
AcDbEntity
  8
LAY-1
  6
CONTINUOUS
 62
     3
100
AcDbLine
 10
576.5051330000002
 20
157.279072620773
 30
0.0
 11
576.5051330000002
 21
51.27907262077303
 31
0.0
  0
ARC
  5
444
330
1F
100
AcDbEntity
  8
LAY-1
  6
CONTINUOUS
 62
     3
100
AcDbCircle
 10
574.5051330000002
 20
157.279072620773
 30
0.0
 40
2.0
100
AcDbArc
 50
0.0
 51
90.00000000000001
  0
ARC
  5
445
330
1F
100
AcDbEntity
  8
LAY-1
  6
CONTINUOUS
 62
     3
100
AcDbCircle
 10
655.0050109999996
 20
150.813726596734
 30
0.0
 40
2.0
100
AcDbArc
 50
284.999999999998
 51
0.0
  0
LINE
  5
446
330
1F
100
AcDbEntity
  8
LAY-1
  6
CONTINUOUS
 62
     3
100
AcDbLine
 10
643.9873729097948
 20
145.7910070071453
 30
0.0
 11
655.5226490902047
 21
148.8818749441559
 31
0.0
  0
ARC
  5
447
330
1F
100
AcDbEntity
  8
LAY-1
  6
CONTINUOUS
 62
     3
100
AcDbCircle
 10
644.5050109999996
 20
143.8591553545671
 30
0.0
 40
2.0
100
AcDbArc
 50
104.9999999999981
 51
180.0
  0
LINE
  5
448
330
1F
100
AcDbEntity
  8
LAY-1
  6
CONTINUOUS
 62
     3
100
AcDbLine
 10
657.0050109999996
 20
151.2791186207733
 30
0.0
 11
657.0050109999996
 21
150.813726596734
 31
0.0
  0
LINE
  5
449
330
1F
100
AcDbEntity
  8
LAY-1
  6
CONTINUOUS
 62
     3
100
AcDbLine
 10
641.4852350000002
 20
117.999272620773
 30
0.0
 11
641.485228900152
 21
117.999268576375
 31
0.0
  0
ARC
  5
44A
330
1F
100
AcDbEntity
  8
LAY-1
  6
CONTINUOUS
 62
     3
100
AcDbCircle
 10
658.505041
 20
160.2791186207733
 30
0.0
 40
1.0
100
AcDbArc
 50
270.0
 51
0.0
  0
LINE
  5
44B
330
1F
100
AcDbEntity
  8
LAY-1
  6
CONTINUOUS
 62
     3
100
AcDbLine
 10
657.0050109999996
 20
159.279072620773
 30
0.0
 11
657.0050109999996
 21
159.2791186207733
 31
0.0
  0
ARC
  5
44C
330
1F
100
AcDbEntity
  8
LAY-1
  6
CONTINUOUS
 62
     3
100
AcDbCircle
 10
656.0050109999996
 20
160.279072620773
 30
0.0
 40
1.0
100
AcDbArc
 50
270.0
 51
0.0
  0
LINE
  5
44D
330
1F
100
AcDbEntity
  8
LAY-1
  6
CONTINUOUS
 62
     3
100
AcDbLine
 10
657.0050109999996
 20
159.279072620773
 30
0.0
 11
657.0050109999996
 21
159.2791186207733
 31
0.0
  0
LINE
  5
44E
330
1F
100
AcDbEntity
  8
LAY-1
  6
CONTINUOUS
 62
     3
100
AcDbLine
 10
667.5051030000001
 20
159.779072620773
 30
0.0
 11
668.505072
 21
159.779072620773
 31
0.0
  0
LINE
  5
44F
330
1F
100
AcDbEntity
  8
LAY-1
  6
CONTINUOUS
 62
     3
100
AcDbLine
 10
657.0050110000001
 20
151.279118620773
 30
0.0
 11
657.0050110000001
 21
159.2791186207731
 31
0.0
  0
LINE
  5
450
330
1F
100
AcDbEntity
  8
LAY-1
  6
CONTINUOUS
 62
     3
100
AcDbLine
 10
657.0050110000001
 20
151.2791186207731
 30
0.0
 11
665.5051030000001
 21
151.2791186207731
 31
0.0
  0
ARC
  5
451
330
1F
100
AcDbEntity
  8
LAY-1
  6
CONTINUOUS
 62
     3
100
AcDbCircle
 10
644.5050109999999
 20
157.279072620773
 30
0.0
 40
2.0
100
AcDbArc
 50
90.00000000000001
 51
180.0
  0
LINE
  5
452
330
1F
100
AcDbEntity
  8
LAY-1
  6
CONTINUOUS
 62
     3
100
AcDbLine
 10
642.5051330000002
 20
157.279072620773
 30
0.0
 11
642.5051330000002
 21
51.27907262077303
 31
0.0
  0
LINE
  5
453
330
1F
100
AcDbEntity
  8
LAY-1
  6
CONTINUOUS
 62
     3
100
AcDbLine
 10
609.505072
 20
180.279087620773
 30
0.0
 11
573.005072
 21
180.279087620773
 31
0.0
  0
LINE
  5
454
330
1F
100
AcDbEntity
  8
LAY-1
  6
CONTINUOUS
 62
     3
100
AcDbLine
 10
609.505072
 20
180.279087620773
 30
0.0
 11
646.005072
 21
180.279087620773
 31
0.0
  0
LINE
  5
455
330
1F
100
AcDbEntity
  8
LAY-1
  6
CONTINUOUS
 62
     3
100
AcDbLine
 10
602.5049810000002
 20
180.279087620773
 30
0.0
 11
602.5049810000002
 21
189.2791186207731
 31
0.0
  0
LINE
  5
456
330
1F
100
AcDbEntity
  8
LAY-1
  6
CONTINUOUS
 62
     3
100
AcDbLine
 10
602.5049810000002
 20
209.279118620773
 30
0.0
 11
602.5049810000002
 21
218.719120620773
 31
0.0
  0
LINE
  5
457
330
1F
100
AcDbEntity
  8
LAY-1
  6
CONTINUOUS
 62
     1
100
AcDbLine
 10
603.641821
 20
180.279087620773
 30
0.0
 11
603.641821
 21
189.2791186207731
 31
0.0
  0
LINE
  5
458
330
1F
100
AcDbEntity
  8
LAY-1
  6
CONTINUOUS
 62
     1
100
AcDbLine
 10
603.641821
 20
209.279118620773
 30
0.0
 11
603.641821
 21
215.844731620773
 31
0.0
  0
LINE
  5
459
330
1F
100
AcDbEntity
  8
LAY-1
  6
CONTINUOUS
 62
     1
100
AcDbLine
 10
615.3683840000002
 20
180.279087620773
 30
0.0
 11
615.3683840000002
 21
189.2791186207731
 31
0.0
  0
LINE
  5
45A
330
1F
100
AcDbEntity
  8
LAY-1
  6
CONTINUOUS
 62
     1
100
AcDbLine
 10
615.3683840000002
 20
209.279118620773
 30
0.0
 11
615.3683840000002
 21
215.844731620773
 31
0.0
  0
LINE
  5
45B
330
1F
100
AcDbEntity
  8
LAY-1
  6
CONTINUOUS
 62
     3
100
AcDbLine
 10
616.5052250000002
 20
180.279087620773
 30
0.0
 11
616.5052250000002
 21
189.2791186207731
 31
0.0
  0
LINE
  5
45C
330
1F
100
AcDbEntity
  8
LAY-1
  6
CONTINUOUS
 62
     3
100
AcDbLine
 10
616.5052250000002
 20
209.279118620773
 30
0.0
 11
616.5052250000002
 21
218.719120620773
 31
0.0
  0
LINE
  5
45D
330
1F
100
AcDbEntity
  8
LAY-1
  6
CONTINUOUS
 62
     3
100
AcDbLine
 10
563.5781920000001
 20
126.779072620773
 30
0.0
 11
550.505072
 21
126.779072620773
 31
0.0
  0
LINE
  5
45E
330
1F
100
AcDbEntity
  8
LAY-1
  6
CONTINUOUS
 62
     3
100
AcDbLine
 10
648.0267058736221
 20
146.8733430127631
 30
0.0
 11
643.2804010000001
 21
92.62309762077302
 31
0.0
  0
ARC
  5
45F
330
1F
100
AcDbEntity
  8
LAY-1
  6
CONTINUOUS
 62
     3
100
AcDbCircle
 10
563.5781920000001
 20
116.779072620773
 30
0.0
 40
10.0
100
AcDbArc
 50
28.4833388556466
 51
90.00001872396828
  0
LINE
  5
460
330
1F
100
AcDbEntity
  8
LAY-1
  6
CONTINUOUS
 62
     3
100
AcDbLine
 10
579.5050883362582
 20
220.2790562845012
 30
0.0
 11
595.7639184852445
 21
220.2790562845012
 31
0.0
  0
LINE
  5
461
330
1F
100
AcDbEntity
  8
LAY-1
  6
CONTINUOUS
 62
     3
100
AcDbLine
 10
579.5050883362582
 20
204.020307983543
 30
0.0
 11
579.5050883362582
 21
220.279056284503
 31
0.0
  0
CIRCLE
  5
462
330
1F
100
AcDbEntity
  8
LAY-1
  6
CONTINUOUS
 62
     3
100
AcDbCircle
 10
609.50528600174
 20
54.27907262077303
 30
0.0
 40
8.460617000676606
  0
CIRCLE
  5
463
330
1F
100
AcDbEntity
  8
LAY-1
  6
CONTINUOUS
 62
     1
100
AcDbCircle
 10
609.505072
 20
54.278950620773
 30
0.0
 40
7.505111999999998
  0
CIRCLE
  5
464
330
1F
100
AcDbEntity
  8
LAY-1
  6
CONTINUOUS
 62
     3
100
AcDbCircle
 10
609.505072
 20
54.278950620773
 30
0.0
 40
15.99987800011628
  0
LINE
  5
465
330
1F
100
AcDbEntity
  8
LAY-1
  6
CONTINUOUS
 62
     3
100
AcDbLine
 10
601.99996000099
 20
54.27907262077303
 30
0.0
 11
609.505072
 21
61.78406262077305
 31
0.0
  0
LINE
  5
466
330
1F
100
AcDbEntity
  8
LAY-1
  6
CONTINUOUS
 62
     3
100
AcDbLine
 10
609.505072
 20
61.78406262077305
 30
0.0
 11
617.0101839990101
 21
54.27907262077303
 31
0.0
  0
LINE
  5
467
330
1F
100
AcDbEntity
  8
LAY-1
  6
CONTINUOUS
 62
     3
100
AcDbLine
 10
617.0101839990101
 20
54.27907262077303
 30
0.0
 11
609.505072
 21
46.77383862077306
 31
0.0
  0
LINE
  5
468
330
1F
100
AcDbEntity
  8
LAY-1
  6
CONTINUOUS
 62
     3
100
AcDbLine
 10
609.505072
 20
46.77383862077306
 30
0.0
 11
601.99996000099
 21
54.27907262077303
 31
0.0
  0
LINE
  5
469
330
1F
100
AcDbEntity
  8
LAY-1
  6
EXLTYPE3
 62
     1
100
AcDbLine
 10
588.404144
 20
54.27907262077326
 30
0.0
 11
631.0041440000001
 21
54.27907262077303
 31
0.0
  0
LINE
  5
46A
330
1F
100
AcDbEntity
  8
LAY-1
  6
EXLTYPE5
 62
     1
100
AcDbLine
 10
599.505072
 20
240.012614620773
 30
0.0
 11
599.505072
 21
202.012614620773
 31
0.0
  0
LINE
  5
46B
330
1F
100
AcDbEntity
  8
LAY-1
  6
CONTINUOUS
 62
     3
100
AcDbLine
 10
541.8474789999997
 20
161.222020620773
 30
0.0
 11
550.505072
 21
159.779072620773
 31
0.0
  0
LINE
  5
46C
330
1F
100
AcDbEntity
  8
LAY-1
  6
CONTINUOUS
 62
     3
100
AcDbLine
 10
571.005133
 20
167.279072620773
 30
0.0
 11
563.0051330000002
 21
167.279072620773
 31
0.0
  0
LINE
  5
46D
330
1F
100
AcDbEntity
  8
LAY-1
  6
CONTINUOUS
 62
     3
100
AcDbLine
 10
648.005133
 20
167.279072620773
 30
0.0
 11
656.005133
 21
167.279072620773
 31
0.0
  0
LINE
  5
46E
330
1F
100
AcDbEntity
  8
LAY-1
  6
CONTINUOUS
 62
     3
100
AcDbLine
 10
647.005072
 20
179.279087620773
 30
0.0
 11
647.005072
 21
160.279072620773
 31
0.0
  0
ARC
  5
46F
330
1F
100
AcDbEntity
  8
LAY-1
  6
CONTINUOUS
 62
     3
100
AcDbCircle
 10
646.005072
 20
160.279072620773
 30
0.0
 40
1.0
100
AcDbArc
 50
270.0
 51
0.0
  0
LINE
  5
470
330
1F
100
AcDbEntity
  8
LAY-1
  6
CONTINUOUS
 62
     3
100
AcDbLine
 10
572.005072
 20
179.279087620773
 30
0.0
 11
572.005072
 21
160.279072620773
 31
0.0
  0
ARC
  5
471
330
1F
100
AcDbEntity
  8
LAY-1
  6
CONTINUOUS
 62
     3
100
AcDbCircle
 10
573.005072
 20
160.279072620773
 30
0.0
 40
1.0
100
AcDbArc
 50
180.0
 51
270.0
  0
LINE
  5
472
330
1F
100
AcDbEntity
  8
LAY-1
  6
CONTINUOUS
 62
     3
100
AcDbLine
 10
609.505072
 20
159.279072620773
 30
0.0
 11
563.005133
 21
159.279072620773
 31
0.0
  0
LINE
  5
473
330
1F
100
AcDbEntity
  8
LAY-1
  6
CONTINUOUS
 62
     3
100
AcDbLine
 10
609.505072
 20
159.279072620773
 30
0.0
 11
650.5051030000001
 21
159.279072620773
 31
0.0
  0
LINE
  5
474
330
1F
100
AcDbEntity
  8
LAY-1
  6
EXLTYPE3
 62
     1
100
AcDbLine
 10
609.505072
 20
240.012614620773
 30
0.0
 11
609.505072
 21
29.81261462077304
 31
0.0
  0
LINE
  5
475
330
1F
100
AcDbEntity
  8
LAY-1
  6
CONTINUOUS
 62
     3
100
AcDbLine
 10
677.1626650000002
 20
161.222020620773
 30
0.0
 11
668.505072
 21
159.779072620773
 31
0.0
  0
LINE
  5
476
330
1F
100
AcDbEntity
  8
LAY-1
  6
CONTINUOUS
 62
     3
100
AcDbLine
 10
677.1626650000002
 20
125.336125620773
 30
0.0
 11
668.505072
 21
126.779072620773
 31
0.0
  0
ARC
  5
477
330
1F
100
AcDbEntity
  8
LAY-1
  6
CONTINUOUS
 62
     3
100
AcDbCircle
 10
676.505072
 20
165.167591620773
 30
0.0
 40
4.0
100
AcDbArc
 50
279.4623991104602
 51
359.9999823999061
  0
ARC
  5
478
330
1F
100
AcDbEntity
  8
LAY-1
  6
CONTINUOUS
 62
     3
100
AcDbCircle
 10
676.505072
 20
121.3905536207731
 30
0.0
 40
4.0
100
AcDbArc
 50
359.9999823999061
 51
80.5376229851318
  0
LINE
  5
479
330
1F
100
AcDbEntity
  8
LAY-1
  6
CONTINUOUS
 62
     3
100
AcDbLine
 10
680.505072
 20
143.2790726207731
 30
0.0
 11
680.505072
 21
204.7790726207732
 31
0.0
  0
LINE
  5
47A
330
1F
100
AcDbEntity
  8
LAY-1
  6
CONTINUOUS
 62
     3
100
AcDbLine
 10
681.505072
 20
205.7790726207732
 30
0.0
 11
693.505072
 21
205.7790726207732
 31
0.0
  0
ARC
  5
47B
330
1F
100
AcDbEntity
  8
LAY-1
  6
CONTINUOUS
 62
     3
100
AcDbCircle
 10
681.505072
 20
204.7790726207732
 30
0.0
 40
1.0
100
AcDbArc
 50
90.00000000000001
 51
180.0
  0
LINE
  5
47C
330
1F
100
AcDbEntity
  8
LAY-1
  6
EXLTYPE5
 62
     1
100
AcDbLine
 10
672.8389950000002
 20
188.2790726207733
 30
0.0
 11
701.4389950000001
 21
188.2790726207733
 31
0.0
  0
LINE
  5
47D
330
1F
100
AcDbEntity
  8
LAY-1
  6
CONTINUOUS
 62
     3
100
AcDbLine
 10
694.505072
 20
176.7790726207731
 30
0.0
 11
693.505072
 21
176.7790726207731
 31
0.0
  0
LINE
  5
47E
330
1F
100
AcDbEntity
  8
LAY-1
  6
CONTINUOUS
 62
     3
100
AcDbLine
 10
694.505072
 20
143.2790726207745
 30
0.0
 11
694.505072
 21
176.7790726207731
 31
0.0
  0
LINE
  5
47F
330
1F
100
AcDbEntity
  8
LAY-1
  6
CONTINUOUS
 62
     3
100
AcDbLine
 10
693.505072
 20
143.2790726207731
 30
0.0
 11
693.505072
 21
205.7790726207732
 31
0.0
  0
LINE
  5
480
330
1F
100
AcDbEntity
  8
LAY-1
  6
CONTINUOUS
 62
     3
100
AcDbLine
 10
681.505072
 20
80.77907262077304
 30
0.0
 11
693.505072
 21
80.77907262077304
 31
0.0
  0
ARC
  5
481
330
1F
100
AcDbEntity
  8
LAY-1
  6
CONTINUOUS
 62
     3
100
AcDbCircle
 10
681.505072
 20
81.77907262077304
 30
0.0
 40
1.0
100
AcDbArc
 50
180.0
 51
270.0
  0
LINE
  5
482
330
1F
100
AcDbEntity
  8
LAY-1
  6
EXLTYPE5
 62
     1
100
AcDbLine
 10
672.8389950000002
 20
98.27907262077298
 30
0.0
 11
701.4389950000001
 21
98.27907262077298
 31
0.0
  0
LINE
  5
483
330
1F
100
AcDbEntity
  8
LAY-1
  6
CONTINUOUS
 62
     3
100
AcDbLine
 10
694.505072
 20
109.7790726207731
 30
0.0
 11
693.505072
 21
109.7790726207731
 31
0.0
  0
LINE
  5
484
330
1F
100
AcDbEntity
  8
LAY-1
  6
CONTINUOUS
 62
     3
100
AcDbLine
 10
694.505072
 20
143.2790726207745
 30
0.0
 11
694.505072
 21
109.7790726207731
 31
0.0
  0
LINE
  5
485
330
1F
100
AcDbEntity
  8
LAY-1
  6
CONTINUOUS
 62
     3
100
AcDbLine
 10
693.505072
 20
143.2790726207731
 30
0.0
 11
693.5050720000003
 21
80.77907262077309
 31
0.0
  0
LINE
  5
486
330
1F
100
AcDbEntity
  8
LAY-1
  6
CONTINUOUS
 62
     3
100
AcDbLine
 10
680.505072
 20
143.2790726207731
 30
0.0
 11
680.505072
 21
81.77907262077309
 31
0.0
  0
LINE
  5
487
330
1F
100
AcDbEntity
  8
LAY-1
  6
CONTINUOUS
 62
     3
100
AcDbLine
 10
541.8474790000001
 20
125.336124620773
 30
0.0
 11
550.5050720000003
 21
126.779072620773
 31
0.0
  0
LINE
  5
488
330
1F
100
AcDbEntity
  8
LAY-1
  6
CONTINUOUS
 62
     3
100
AcDbLine
 10
541.8474790000001
 20
161.222019620773
 30
0.0
 11
550.5050720000003
 21
159.779072620773
 31
0.0
  0
ARC
  5
489
330
1F
100
AcDbEntity
  8
LAY-1
  6
CONTINUOUS
 62
     3
100
AcDbCircle
 10
542.5050720000003
 20
121.3905536207731
 30
0.0
 40
4.0
100
AcDbArc
 50
99.46239911046021
 51
179.9999823999061
  0
ARC
  5
48A
330
1F
100
AcDbEntity
  8
LAY-1
  6
CONTINUOUS
 62
     3
100
AcDbCircle
 10
542.5050720000003
 20
165.167591620773
 30
0.0
 40
4.0
100
AcDbArc
 50
179.9999823999061
 51
260.5376229851319
  0
LINE
  5
48B
330
1F
100
AcDbEntity
  8
LAY-1
  6
CONTINUOUS
 62
     3
100
AcDbLine
 10
538.5050720000003
 20
143.2790726207729
 30
0.0
 11
538.5050720000003
 21
81.77907262077287
 31
0.0
  0
LINE
  5
48C
330
1F
100
AcDbEntity
  8
LAY-1
  6
CONTINUOUS
 62
     3
100
AcDbLine
 10
537.5050720000003
 20
80.77907262077287
 30
0.0
 11
525.5050720000003
 21
80.77907262077287
 31
0.0
  0
ARC
  5
48D
330
1F
100
AcDbEntity
  8
LAY-1
  6
CONTINUOUS
 62
     3
100
AcDbCircle
 10
537.5050720000003
 20
81.77907262077287
 30
0.0
 40
1.0
100
AcDbArc
 50
270.0
 51
0.0
  0
LINE
  5
48E
330
1F
100
AcDbEntity
  8
LAY-1
  6
EXLTYPE5
 62
     1
100
AcDbLine
 10
546.1711490000001
 20
98.27907262077281
 30
0.0
 11
517.5711490000002
 21
98.27907262077281
 31
0.0
  0
LINE
  5
48F
330
1F
100
AcDbEntity
  8
LAY-1
  6
CONTINUOUS
 62
     3
100
AcDbLine
 10
524.505072
 20
109.779072620773
 30
0.0
 11
525.5050720000003
 21
109.779072620773
 31
0.0
  0
LINE
  5
490
330
1F
100
AcDbEntity
  8
LAY-1
  6
CONTINUOUS
 62
     3
100
AcDbLine
 10
524.5050720000003
 20
143.2790726207716
 30
0.0
 11
524.5050720000003
 21
109.779072620773
 31
0.0
  0
LINE
  5
491
330
1F
100
AcDbEntity
  8
LAY-1
  6
CONTINUOUS
 62
     3
100
AcDbLine
 10
525.5050720000003
 20
143.2790726207729
 30
0.0
 11
525.5050720000003
 21
80.77907262077287
 31
0.0
  0
LINE
  5
492
330
1F
100
AcDbEntity
  8
LAY-1
  6
CONTINUOUS
 62
     3
100
AcDbLine
 10
537.5050720000003
 20
205.779072620773
 30
0.0
 11
525.5050720000003
 21
205.779072620773
 31
0.0
  0
ARC
  5
493
330
1F
100
AcDbEntity
  8
LAY-1
  6
CONTINUOUS
 62
     3
100
AcDbCircle
 10
537.5050720000003
 20
204.779072620773
 30
0.0
 40
1.0
100
AcDbArc
 50
0.0
 51
90.00000000000001
  0
LINE
  5
494
330
1F
100
AcDbEntity
  8
LAY-1
  6
EXLTYPE5
 62
     1
100
AcDbLine
 10
546.1711490000001
 20
188.2790726207731
 30
0.0
 11
517.5711490000002
 21
188.2790726207731
 31
0.0
  0
LINE
  5
495
330
1F
100
AcDbEntity
  8
LAY-1
  6
CONTINUOUS
 62
     3
100
AcDbLine
 10
524.505072
 20
176.7790726207729
 30
0.0
 11
525.5050720000003
 21
176.7790726207729
 31
0.0
  0
LINE
  5
496
330
1F
100
AcDbEntity
  8
LAY-1
  6
CONTINUOUS
 62
     3
100
AcDbLine
 10
524.5050720000003
 20
143.2790726207716
 30
0.0
 11
524.5050720000003
 21
176.779072620773
 31
0.0
  0
LINE
  5
497
330
1F
100
AcDbEntity
  8
LAY-1
  6
CONTINUOUS
 62
     3
100
AcDbLine
 10
525.505072
 20
143.2790726207729
 30
0.0
 11
525.5050719999998
 21
205.779072620773
 31
0.0
  0
LINE
  5
498
330
1F
100
AcDbEntity
  8
LAY-1
  6
CONTINUOUS
 62
     3
100
AcDbLine
 10
538.5050720000003
 20
143.2790726207729
 30
0.0
 11
538.5050720000003
 21
204.779072620773
 31
0.0
  0
LINE
  5
499
330
1F
100
AcDbEntity
  8
LAY-1
  6
CONTINUOUS
 62
     3
100
AcDbLine
 10
103.5001830000001
 20
151.279118620773
 30
0.0
 11
119.5001830000001
 21
151.279118620773
 31
0.0
  0
LINE
  5
49A
330
1F
100
AcDbEntity
  8
LAY-1
  6
CONTINUOUS
 62
     3
100
AcDbLine
 10
121.5001830000001
 20
169.279087620773
 30
0.0
 11
121.5001520000001
 21
169.279087620773
 31
0.0
  0
ARC
  5
49B
330
1F
100
AcDbEntity
  8
LAY-1
  6
CONTINUOUS
 62
     3
100
AcDbCircle
 10
103.5001830000001
 20
153.279118620773
 30
0.0
 40
2.0
100
AcDbArc
 50
180.0000198478429
 51
270.0000011238745
  0
ARC
  5
49C
330
1F
100
AcDbEntity
  8
LAY-1
  6
CONTINUOUS
 62
     3
100
AcDbCircle
 10
119.5001830000001
 20
153.279118620773
 30
0.0
 40
2.0
100
AcDbArc
 50
270.0000011238745
 51
0.0
  0
LINE
  5
49D
330
1F
100
AcDbEntity
  8
LAY-1
  6
CONTINUOUS
 62
     3
100
AcDbLine
 10
122.5002440000001
 20
166.279087620773
 30
0.0
 11
122.5002440000001
 21
160.279072620773
 31
0.0
  0
ARC
  5
49E
330
1F
100
AcDbEntity
  8
LAY-1
  6
CONTINUOUS
 62
     3
100
AcDbCircle
 10
121.5002440000001
 20
166.279087620773
 30
0.0
 40
1.0
100
AcDbArc
 50
0.0
 51
89.99998127603166
  0
ARC
  5
49F
330
1F
100
AcDbEntity
  8
LAY-1
  6
CONTINUOUS
 62
     3
100
AcDbCircle
 10
121.5002440000001
 20
160.279072620773
 30
0.0
 40
1.0
100
AcDbArc
 50
270.0000011238745
 51
359.9999823999061
  0
LINE
  5
4A0
330
1F
100
AcDbEntity
  8
LAY-1
  6
CONTINUOUS
 62
     3
100
AcDbLine
 10
97.50021300000014
 20
167.279087620773
 30
0.0
 11
101.5002130000001
 21
167.279087620773
 31
0.0
  0
LINE
  5
4A1
330
1F
100
AcDbEntity
  8
LAY-1
  6
CONTINUOUS
 62
     3
100
AcDbLine
 10
96.50021300000014
 20
149.279087620773
 30
0.0
 11
100.5002440000001
 21
149.279087620773
 31
0.0
  0
LINE
  5
4A2
330
1F
100
AcDbEntity
  8
LAY-1
  6
CONTINUOUS
 62
     3
100
AcDbLine
 10
96.50021300000014
 20
149.279087620773
 30
0.0
 11
96.50021300000014
 21
166.279087620773
 31
0.0
  0
LINE
  5
4A3
330
1F
100
AcDbEntity
  8
LAY-1
  6
CONTINUOUS
 62
     3
100
AcDbLine
 10
100.5002440000001
 20
149.279087620773
 30
0.0
 11
100.5002440000001
 21
158.279087620773
 31
0.0
  0
ARC
  5
4A4
330
1F
100
AcDbEntity
  8
LAY-1
  6
CONTINUOUS
 62
     3
100
AcDbCircle
 10
93.250854
 20
150.4099166207729
 30
0.0
 40
3.440512000000002
100
AcDbArc
 50
263.8601853912526
 51
340.8112820662978
  0
ARC
  5
4A5
330
1F
100
AcDbEntity
  8
LAY-1
  6
CONTINUOUS
 62
     3
100
AcDbCircle
 10
103.7495720000001
 20
150.4099166207729
 30
0.0
 40
3.440512000000002
100
AcDbArc
 50
199.1887201814513
 51
266.102971384513
  0
ARC
  5
4A6
330
1F
100
AcDbEntity
  8
LAY-1
  6
CONTINUOUS
 62
     3
100
AcDbCircle
 10
97.50021300000014
 20
166.279087620773
 30
0.0
 40
1.0
100
AcDbArc
 50
89.99998127603166
 51
180.0000198478429
  0
ARC
  5
4A7
330
1F
100
AcDbEntity
  8
LAY-1
  6
CONTINUOUS
 62
     3
100
AcDbCircle
 10
101.5002440000001
 20
158.279087620773
 30
0.0
 40
1.0
100
AcDbArc
 50
89.99998127603166
 51
180.0000198478429
  0
LINE
  5
4A8
330
1F
100
AcDbEntity
  8
LAY-1
  6
CONTINUOUS
 62
     3
100
AcDbLine
 10
122.5002440000001
 20
160.279087620773
 30
0.0
 11
141.3565170290447
 21
160.279087620773
 31
0.0
  0
LINE
  5
4A9
330
1F
100
AcDbEntity
  8
LAY-1
  6
CONTINUOUS
 62
     3
100
AcDbLine
 10
96.500213
 20
160.279087620773
 30
0.0
 11
75.00015200000018
 21
160.279087620773
 31
0.0
  0
LINE
  5
4AA
330
1F
100
AcDbEntity
  8
LAY-1
  6
EXLTYPE5
 62
     1
100
AcDbLine
 10
291.50003
 20
239.012614620773
 30
0.0
 11
291.50003
 21
28.3
 31
0.0
  0
LINE
  5
4AB
330
1F
100
AcDbEntity
  8
LAY-1
  6
EXLTYPE5
 62
     1
100
AcDbLine
 10
111.5001520000002
 20
239.012614620773
 30
0.0
 11
111.5001520000002
 21
27.8
 31
0.0
  0
LINE
  5
4AC
330
1F
100
AcDbEntity
  8
LAY-1
  6
CONTINUOUS
 62
     3
100
AcDbLine
 10
155.000152
 20
484.0786916207729
 30
0.0
 11
155.000152
 21
522.5787526207731
 31
0.0
  0
LINE
  5
4AD
330
1F
100
AcDbEntity
  8
LAY-1
  6
CONTINUOUS
 62
     3
100
AcDbLine
 10
155.000152
 20
484.0786916207729
 30
0.0
 11
155.000152
 21
445.5786306207727
 31
0.0
  0
ENDSEC
  0
SECTION
  2
OBJECTS
  0
DICTIONARY
  5
C
330
0
100
AcDbDictionary
  3
ACAD_GROUP
350
D
  3
ACAD_LAYOUT
350
1A
  3
ACAD_MATERIAL
350
43
  3
ACAD_MLEADERSTYLE
350
6B
  3
ACAD_MLINESTYLE
350
17
  3
ACAD_PLOTSETTINGS
350
19
  3
ACAD_SCALELIST
350
47
  3
ACAD_VISUALSTYLE
350
2A
  3
ACDBHEADERROUNDTRIPXREC
350
4AE
  3
ACDBVARIABLEDICTIONARY
350
4CF
  0
DICTIONARY
  5
4DA
330
8
100
AcDbDictionary
280
     1
  3
ACAD_XREC_ROUNDTRIP
360
4DB
  0
DICTIONARY
  5
D
102
{ACAD_REACTORS
330
C
102
}
330
C
100
AcDbDictionary
  0
DICTIONARY
  5
1A
102
{ACAD_REACTORS
330
C
102
}
330
C
100
AcDbDictionary
  0
DICTIONARY
  5
43
102
{ACAD_REACTORS
330
C
102
}
330
C
100
AcDbDictionary
  3
BYBLOCK
350
45
  3
BYLAYER
350
44
  3
GLOBAL
350
46
  0
DICTIONARY
  5
6B
102
{ACAD_REACTORS
330
C
102
}
330
C
100
AcDbDictionary
  3
STANDARD
350
6C
  0
DICTIONARY
  5
17
102
{ACAD_REACTORS
330
C
102
}
330
C
100
AcDbDictionary
  3
STANDARD
350
18
  0
DICTIONARY
  5
19
102
{ACAD_REACTORS
330
C
102
}
330
C
100
AcDbDictionary
  0
DICTIONARY
  5
47
102
{ACAD_REACTORS
330
C
102
}
330
C
100
AcDbDictionary
  3
A0
350
48
  3
A1
350
49
  3
A2
350
4A
  3
A3
350
4B
  3
A4
350
4C
  3
A5
350
4D
  3
A6
350
4E
  3
A7
350
4F
  3
A8
350
50
  3
A9
350
51
  3
B0
350
52
  3
B1
350
53
  3
B2
350
54
  3
B3
350
55
  3
B4
350
56
  3
B5
350
57
  3
B6
350
58
  3
B7
350
59
  3
B8
350
5A
  3
B9
350
5B
  3
C0
350
5C
  3
C1
350
5D
  3
C2
350
5E
  3
C3
350
5F
  3
C4
350
60
  3
C5
350
61
  3
C6
350
62
  3
C7
350
63
  3
C8
350
64
  3
C9
350
65
  3
D0
350
66
  3
D1
350
67
  3
D2
350
68
  0
DICTIONARY
  5
2A
102
{ACAD_REACTORS
330
C
102
}
330
C
100
AcDbDictionary
  3
2DWIREFRAME
350
2F
  3
BASIC
350
32
  3
BRIGHTEN
350
36
  3
COLORCHANGE
350
3A
  3
CONCEPTUAL
350
34
  3
DIM
350
35
  3
EDGECOLOROFF
350
3D
  3
FACEPATTERN
350
39
  3
FLAT
350
2B
  3
FLATWITHEDGES
350
2C
  3
GOURAUD
350
2D
  3
GOURAUDWITHEDGES
350
2E
  3
HIDDEN
350
31
  3
JITTEROFF
350
3B
  3
LINEPATTERN
350
38
  3
OVERHANGOFF
350
3C
  3
REALISTIC
350
33
  3
SHADED
350
42
  3
SHADED_WITH_EDGES
350
41
  3
SHADES_OF_GRAY
350
3E
  3
SKETCHY
350
3F
  3
THICKEN
350
37
  3
WIREFRAME
350
30
  3
X-RAY
350
40
  0
DICTIONARY
  5
4AE
102
{ACAD_REACTORS
330
C
102
}
330
C
100
AcDbDictionary
  3
CEPSNID
350
4B8
  3
CEPSNTYPE
350
4B7
  3
DIMSTYLEDATA
350
4CE
  3
FINGERPRINTGUID
350
4B9
  3
HYPERLINKBASE
350
4B1
  3
INSUNITS
350
4B6
  3
LAYOUTDICT
350
4B3
  3
LWETCUNION
350
4B5
  3
PLOTSETDICT
350
4B4
  3
PSVPSCALE
350
4BB
  3
PUCSBASE
350
4BE
  3
PUCSORGBACK
350
4C4
  3
PUCSORGBOTTOM
350
4C0
  3
PUCSORGFRONT
350
4C3
  3
PUCSORGLEFT
350
4C1
  3
PUCSORGRIGHT
350
4C2
  3
PUCSORGTOP
350
4BF
  3
PUCSORTHOREF
350
4BC
  3
PUCSORTHOVIEW
350
4BD
  3
STYLESHEET
350
4B2
  3
TSTACKALIGN
350
4AF
  3
TSTACKSIZE
350
4B0
  3
UCSBASE
350
4C7
  3
UCSORGBACK
350
4CD
  3
UCSORGBOTTOM
350
4C9
  3
UCSORGFRONT
350
4CC
  3
UCSORGLEFT
350
4CA
  3
UCSORGRIGHT
350
4CB
  3
UCSORGTOP
350
4C8
  3
UCSORTHOREF
350
4C5
  3
UCSORTHOVIEW
350
4C6
  3
VERSIONGUID
350
4BA
  0
DICTIONARY
  5
4CF
102
{ACAD_REACTORS
330
C
102
}
330
C
100
AcDbDictionary
  3
CANNOSCALE
350
4DC
  3
CENTEREXE
350
4D6
  3
CENTERLTYPEFILE
350
4D7
  3
CMLEADERSTYLE
350
4D1
  3
CTABLESTYLE
350
4D0
  3
DIMASSOC
350
4D8
  3
HIDETEXT
350
4D9
  3
MSLTSCALE
350
4DD
  3
PSOLHEIGHT
350
4D3
  3
PSOLWIDTH
350
4D2
  0
XRECORD
  5
4DB
102
{ACAD_REACTORS
330
4DA
102
}
330
4DA
100
AcDbXrecord
102
VTR_0.000_0.000_1.000_1.000_VISUALSTYLE
340
2F
102
VTR_0.000_0.000_1.000_1.000_GRIDDISPLAY
 70
     3
102
VTR_0.000_0.000_1.000_1.000_GRIDMAJOR
 70
     5
102
VTR_0.000_0.000_1.000_1.000_DEFAULTLIGHTING
280
     1
102
VTR_0.000_0.000_1.000_1.000_DEFAULTLIGHTINGTYPE
 70
     1
102
VTR_0.000_0.000_1.000_1.000_BRIGHTNESS
141
0.0
102
VTR_0.000_0.000_1.000_1.000_CONTRAST
142
0.0
  0
MATERIAL
  5
45
102
{ACAD_REACTORS
330
43
102
}
102
{ACAD_XDICTIONARY
360
4E0
102
}
330
43
100
AcDbMaterial
  1
BYBLOCK
  0
MATERIAL
  5
44
102
{ACAD_REACTORS
330
43
102
}
102
{ACAD_XDICTIONARY
360
4DE
102
}
330
43
100
AcDbMaterial
  1
BYLAYER
  0
MATERIAL
  5
46
102
{ACAD_REACTORS
330
43
102
}
102
{ACAD_XDICTIONARY
360
4E2
102
}
330
43
100
AcDbMaterial
  1
GLOBAL
  0
ACAD_PROXY_OBJECT
  5
6C
102
{ACAD_REACTORS
330
6B
102
}
330
6B
100
AcDbProxyObject
 90
      499
 91
      505
 93
      610
310
40901902A4063FBFFFFFE0000000000000020400000000000020404214DD185B99185C990000000000000104090141901A00000000000004100000000000000041025764000000000000039000
340
14
340
0
340
11
340
0
 94
        0
1001
ACAD_MLEADERVER
1070
     2
  0
MLINESTYLE
  5
18
102
{ACAD_REACTORS
330
17
102
}
330
17
100
AcDbMlineStyle
  2
Standard
 70
     0
  3

 62
   256
 51
90.0
 52
90.0
 71
     2
 49
0.5
 62
   256
  6
BYLAYER
 49
-0.5
 62
   256
  6
BYLAYER
  0
ACAD_PROXY_OBJECT
  5
48
102
{ACAD_REACTORS
330
47
102
}
330
47
100
AcDbProxyObject
 90
      499
 91
      503
 93
       41
310
903313A31580
  0
ACAD_PROXY_OBJECT
  5
49
102
{ACAD_REACTORS
330
47
102
}
330
47
100
AcDbProxyObject
 90
      499
 91
      503
 93
      105
310
903313A324000000000000004000
  0
ACAD_PROXY_OBJECT
  5
4A
102
{ACAD_REACTORS
330
47
102
}
330
47
100
AcDbProxyObject
 90
      499
 91
      503
 93
      105
310
903313A344000000000000104000
  0
ACAD_PROXY_OBJECT
  5
4B
102
{ACAD_REACTORS
330
47
102
}
330
47
100
AcDbProxyObject
 90
      499
 91
      503
 93
      105
310
903313A354000000000000144000
  0
ACAD_PROXY_OBJECT
  5
4C
102
{ACAD_REACTORS
330
47
102
}
330
47
100
AcDbProxyObject
 90
      499
 91
      503
 93
      105
310
903313A384000000000000204000
  0
ACAD_PROXY_OBJECT
  5
4D
102
{ACAD_REACTORS
330
47
102
}
330
47
100
AcDbProxyObject
 90
      499
 91
      503
 93
      113
310
904313A31304000000000000244000
  0
ACAD_PROXY_OBJECT
  5
4E
102
{ACAD_REACTORS
330
47
102
}
330
47
100
AcDbProxyObject
 90
      499
 91
      503
 93
      113
310
904313A31364000000000000304000
  0
ACAD_PROXY_OBJECT
  5
4F
102
{ACAD_REACTORS
330
47
102
}
330
47
100
AcDbProxyObject
 90
      499
 91
      503
 93
      113
310
904313A32304000000000000344000
  0
ACAD_PROXY_OBJECT
  5
50
102
{ACAD_REACTORS
330
47
102
}
330
47
100
AcDbProxyObject
 90
      499
 91
      503
 93
      113
310
904313A333040000000000003E4000
  0
ACAD_PROXY_OBJECT
  5
51
102
{ACAD_REACTORS
330
47
102
}
330
47
100
AcDbProxyObject
 90
      499
 91
      503
 93
      113
310
904313A34304000000000000444000
  0
ACAD_PROXY_OBJECT
  5
52
102
{ACAD_REACTORS
330
47
102
}
330
47
100
AcDbProxyObject
 90
      499
 91
      503
 93
      113
310
904313A35304000000000000494000
  0
ACAD_PROXY_OBJECT
  5
53
102
{ACAD_REACTORS
330
47
102
}
330
47
100
AcDbProxyObject
 90
      499
 91
      503
 93
      121
310
905313A3130304000000000000594000
  0
ACAD_PROXY_OBJECT
  5
54
102
{ACAD_REACTORS
330
47
102
}
330
47
100
AcDbProxyObject
 90
      499
 91
      503
 93
      105
310
903323A310000000000000010100
  0
ACAD_PROXY_OBJECT
  5
55
102
{ACAD_REACTORS
330
47
102
}
330
47
100
AcDbProxyObject
 90
      499
 91
      503
 93
      105
310
903343A310000000000000410100
  0
ACAD_PROXY_OBJECT
  5
56
102
{ACAD_REACTORS
330
47
102
}
330
47
100
AcDbProxyObject
 90
      499
 91
      503
 93
      105
310
903383A310000000000000810100
  0
ACAD_PROXY_OBJECT
  5
57
102
{ACAD_REACTORS
330
47
102
}
330
47
100
AcDbProxyObject
 90
      499
 91
      503
 93
      113
310
90431303A310000000000000910100
  0
ACAD_PROXY_OBJECT
  5
58
102
{ACAD_REACTORS
330
47
102
}
330
47
100
AcDbProxyObject
 90
      499
 91
      503
 93
      121
310
9053130303A310000000000001650100
  0
ACAD_PROXY_OBJECT
  5
59
102
{ACAD_REACTORS
330
47
102
}
330
47
100
AcDbProxyObject
 90
      499
 91
      503
 93
      257
310
90E312F31323822203D2031272D3022000000000000200FC000000000000284000
  0
ACAD_PROXY_OBJECT
  5
5A
102
{ACAD_REACTORS
330
47
102
}
330
47
100
AcDbProxyObject
 90
      499
 91
      503
 93
      249
310
90D312F363422203D2031272D3022000000000000240FC000000000000284000
  0
ACAD_PROXY_OBJECT
  5
5B
102
{ACAD_REACTORS
330
47
102
}
330
47
100
AcDbProxyObject
 90
      499
 91
      503
 93
      249
310
90D312F333222203D2031272D3022000000000000280FC000000000000284000
  0
ACAD_PROXY_OBJECT
  5
5C
102
{ACAD_REACTORS
330
47
102
}
330
47
100
AcDbProxyObject
 90
      499
 91
      503
 93
      249
310
90D312F313622203D2031272D30220000000000002C0FC000000000000284000
  0
ACAD_PROXY_OBJECT
  5
5D
102
{ACAD_REACTORS
330
47
102
}
330
47
100
AcDbProxyObject
 90
      499
 91
      503
 93
      249
310
90D332F333222203D2031272D30220000000000002E0FC000000000000284000
  0
ACAD_PROXY_OBJECT
  5
5E
102
{ACAD_REACTORS
330
47
102
}
330
47
100
AcDbProxyObject
 90
      499
 91
      503
 93
      241
310
90C312F3822203D2031272D3022000000000000300FC000000000000284000
  0
ACAD_PROXY_OBJECT
  5
5F
102
{ACAD_REACTORS
330
47
102
}
330
47
100
AcDbProxyObject
 90
      499
 91
      503
 93
      249
310
90D332F313622203D2031272D3022000000000000320FC000000000000284000
  0
ACAD_PROXY_OBJECT
  5
60
102
{ACAD_REACTORS
330
47
102
}
330
47
100
AcDbProxyObject
 90
      499
 91
      503
 93
      241
310
90C312F3422203D2031272D3022000000000000340FC000000000000284000
  0
ACAD_PROXY_OBJECT
  5
61
102
{ACAD_REACTORS
330
47
102
}
330
47
100
AcDbProxyObject
 90
      499
 91
      503
 93
      241
310
90C332F3822203D2031272D3022000000000000360FC000000000000284000
  0
ACAD_PROXY_OBJECT
  5
62
102
{ACAD_REACTORS
330
47
102
}
330
47
100
AcDbProxyObject
 90
      499
 91
      503
 93
      241
310
90C312F3222203D2031272D3022000000000000380FC000000000000284000
  0
ACAD_PROXY_OBJECT
  5
63
102
{ACAD_REACTORS
330
47
102
}
330
47
100
AcDbProxyObject
 90
      499
 91
      503
 93
      241
310
90C332F3422203D2031272D30220000000000003A0FC000000000000284000
  0
ACAD_PROXY_OBJECT
  5
64
102
{ACAD_REACTORS
330
47
102
}
330
47
100
AcDbProxyObject
 90
      499
 91
      503
 93
      161
310
90A3122203D2031272D30224000000000000284000
  0
ACAD_PROXY_OBJECT
  5
65
102
{ACAD_REACTORS
330
47
102
}
330
47
100
AcDbProxyObject
 90
      499
 91
      503
 93
      257
310
90E312D312F3222203D2031272D30220000000000003E0FC000000000000284000
  0
ACAD_PROXY_OBJECT
  5
66
102
{ACAD_REACTORS
330
47
102
}
330
47
100
AcDbProxyObject
 90
      499
 91
      503
 93
      225
310
90A3322203D2031272D302200000000000002100000000000000284000
  0
ACAD_PROXY_OBJECT
  5
67
102
{ACAD_REACTORS
330
47
102
}
330
47
100
AcDbProxyObject
 90
      499
 91
      503
 93
      225
310
90A3622203D2031272D302200000000000006100000000000000284000
  0
ACAD_PROXY_OBJECT
  5
68
102
{ACAD_REACTORS
330
47
102
}
330
47
100
AcDbProxyObject
 90
      499
 91
      503
 93
      249
310
90D31272D3022203D2031272D30220000000000000A100000000000000284000
  0
ACAD_PROXY_OBJECT
  5
2F
102
{ACAD_REACTORS
330
2A
102
}
330
2A
100
AcDbProxyObject
 90
      499
 91
      501
 93
      436
310
42CC9915DA5C99599C985B595049028333333333333E33F0000000000000F90107901411070040501600405405064090741402480A0340
1001
ACAD
1000
AcDbSavedByObjectVersion
1070
     0
  0
ACAD_PROXY_OBJECT
  5
32
102
{ACAD_REACTORS
330
2A
102
}
330
2A
100
AcDbProxyObject
 90
      499
 91
      501
 93
      388
310
4150985CDA58D07406404333333333333E33F0000000000000F90107A41107004050150841D405064090741402480A0350
1001
ACAD
1000
AcDbSavedByObjectVersion
1070
     0
  0
ACAD_PROXY_OBJECT
  5
36
102
{ACAD_REACTORS
330
2A
102
}
330
2A
100
AcDbProxyObject
 90
      499
 91
      501
 93
      428
310
42109C9A59DA1D195B90C409028333333333333E33F0000000000000F9010790141107004050150841D405064090741402480A029950
1001
ACAD
1000
AcDbSavedByObjectVersion
1070
     0
  0
ACAD_PROXY_OBJECT
  5
3A
102
{ACAD_REACTORS
330
2A
102
}
330
2A
100
AcDbProxyObject
 90
      499
 91
      501
 93
      452
310
42D0DBDB1BDC90DA185B99D95104090240C333333333333E33F0000000000000F90108901411070040501508421405064090741402480A0350
1001
ACAD
1000
AcDbSavedByObjectVersion
1070
     0
  0
ACAD_PROXY_OBJECT
  5
34
102
{ACAD_REACTORS
330
2A
102
}
330
2A
100
AcDbProxyObject
 90
      499
 91
      501
 93
      500
310
4290DBDB98D95C1D1D585B10940D028333333333333E33F0000000000000F90107902409070040501000000000018199010841D405064090740C02480A0340
1001
ACAD
1000
AcDbSavedByObjectVersion
1070
     0
  0
ACAD_PROXY_OBJECT
  5
35
102
{ACAD_REACTORS
330
2A
102
}
330
2A
100
AcDbProxyObject
 90
      499
 91
      501
 93
      412
310
40D11A5B50B409028333333333333E33F0000000000000F9010790141107004050150841D405064090741402480A02677FFFFFD0
1001
ACAD
1000
AcDbSavedByObjectVersion
1070
     0
  0
ACAD_PROXY_OBJECT
  5
3D
102
{ACAD_REACTORS
330
2A
102
}
330
2A
100
AcDbProxyObject
 90
      499
 91
      501
 93
      452
310
43115919D950DBDB1BDC93D999916409028333333333333E33F0000000000000F9010790141107004050150841D405064090741402480A0350
1001
ACAD
1000
AcDbSavedByObjectVersion
1070
     0
  0
ACAD_PROXY_OBJECT
  5
39
102
{ACAD_REACTORS
330
2A
102
}
330
2A
100
AcDbProxyObject
 90
      499
 91
      501
 93
      444
310
42D19858D95C185D1D195C9B90F409028333333333333E33F0000000000000F9010790141107004050150841D405064090741402480A0350
1001
ACAD
1000
AcDbSavedByObjectVersion
1070
     0
  0
ACAD_PROXY_OBJECT
  5
2B
102
{ACAD_REACTORS
330
2A
102
}
330
2A
100
AcDbProxyObject
 90
      499
 91
      501
 93
      380
310
41119B185D240901404333333333333E33F0000000000000F9010740A907004050150841D405064090741402480A1B50
1001
ACAD
1000
AcDbSavedByObjectVersion
1070
     0
  0
ACAD_PROXY_OBJECT
  5
2C
102
{ACAD_REACTORS
330
2A
102
}
330
2A
100
AcDbProxyObject
 90
      499
 91
      501
 93
      468
310
43519B185D15DA5D1A115919D95CD0140901404333333333333E33F0000000000000F90107409019070040501600405405064090741402480A1B50
1001
ACAD
1000
AcDbSavedByObjectVersion
1070
     0
  0
ACAD_PROXY_OBJECT
  5
2D
102
{ACAD_REACTORS
330
2A
102
}
330
2A
100
AcDbProxyObject
 90
      499
 91
      501
 93
      404
310
41D1DBDD5C985D5910240902404333333333333E33F0000000000000F9010740A9070040501641D405064090741402480A1B50
1001
ACAD
1000
AcDbSavedByObjectVersion
1070
     0
  0
ACAD_PROXY_OBJECT
  5
2E
102
{ACAD_REACTORS
330
2A
102
}
330
2A
100
AcDbProxyObject
 90
      499
 91
      501
 93
      492
310
4411DBDD5C985D5915DA5D1A115919D95CD0340902404333333333333E33F0000000000000F90107409019070040501600405405064090741402480A1B50
1001
ACAD
1000
AcDbSavedByObjectVersion
1070
     0
  0
ACAD_PROXY_OBJECT
  5
31
102
{ACAD_REACTORS
330
2A
102
}
330
2A
100
AcDbProxyObject
 90
      499
 91
      501
 93
      476
310
41921A5919195B90640502408333333333333E33F0000000000000F901079024090700405020000000000001110200405405064090740C02480A0340
1001
ACAD
1000
AcDbSavedByObjectVersion
1070
     0
  0
ACAD_PROXY_OBJECT
  5
3B
102
{ACAD_REACTORS
330
2A
102
}
330
2A
100
AcDbProxyObject
 90
      499
 91
      501
 93
      428
310
42529A5D1D195C93D999914409028333333333333E33F0000000000000F9010790141107004050150A41D405064090741402480A0350
1001
ACAD
1000
AcDbSavedByObjectVersion
1070
     0
  0
ACAD_PROXY_OBJECT
  5
38
102
{ACAD_REACTORS
330
2A
102
}
330
2A
100
AcDbProxyObject
 90
      499
 91
      501
 93
      444
310
42D31A5B995C185D1D195C9B90E409028333333333333E33F0000000000000F9010790141107004050750841D405064090741402483A0350
1001
ACAD
1000
AcDbSavedByObjectVersion
1070
     0
  0
ACAD_PROXY_OBJECT
  5
3C
102
{ACAD_REACTORS
330
2A
102
}
330
2A
100
AcDbProxyObject
 90
      499
 91
      501
 93
      444
310
42D3DD995C9A185B99D3D999915409028333333333333E33F0000000000000F9010790141107004050150941D405064090741402480A0350
1001
ACAD
1000
AcDbSavedByObjectVersion
1070
     0
  0
ACAD_PROXY_OBJECT
  5
33
102
{ACAD_REACTORS
330
2A
102
}
330
2A
100
AcDbProxyObject
 90
      499
 91
      501
 93
      428
310
425499585B1A5CDD1A58D08409038333333333333E33F0000000000000F9010740A907004050150800405405064090740C02480A1B40
1001
ACAD
1000
AcDbSavedByObjectVersion
1070
     0
  0
ACAD_PROXY_OBJECT
  5
42
102
{ACAD_REACTORS
330
2A
102
}
330
2A
100
AcDbProxyObject
 90
      499
 91
      501
 93
      420
310
4194DA1859195911B40902404333333333333E33F0000000000000F9010740A41107004050150800405405064090840C02480A0B40
1001
ACAD
1000
AcDbSavedByObjectVersion
1070
     0
  0
ACAD_PROXY_OBJECT
  5
41
102
{ACAD_REACTORS
330
2A
102
}
330
2A
100
AcDbProxyObject
 90
      499
 91
      501
 93
      516
310
4454DA18591959081DDA5D1A08195919D95CD1A40902404333333333333E33F0000000000000F901074090142907004050250800405405064090740C02480A0B40
1001
ACAD
1000
AcDbSavedByObjectVersion
1070
     0
  0
ACAD_PROXY_OBJECT
  5
3E
102
{ACAD_REACTORS
330
2A
102
}
330
2A
100
AcDbProxyObject
 90
      499
 91
      501
 93
      532
310
4394DA1859195CC81BD98811DC985E5174090240C333333333333E33F0000000000000F901079024090741D01000000000000111010841D405064090740C02480A0340
1001
ACAD
1000
AcDbSavedByObjectVersion
1070
     0
  0
ACAD_PROXY_OBJECT
  5
3F
102
{ACAD_REACTORS
330
2A
102
}
330
2A
100
AcDbProxyObject
 90
      499
 91
      501
 93
      476
310
41D4DAD95D18DA1E51840502408333333333333E33F0000000000000F901079024090741D01000000000000111010B41D405064090741802480A0340
1001
ACAD
1000
AcDbSavedByObjectVersion
1070
     0
  0
ACAD_PROXY_OBJECT
  5
37
102
{ACAD_REACTORS
330
2A
102
}
330
2A
100
AcDbProxyObject
 90
      499
 91
      501
 93
      412
310
41D51A1A58DAD95B90D409028333333333333E33F0000000000000F9010790141107004050150C41D405064090741402480A0350
1001
ACAD
1000
AcDbSavedByObjectVersion
1070
     0
  0
ACAD_PROXY_OBJECT
  5
30
102
{ACAD_REACTORS
330
2A
102
}
330
2A
100
AcDbProxyObject
 90
      499
 91
      501
 93
      420
310
4255DA5C99599C985B595059028333333333333E33F0000000000000F90107901411070040501600405405064090740C02480A0340
1001
ACAD
1000
AcDbSavedByObjectVersion
1070
     0
  0
ACAD_PROXY_OBJECT
  5
40
102
{ACAD_REACTORS
330
2A
102
}
330
2A
100
AcDbProxyObject
 90
      499
 91
      501
 93
      404
310
41560B54985E51940902404000000000000E03F0000000000000F9010740501907004050150841D405064090740C02480A1B40
1001
ACAD
1000
AcDbSavedByObjectVersion
1070
     0
  0
XRECORD
  5
4B8
102
{ACAD_REACTORS
330
4AE
102
}
330
4AE
100
AcDbXrecord
340
0
  0
XRECORD
  5
4B7
102
{ACAD_REACTORS
330
4AE
102
}
330
4AE
100
AcDbXrecord
 90
        0
  0
XRECORD
  5
4CE
102
{ACAD_REACTORS
330
4AE
102
}
330
4AE
100
AcDbXrecord
1000
DSTYLE
1002
{
1070
   340
340
11
1002
}
  0
XRECORD
  5
4B9
102
{ACAD_REACTORS
330
4AE
102
}
330
4AE
100
AcDbXrecord
  1
{ebea6b42-affb-4963-adf4-9ec93369722a}
  0
XRECORD
  5
4B1
102
{ACAD_REACTORS
330
4AE
102
}
330
4AE
100
AcDbXrecord
  1

  0
XRECORD
  5
4B6
102
{ACAD_REACTORS
330
4AE
102
}
330
4AE
100
AcDbXrecord
 90
        4
  0
XRECORD
  5
4B3
102
{ACAD_REACTORS
330
4AE
102
}
330
4AE
100
AcDbXrecord
340
1A
  0
XRECORD
  5
4B5
102
{ACAD_REACTORS
330
4AE
102
}
330
4AE
100
AcDbXrecord
 90
    10781
  0
XRECORD
  5
4B4
102
{ACAD_REACTORS
330
4AE
102
}
330
4AE
100
AcDbXrecord
340
19
  0
XRECORD
  5
4BB
102
{ACAD_REACTORS
330
4AE
102
}
330
4AE
100
AcDbXrecord
 40
0.0
  0
XRECORD
  5
4BE
102
{ACAD_REACTORS
330
4AE
102
}
330
4AE
100
AcDbXrecord
340
0
  0
XRECORD
  5
4C4
102
{ACAD_REACTORS
330
4AE
102
}
330
4AE
100
AcDbXrecord
 10
0.0
 20
0.0
 30
0.0
  0
XRECORD
  5
4C0
102
{ACAD_REACTORS
330
4AE
102
}
330
4AE
100
AcDbXrecord
 10
0.0
 20
0.0
 30
0.0
  0
XRECORD
  5
4C3
102
{ACAD_REACTORS
330
4AE
102
}
330
4AE
100
AcDbXrecord
 10
0.0
 20
0.0
 30
0.0
  0
XRECORD
  5
4C1
102
{ACAD_REACTORS
330
4AE
102
}
330
4AE
100
AcDbXrecord
 10
0.0
 20
0.0
 30
0.0
  0
XRECORD
  5
4C2
102
{ACAD_REACTORS
330
4AE
102
}
330
4AE
100
AcDbXrecord
 10
0.0
 20
0.0
 30
0.0
  0
XRECORD
  5
4BF
102
{ACAD_REACTORS
330
4AE
102
}
330
4AE
100
AcDbXrecord
 10
0.0
 20
0.0
 30
0.0
  0
XRECORD
  5
4BC
102
{ACAD_REACTORS
330
4AE
102
}
330
4AE
100
AcDbXrecord
340
0
  0
XRECORD
  5
4BD
102
{ACAD_REACTORS
330
4AE
102
}
330
4AE
100
AcDbXrecord
 70
     0
  0
XRECORD
  5
4B2
102
{ACAD_REACTORS
330
4AE
102
}
330
4AE
100
AcDbXrecord
  1

  0
XRECORD
  5
4AF
102
{ACAD_REACTORS
330
4AE
102
}
330
4AE
100
AcDbXrecord
 90
        1
  0
XRECORD
  5
4B0
102
{ACAD_REACTORS
330
4AE
102
}
330
4AE
100
AcDbXrecord
 90
       70
  0
XRECORD
  5
4C7
102
{ACAD_REACTORS
330
4AE
102
}
330
4AE
100
AcDbXrecord
340
0
  0
XRECORD
  5
4CD
102
{ACAD_REACTORS
330
4AE
102
}
330
4AE
100
AcDbXrecord
 10
0.0
 20
0.0
 30
0.0
  0
XRECORD
  5
4C9
102
{ACAD_REACTORS
330
4AE
102
}
330
4AE
100
AcDbXrecord
 10
0.0
 20
0.0
 30
0.0
  0
XRECORD
  5
4CC
102
{ACAD_REACTORS
330
4AE
102
}
330
4AE
100
AcDbXrecord
 10
0.0
 20
0.0
 30
0.0
  0
XRECORD
  5
4CA
102
{ACAD_REACTORS
330
4AE
102
}
330
4AE
100
AcDbXrecord
 10
0.0
 20
0.0
 30
0.0
  0
XRECORD
  5
4CB
102
{ACAD_REACTORS
330
4AE
102
}
330
4AE
100
AcDbXrecord
 10
0.0
 20
0.0
 30
0.0
  0
XRECORD
  5
4C8
102
{ACAD_REACTORS
330
4AE
102
}
330
4AE
100
AcDbXrecord
 10
0.0
 20
0.0
 30
0.0
  0
XRECORD
  5
4C5
102
{ACAD_REACTORS
330
4AE
102
}
330
4AE
100
AcDbXrecord
340
0
  0
XRECORD
  5
4C6
102
{ACAD_REACTORS
330
4AE
102
}
330
4AE
100
AcDbXrecord
 70
     0
  0
XRECORD
  5
4BA
102
{ACAD_REACTORS
330
4AE
102
}
330
4AE
100
AcDbXrecord
  1
{FAEB1C32-E019-11D5-929B-00C0DF256EC4}
  0
DICTIONARYVAR
  5
4DC
102
{ACAD_REACTORS
330
4CF
102
}
330
4CF
100
DictionaryVariables
280
     0
  1
1:1
  0
DICTIONARYVAR
  5
4D6
102
{ACAD_REACTORS
330
4CF
102
}
330
4CF
100
DictionaryVariables
280
     0
  1
3.500000
  0
DICTIONARYVAR
  5
4D7
102
{ACAD_REACTORS
330
4CF
102
}
330
4CF
100
DictionaryVariables
280
     0
  1
acadiso.lin
  0
DICTIONARYVAR
  5
4D1
102
{ACAD_REACTORS
330
4CF
102
}
330
4CF
100
DictionaryVariables
280
     0
  1
Standard
  0
DICTIONARYVAR
  5
4D0
102
{ACAD_REACTORS
330
4CF
102
}
330
4CF
100
DictionaryVariables
280
     0
  1
Standard
  0
DICTIONARYVAR
  5
4D8
102
{ACAD_REACTORS
330
4CF
102
}
330
4CF
100
DictionaryVariables
280
     0
  1
2
  0
DICTIONARYVAR
  5
4D9
102
{ACAD_REACTORS
330
4CF
102
}
330
4CF
100
DictionaryVariables
280
     0
  1
1
  0
DICTIONARYVAR
  5
4DD
102
{ACAD_REACTORS
330
4CF
102
}
330
4CF
100
DictionaryVariables
280
     0
  1
1
  0
DICTIONARYVAR
  5
4D3
102
{ACAD_REACTORS
330
4CF
102
}
330
4CF
100
DictionaryVariables
280
     0
  1
80.000000
  0
DICTIONARYVAR
  5
4D2
102
{ACAD_REACTORS
330
4CF
102
}
330
4CF
100
DictionaryVariables
280
     0
  1
5.000000
  0
DICTIONARY
  5
4E0
330
45
100
AcDbDictionary
280
     1
  3
ACAD_XREC_ROUNDTRIP
360
4E1
  0
DICTIONARY
  5
4DE
330
44
100
AcDbDictionary
280
     1
  3
ACAD_XREC_ROUNDTRIP
360
4DF
  0
DICTIONARY
  5
4E2
330
46
100
AcDbDictionary
280
     1
  3
ACAD_XREC_ROUNDTRIP
360
4E3
  0
XRECORD
  5
4E1
102
{ACAD_REACTORS
330
4E0
102
}
330
4E0
100
AcDbXrecord
102
MATERIAL
148
0.0
149
0.0
149
0.0
 93
        0
 94
      127
282
     0
 72
     1
 77
     1
171
     1
175
     1
179
     1
273
     0
  0
XRECORD
  5
4DF
102
{ACAD_REACTORS
330
4DE
102
}
330
4DE
100
AcDbXrecord
102
MATERIAL
148
0.0
149
0.0
149
0.0
 93
        0
 94
      127
282
     0
 72
     1
 77
     1
171
     1
175
     1
179
     1
273
     0
  0
XRECORD
  5
4E3
102
{ACAD_REACTORS
330
4E2
102
}
330
4E2
100
AcDbXrecord
102
MATERIAL
148
0.0
149
0.0
149
0.0
 93
        0
 94
      127
282
     0
 72
     1
 77
     1
171
     1
175
     1
179
     1
273
     0
  0
ENDSEC
  0
EOF
